Support us
Login | Signup

Popular TAGs: 2016 2015 2014 2013 720p 1080p m1080p XviD x264 x265 3D DVDrip BDrip MKV 320kbps

Show only:                                            

Sort by: Date | Name | Seeders | Leechers | Comments

Red Dawn - Alba Rossa (2012)

Language: | Size: 1014.26 MB | Seed: 1 | Leech: 1

Description:

Una potenza d'oltreoceano invade, a sorpresa, gli Stati Uniti D'America. Dopo lo shock iniziale, seguito da massacri e internamenti in campi di lavoro, i superstiti ancora in libertà decidono di coalizzarsi contro il nemico. Tra di loro vi è anche un gruppo di studenti fuggiti sulle montagne.

Festivalbar compilation 2001 CD Rossi

Language: | Size: 252.19 MB | Seed: 1 | Leech: 0

Description:

Festivalbar 2001 è una compilation di brani musicali famosi nel 2001, pubblicata nell'estate di quell'anno in concomitanza con l'edizione omonima del Festivalbar. La compilation, in realtà divisa in due diverse pubblicazioni e differenziata con copertine "rossa" e "blu", è composta da quattro cd da 18 tracce l'uno, e i dischi sono equamente divisi, due nella "rossa" e due nella "blu CD1 Vasco Rossi - Siamo soli Janet Jackson - All for You Ronan Keating - Lovin' Each Day Alex Britti - Io con la ragazza mia tu con la ragazza tua Nelly Furtado - I'm Like a Bird Gorillaz - Clint Eastwood Dakar and Grinser - Stay with Me Eve - Who's That Girl Tricarico - Drago Gazosa - www.mipiacitu Paulina Rubio - Lo haré por ti The Ark - It Takes a Fool to Remain Sane Modjo - Chillin' Depeche Mode - Dream On Reggae National Tickets - I Got U Baby Standfast - Carcrashes Paps'n'Skar - Get It On Bryan Adams - I'm Ready CD2 Bon Jovi - One Wild Night Texas - Inner Smile Emma Bunton - What Took You So Long? Neffa - La mia signorina Robbie Williams - Let Love Be Your Energy Mark Lopez - Guitar Noelia - Candela Davide De Marinis - La pancia Kelly Joyce - Avec l'amour Coldplay - Don't Panic Roxette - Real Sugar Lionel Richie - Cinderella Velvet - Boyband DeNiro - Rock with You Giuliano Palma & the Bluebeaters - Che cosa c'è Lùnapop - Vespa special Jarabe De Palo - Dos dias en la vida Bond - Victory

Prima.Di.Lunedi.2016.iTALiAN.AC3.DVDRip.XviD-T4P3

Language: | Size: 1.37 GB | Seed: 36 | Leech: 50

Description:

Prima di lunedì Titolo originale: Prima di lunedì Conosciuto anche come: Nazione: Italia Anno: 2016 Genere: Commedia Durata: 90' Regia: Massimo Cappelli Cast: Vincenzo Salemme, Fabio Troiano, Andrea Di Maria, Martina Stella, Sandra Milo, Sergio Muniz, Antonio Guerriero Produzione: Lime Film Distribuzione: Koch Media Data di uscita: 22 Settembre 2016 (cinema) Trama: Carlito, è una persona complessa, un esteta orgoglioso di essere italiano. Possiede molte vecchie 500 di tutti i colori e una catena di supermercati. Carlito deve far consegnare uno strano uovo di Pasqua molto appetibile... Siamo in agosto, è pomeriggio, Torino è deserta. Marco e Andrea, amici inseparabili, legati da Penelope, sorella di Andrea ed ex di Marco, sono proprio sulla strada di Carlito e della sua 500 verde. Penelope sta per sposarsi. Marco – che sta guidando - non è stato invitato. Mentre si affanna a convincere l’amico che non gli importa nulla del matrimonio e di Penelope, finisce dritto contro la 500. Ora i due sono in debito con Carlito...

Various Artists - Now That's What I Call Music! 95 (2016) (by emi)

Language: | Size: 229.45 MB | Seed: 706 | Leech: 237

Description:

mp3 a 192 kbps audio di qualità a 95 db Tracklist CD 1 01 - James Arthur - Say You Won't Let Go.mp3 (5.1 MB) 02 - Little Mix - Shout Out To My Ex.mp3 (5.9 MB) 03 - Clean Bandit (ft. Sean Paul & Anne-Marie) - Rockabye.mp3 (6.0 MB) 04 - The Chainsmokers (feat. Halsey) - Closer.mp3 (5.9 MB) 05 - Major Lazer (feat. Justin Bieber & M0) - Cold Water .mp3 (4.5 MB) 06 - Ariana Grande (feat. Nicki Minaj) - Side To Side.mp3 (5.4 MB) 07 - Sia - The Greatest.mp3 (5.0 MB) 08 - Calvin Harris - My Way.mp3 (5.3 MB) 09 - Hailee Steinfeld, Grey (feat. Zedd) - Starving .mp3 (4.4 MB) 10 - M.O - Who Do You Think Of.mp3 (5.4 MB) 11 - NEIKED (feat. Dyo) - Sexual.mp3 (4.6 MB) 12 - Anne-Marie - Alarm.mp3 (5.7 MB) 13 - Olly Murs - You Don't Know Love.mp3 (4.8 MB) 14 - M0 - Final Song.mp3 (6.0 MB) 15 - Maroon 5 - Don't Wanna Know.mp3 (5.2 MB) CD 2 01 - JP Cooper - September Song.mp3 (5.3 MB) 02 - Shawn Mendes - Mercy.mp3 (5.0 MB) 03 - Ellie Goulding - Still Falling For You.mp3 (5.8 MB) 04 - Emeli Sande - Hurts.mp3 (4.8 MB) 05 - Michael Buble - I Believe In You.mp3 (4.8 MB) 06 - Craig David - All We Needed.mp3 (5.2 MB) 07 - Drake (feat. Kyla & Wizki) - One Dance.mp3 (3.3 MB) 08 - DJ Snake (feat. Justin Bieber) - Let Me Love You.mp3 (5.0 MB) 09 - Fifth Harmony - That's My Girl.mp3 (5.4 MB) 10 - Sigma (feat. Birdy) - Find Me.mp3 (5.0 MB) 11 - Martin Garrix & Bebe Rexha - In The Name Of Love.mp3 (4.8 MB) 12 - Nevada (feat. Mark Morrison And Fetty Wap) - The Mack.mp3 (4.1 MB) 13 - Tieks (feat. Dan Harkna) - Sunshine.mp3 (6.1 MB) 14 - Zara Larsson - Ain't My Fault.mp3 (5.4 MB) 15 - Bob Marley (feat. LVNDSCAPE & Bolier) - Is This Love.mp3 (4.8 MB) CD 3 01 - Cash Cash & Digital Farm Animals (feat. Nelly) - Millionaire.mp3 (4.7 MB) 02 - Snakehips (feat. ZAYN) - Cruel.mp3 (6.2 MB) 03 - Matoma & Becky Hill - False Alarm.mp3 (5.3 MB) 04 - Galantis & Hook N Sling - Love On Me.mp3 (5.0 MB) 05 - Charli XCX (feat. Lil Yachty) - After The Afterparty.mp3 (5.3 MB) 06 - Dua Lipa - Blow Your Mind.mp3 (4.3 MB) 07 - Louisa Johnson - So Good.mp3 (4.6 MB) 08 - James TW - When You Love Someone.mp3 (5.5 MB) 09 - Wilkinson (feat. Karen Harding) - Sweet Lies.mp3 (5.5 MB) 10 - Craig David & Sigala - Ain't Giving Up.mp3 (3.9 MB) 11 - Charlie Puth - Dangerously.mp3 (4.8 MB) 12 - Offaiah - Trouble.mp3 (5.2 MB) 13 - Christine And The Queens - Tilted.mp3 (5.6 MB) 14 - Lady Gaga - Perfect Illusion.mp3 (4.4 MB) 15 - Niall Horan - This Town.mp3 (5.3 MB)

Lock e Stock - Pazzi scatenati (1998).H264.Italian.English.Ac3.5.1.iCV-MIRCrew

Language: | Size: 1.62 GB | Seed: 64 | Leech: 9

Description:

Lock, Stock and Two Smoking Barrels - Lock & Stock - Pazzi scatenati (1998).H264.Italian.English.Ac3.5.1.sub.ita.NUita.iCV-MIRCrew [center] [color=red][b][img]http://s23.postimg.org/b9yhws27f/0sc_Del1.png[/img] [u]NO FOUND ONLY ORIGINAL RELEASE[/u] [img]http://i.imgur.com/GDNQx1Z.png[/img] My release is always in double track audio italian and Original audio for select it use VLC or dvd player home not use wmp Lock & Stock - Pazzi scatenati - Lock, Stock and Two Smoking Barrels (1998) [img]https://extraimage.net/images/2017/01/18/f61a14a88b9882a53a8d78913a7554d1.png[/img] [URL=http://www.imdb.com/title/tt0120735/][IMG]http://www.userlogos.org/files/logos/Sucka/imdb_new.png[/IMG][/URL] [img]http://i.imgur.com/fGu1rKv.png[/img] GENERE: Commedia ANNO: 1998 REGIA: Guy Ritchie SCENEGGIATURA: Guy Ritchie FOTOGRAFIA: Tim Maurice-Jones MONTAGGIO: Niven Howie MUSICHE: David A. Hughes, John Murphy (II) PRODUZIONE: MATTHEW VAUGHN DISTRIBUZIONE: CECCHI GORI DISTRIBUZIONE (1999) - CECCHI GORI HOME VIDEO PAESE: Gran Bretagna DURATA: 107 Min [img]http://i.imgur.com/W7kBqiE.png[/img] Steven Mackintosh, Huggy Leaver, Nicholas Rowe, Steve Sweeney, Ronnie Fox, Sting, Nick Moran, Jason Statham, Vinnie Jones, Peter McNicholl, Frank Harper, Tony McMahon, Nick Marq, Charles Forbes, Lenny McLean, Dexter Fletcher, Jason Flemyng [img]http://i.imgur.com/bFK3ggF.png[/img] Quattro giovani della fascia proletaria di Londra, (Eddy, Bacon, Tom, Soap) mettono insieme la bella somma di 100mila sterline per potere giocare a poker allo stesso tavolo di Hatchet Harry, spietato gangster che spadroneggia nell'east end della città [img]http://i.imgur.com/48xHWWH.png[/img] A botched card game in London triggers four friends, thugs, weed-growers, hard gangsters, loan sharks and debt collectors to collide with each other in a series of unexpected events, all for the sake of weed, cash and two antique shotguns. [img]http://i.imgur.com/K8bfNTy.png[/img] [url=https://extraimage.net/image/2RHt][img]http://extraimage.net/images/2017/01/18/be48e5955ffbcdc59d0be8321c527bbe.th.png[/img][/url] [url=https://extraimage.net/image/2RHo][img]http://extraimage.net/images/2017/01/18/a331f76672af98e4a3be4eb522fb2776.th.png[/img][/url] [url=https://extraimage.net/image/2RHx][img]http://extraimage.net/images/2017/01/18/0c00d42ae7e49b51e7fe26f5140d1999.th.png[/img][/url] [img]http://i.imgur.com/aVrMohH.png[/img] [spoiler] General Unique ID : 221567656002870885972769099707945560320 (0xA6B060DAE9F9424376AFDF8B2DC3A900) Complete name : Lock, Stock and Two Smoking Barrels (1998).H264.ita.eng.sub.ita.iCV-MIRCrew.mkv Format : Matroska Format version : Version 2 File size : 1.62 GiB Duration : 1h 47mn Overall bit rate : 2 165 Kbps Movie name : VISIT www.icv-crew.org Encoded date : UTC 2012-07-21 18:56:54 Writing application : Lavf54.63.100 Writing library : Lavf54.63.100 COPYRIGHT : robbyrs Video ID : 1 Format : AVC Format/Info : Advanced Video Codec Format profile : [email protected] Format settings, CABAC : Yes Format settings, ReFrames : 2 frames Codec ID : V_MPEG4/ISO/AVC Duration : 1h 47mn Bit rate : 1 280 Kbps Width : 688 pixels Height : 374 pixels Display aspect ratio : 1.850 Frame rate mode : Variable Frame rate : 23.976 fps Color space : YUV Chroma subsampling : 4:2:0 Bit depth : 8 bits Scan type : Progressive Bits/(Pixel*Frame) : 0.207 Stream size : 941 MiB (57%) Writing library : x264 core 130 r2273 Encoding settings : cabac=1 / ref=2 / deblock=1:0:0 / analyse=0x1:0x131 / me=hex / subme=7 / psy=1 / psy_rd=1.00:0.00 / mixed_ref=0 / me_range=16 / chroma_me=1 / trellis=1 / 8x8dct=0 / cqm=0 / deadzone=21,11 / fast_pskip=1 / chroma_qp_offset=-2 / threads=12 / lookahead_threads=2 / sliced_threads=0 / nr=0 / decimate=1 / interlaced=0 / bluray_compat=0 / constrained_intra=0 / bframes=3 / b_pyramid=0 / b_adapt=1 / b_bias=0 / direct=3 / weightb=1 / open_gop=0 / weightp=2 / keyint=230 / keyint_min=23 / scenecut=40 / intra_refresh=0 / rc_lookahead=40 / rc=abr / mbtree=1 / bitrate=1280 / ratetol=1.0 / qcomp=0.60 / qpmin=10 / qpmax=69 / qpstep=4 / vbv_maxrate=24000 / vbv_bufsize=24000 / nal_hrd=none / ip_ratio=1.40 / aq=1:1.00 Language : Italian Default : Yes Forced : No Audio #1 ID : 2 Format : AC-3 Format/Info : Audio Coding 3 Mode extension : CM (complete main) Codec ID : A_AC3 Duration : 1h 47mn Bit rate mode : Constant Bit rate : 448 Kbps Channel(s) : 6 channels Channel positions : Front: L C R, Side: L R, LFE Sampling rate : 48.0 KHz Bit depth : 16 bits Compression mode : Lossy Delay relative to video : 1mn 5s Stream size : 344 MiB (21%) Language : Italian Default : Yes Forced : No Audio #2 ID : 3 Format : AC-3 Format/Info : Audio Coding 3 Mode extension : CM (complete main) Codec ID : A_AC3 Duration : 1h 47mn Bit rate mode : Constant Bit rate : 448 Kbps Channel(s) : 6 channels Channel positions : Front: L C R, Side: L R, LFE Sampling rate : 48.0 KHz Bit depth : 16 bits Compression mode : Lossy Delay relative to video : 1mn 5s Stream size : 344 MiB (21%) Language : English Default : No Forced : No Text #1 ID : 4 Format : UTF-8 Codec ID : S_TEXT/UTF8 Codec ID/Info : UTF-8 Plain Text Title : Sottotitoli SRT - Italiano Language : Italian Default : No Forced : No Text #2 ID : 5 Format : UTF-8 Codec ID : S_TEXT/UTF8 Codec ID/Info : UTF-8 Plain Text Title : Sottotitoli SRT - Italiano N.U. Language : Italian Default : No Forced : No Menu 00:00:00.000 : :In strada 00:03:01.306 : :Gli amici 00:05:25.075 : :Soap 00:06:40.483 : :"Accetta" 00:08:37.517 : :I vicini 00:12:37.507 : :Big Chris 00:15:36.477 : :Antiche armi 00:23:11.181 : :La partita 00:30:09.474 : :Debito 00:36:29.020 : :Idee 00:41:02.001 : :Il piano 00:43:40.451 : :Rory 00:46:39.964 : :I fucili 00:48:27.488 : :JD 00:51:31.588 : :Preparativi 00:53:43.345 : :Il colpo 01:04:13.725 : :Il furgone 01:06:54.636 : :Vigile 01:14:26.253 : :Truffato 01:18:24.658 : :Trovare i fucili 01:19:52.413 : :Sirtaki 01:30:51.655 : :Soluzione 01:37:01.315 : :Innocenti 01:40:40.409 : :Drin! [/spoiler] [/color][/b][/center]

Blow (2001).H264.Italian.English.Ac3.sub.ita.eng.iCV-MIRCrew

Language: | Size: 1.44 GB | Seed: 46 | Leech: 9

Description:

Blow (2001).H264.Italian.English.Ac3.sub.ita.eng.iCV-MIRCrew [center] [color=red][b][img]http://i.imgur.com/0scDel1.png[/img] [u]NO FOUND ONLY ORIGINAL RELEASE[/u] [img]http://i.imgur.com/GDNQx1Z.png[/img] My release is always in double track audio italian and Original audio for select it use VLC or dvd player home not use wmp Blow (2001) [img]http://extraimage.net/images/2017/01/18/907ad808e148ec736c8b3884bc335fcc.png[/img] [URL=http://www.imdb.com/title/tt0221027/][IMG]http://www.userlogos.org/files/logos/Sucka/imdb_new.png[/IMG][/URL] [img]http://i.imgur.com/qKKNGHG.png[/img] Titolo originale Blow Paese di produzione Stati Uniti d'America Anno 2001 Durata 124 min Genere biografico, drammatico Regia Ted Demme Soggetto Bruce Porter Sceneggiatura David McKenna e Nick Cassavetes Produttore Georgia Kacandes e Michael De Luca Fotografia Ellen Kuras Montaggio Kevin Tent Musiche Graeme Revell Scenografia David Ensley Costumi Mark Bridges Trucco Whitney L. James [img]http://i.imgur.com/VmqNvIa.png[/img] Johnny Depp: George Jung Penélope Cruz: Mirtha Jung Franka Potente: Barbara Buckely Ray Liotta: Fred Jung Rachel Griffiths: Ermine Jung Paul Reubens: Derek Foreal Jordi Molla: Diego Delgado Cliff Curtis: Pablo Escobar Michael Tucci: Dr. Bay Miguel Sandoval: Augusto Oliveras Ethan Suplee: Tonno Max Perlich: Kevin Dulli Kevin Gage: Leon Minghella Bobcat Goldthwait: Mr. T Jaime King: Kristina Jung Emma Roberts: Kristina Jung (bambina) [img]http://i.imgur.com/NhlQr0j.png[/img] La storia è raccontata dallo stesso George Jung attraverso un flashback, che comincia negli anni '50, quando il protagonista era solo un bambino. Nato e cresciuto nel Massachusets da una famiglia di ceto medio, George trascorre il tempo in compagnia del suo migliore amico, Tuna, e ammira molto suo padre Fred, caposquadra di un'impresa di termoidrauliche, tanto da supplicarlo di portarlo a lavoro con lui, ogni tanto [img]http://i.imgur.com/76fgzGF.png[/img] The story of George Jung, the man who established the American cocaine market in the 1970s. [img]http://i.imgur.com/DgAQhgU.png[/img] [img]http://extraimage.net/images/2017/01/18/ba3a428c407ddc8be35eb96bed3dbc1b.png[/img] [img]http://extraimage.net/images/2017/01/18/1bc2da3f459071461bf7ee98a1063e83.png[/img] [img]http://extraimage.net/images/2017/01/18/3150690e8491de2d8866e2e9e81261a5.png[/img] [img]http://i.imgur.com/DhNFcEV.png[/img] [spoiler] General Unique ID : 289574582854158367893054040259260876318 (0xD9DA0938F3022F0AA8A9468E3604861E) Complete name : Blow (2001).H264.ita.eng.sub.ita.eng.iCV-MIRCrew.mkv Format : Matroska Format version : Version 2 File size : 1.44 GiB Duration : 2h 3mn Overall bit rate : 1 669 Kbps Encoded date : UTC 2017-01-17T16:23:26Z Writing application : HandBrake 0.10.5 2016021100 Writing library : Lavf55.12.0 Video ID : 1 Format : AVC Format/Info : Advanced Video Codec Format profile : [email protected] Format settings, CABAC : Yes Format settings, ReFrames : 4 frames Codec ID : V_MPEG4/ISO/AVC Duration : 2h 3mn Bit rate : 1 270 Kbps Width : 720 pixels Height : 308 pixels Display aspect ratio : 2.35:1 Original display aspect ratio : 2.35:1 Frame rate mode : Variable Frame rate : 23.976 fps Color space : YUV Chroma subsampling : 4:2:0 Bit depth : 8 bits Scan type : Progressive Bits/(Pixel*Frame) : 0.239 Stream size : 1.08 GiB (75%) Writing library : x264 core 142 r2479 dd79a61 Encoding settings : cabac=1 / ref=1 / deblock=1:0:0 / analyse=0x1:0x111 / me=hex / subme=2 / psy=1 / psy_rd=1.00:0.00 / mixed_ref=0 / me_range=16 / chroma_me=1 / trellis=0 / 8x8dct=0 / cqm=0 / deadzone=21,11 / fast_pskip=1 / chroma_qp_offset=0 / threads=12 / lookahead_threads=2 / sliced_threads=0 / nr=0 / decimate=1 / interlaced=0 / bluray_compat=0 / constrained_intra=0 / bframes=3 / b_pyramid=2 / b_adapt=1 / b_bias=0 / direct=1 / weightb=1 / open_gop=0 / weightp=1 / keyint=240 / keyint_min=24 / scenecut=40 / intra_refresh=0 / rc_lookahead=10 / rc=abr / mbtree=1 / bitrate=1270 / ratetol=1.0 / qcomp=0.60 / qpmin=0 / qpmax=69 / qpstep=4 / vbv_maxrate=20000 / vbv_bufsize=25000 / nal_hrd=none / filler=0 / ip_ratio=1.40 / aq=1:1.00 Default : Yes Forced : No Color primaries : BT.709-5, BT.1361, IEC 61966-2-4, SMPTE RP177 Transfer characteristics : BT.709-5, BT.1361 Matrix coefficients : BT.709-5, BT.1361, IEC 61966-2-4 709, SMPTE RP177 Audio #1 ID : 2 Format : AC-3 Format/Info : Audio Coding 3 Mode extension : CM (complete main) Codec ID : A_AC3 Duration : 2h 3mn Bit rate mode : Constant Bit rate : 192 Kbps Channel(s) : 2 channels Channel positions : Front: L R Sampling rate : 48.0 KHz Bit depth : 16 bits Compression mode : Lossy Delay relative to video : 1mn 5s Stream size : 170 MiB (12%) Title : Stereo Language : Italian Default : Yes Forced : No Audio #2 ID : 3 Format : AC-3 Format/Info : Audio Coding 3 Mode extension : CM (complete main) Codec ID : A_AC3 Duration : 2h 3mn Bit rate mode : Constant Bit rate : 192 Kbps Channel(s) : 2 channels Channel positions : Front: L R Sampling rate : 48.0 KHz Bit depth : 16 bits Compression mode : Lossy Delay relative to video : 1mn 5s Stream size : 170 MiB (12%) Title : Stereo Language : English Default : No Forced : No Text #1 ID : 4 Format : ASS Codec ID : S_TEXT/ASS Codec ID/Info : Advanced Sub Station Alpha Compression mode : Lossless Language : Italian Default : No Forced : No Text #2 ID : 5 Format : VobSub Codec ID : S_VOBSUB Codec ID/Info : The same subtitle format used on DVDs Language : English Default : No Forced : No [/spoiler] [/color][/b][/center]

Kubo e la spada magica (2016).H264.Italian.English.Ac3.5.1.sub.ita.eng.iCV-MIRCrew

Language: | Size: 1.54 GB | Seed: 155 | Leech: 38

Description:

Kubo and the Two Strings - Kubo e la spada magica (2016).H264.Italian.English.Ac3.5.1.sub.ita.eng.iCV-MIRCrew [center] [color=red][b][img]http://extraimago.com/images/2016/07/16/oCo82IVa08d8.png[/img] [u]NO FOUND ONLY ORIGINAL RELEASE[/u] [img]http://i.imgur.com/GDNQx1Z.png[/img] My release is always in double track audio italian and Original audio for select it use VLC or dvd player home not use wmp Kubo e la spada magica - Kubo and the Two Strings (2016) [img]http://extraimage.net/images/2017/01/18/82de106f3a9c47abc53a470048f93459.png[/img] [URL=http://www.imdb.com/title/tt4302938/][IMG]http://www.userlogos.org/files/logos/Sucka/imdb_new.png[/IMG][/URL] [img]http://i.imgur.com/Q5gAZRt.png[/img] DATA USCITA: 03 novembre 2016 GENERE: Animazione ANNO: 2016 REGIA: Travis Knight SCENEGGIATURA: Marc Haimes MONTAGGIO: Christopher Murrie MUSICHE: Dario Marianelli PRODUZIONE: Laika Entertainment DISTRIBUZIONE: Universal Pictures PAESE: USA DURATA: 101 Min [img]http://i.imgur.com/Jtvgw7x.png[/img] Rooney Mara, Charlize Theron, Matthew McConaughey, Ralph Fiennes [img]http://i.imgur.com/hL3n1m8.png[/img] E' la storia dell'intelligente e gentile Kubo, che racconta storie fantastiche alla gente del suo paese in riva al mare. Ma quando accidentalmente evoca un antico spirito in cerca di secolare vendetta, è costretto a fuggire e si unisce a Monkey e Beetle in una quest per salvare la sua famiglia e svelare il mistero della morte del padre........... [img]http://i.imgur.com/MTp7cO6.png[/img] A young boy named Kubo must locate a magical suit of armor worn by his late father in order to defeat a vengeful spirit from the past.................. [img]http://i.imgur.com/6TgqSmf.png[/img] [img]http://extraimage.net/images/2017/01/18/007fda0314a51c30e4f626d3a7e596a8.png[/img] [img]http://extraimage.net/images/2017/01/18/cef3b4af88eefad942d59b88e55c1ffd.png[/img] [img]http://extraimage.net/images/2017/01/18/0906589adeb532f06d6ca5bf0f7e48cd.png[/img] [img]http://extraimage.net/images/2017/01/18/d40597c93d41937aaeb571e77b262079.png[/img] [img]http://i.imgur.com/t8N3Ia1.png[/img] [spoiler] General Unique ID : 109078103529564420194179017235203181355 (0x520FADB7D78BAACB4244357E0D3D4B2B) Complete name : Kubo e la spada magica (2016).H264.ita.eng.sub.ita.iCV-MIRCrew.mkv Format : Matroska Format version : Version 2 File size : 1.54 GiB Duration : 1h 41mn Overall bit rate : 2 169 Kbps Movie name : VISIT www.icv-crew.org Encoded date : UTC 2017-01-17 20:24:41 Writing application : Lavf54.63.100 Writing library : Lavf54.63.100 COPYRIGHT : robbyrs Video ID : 1 Format : AVC Format/Info : Advanced Video Codec Format profile : [email protected] Format settings, CABAC : Yes Format settings, ReFrames : 2 frames Codec ID : V_MPEG4/ISO/AVC Duration : 1h 41mn Bit rate : 1 270 Kbps Width : 720 pixels Height : 300 pixels Display aspect ratio : 2.40:1 Original display aspect ratio : 2.40:1 Frame rate mode : Variable Frame rate : 23.976 fps Color space : YUV Chroma subsampling : 4:2:0 Bit depth : 8 bits Scan type : Progressive Bits/(Pixel*Frame) : 0.245 Stream size : 894 MiB (57%) Writing library : x264 core 130 r2273 Encoding settings : cabac=1 / ref=2 / deblock=1:0:0 / analyse=0x1:0x131 / me=hex / subme=7 / psy=1 / psy_rd=1.00:0.00 / mixed_ref=0 / me_range=16 / chroma_me=1 / trellis=1 / 8x8dct=0 / cqm=0 / deadzone=21,11 / fast_pskip=1 / chroma_qp_offset=-2 / threads=12 / lookahead_threads=2 / sliced_threads=0 / nr=0 / decimate=1 / interlaced=0 / bluray_compat=0 / constrained_intra=0 / bframes=3 / b_pyramid=0 / b_adapt=1 / b_bias=0 / direct=3 / weightb=1 / open_gop=0 / weightp=2 / keyint=230 / keyint_min=23 / scenecut=40 / intra_refresh=0 / rc_lookahead=40 / rc=abr / mbtree=1 / bitrate=1270 / ratetol=1.0 / qcomp=0.60 / qpmin=10 / qpmax=69 / qpstep=4 / vbv_maxrate=24000 / vbv_bufsize=24000 / nal_hrd=none / ip_ratio=1.40 / aq=1:1.00 Language : English Default : Yes Forced : No DURATION : 01:41:36.215000000 NUMBER_OF_FRAMES : 146163 NUMBER_OF_BYTES : 6224357532 _STATISTICS_WRITING_APP : mkvmerge v8.7.0 ('All of the above') 64bit _STATISTICS_WRITING_DATE_UTC : 2017-01-15 16:11:10 _STATISTICS_TAGS : BPS DURATION NUMBER_OF_FRAMES NUMBER_OF_BYTES Audio #1 ID : 2 Format : AC-3 Format/Info : Audio Coding 3 Mode extension : CM (complete main) Codec ID : A_AC3 Duration : 1h 41mn Bit rate mode : Constant Bit rate : 448 Kbps Channel(s) : 6 channels Channel positions : Front: L C R, Side: L R, LFE Sampling rate : 48.0 KHz Bit depth : 16 bits Compression mode : Lossy Delay relative to video : 1mn 5s Stream size : 326 MiB (21%) Title : AC3 ITA Language : Italian Default : No Forced : No DURATION : 01:41:36.352000000 NUMBER_OF_FRAMES : 190511 NUMBER_OF_BYTES : 487708160 _STATISTICS_WRITING_APP : mkvmerge v8.7.0 ('All of the above') 64bit _STATISTICS_WRITING_DATE_UTC : 2017-01-15 16:11:10 _STATISTICS_TAGS : BPS DURATION NUMBER_OF_FRAMES NUMBER_OF_BYTES Audio #2 ID : 3 Format : AC-3 Format/Info : Audio Coding 3 Mode extension : CM (complete main) Codec ID : A_AC3 Duration : 1h 41mn Bit rate mode : Constant Bit rate : 448 Kbps Channel(s) : 6 channels Channel positions : Front: L C R, Side: L R, LFE Sampling rate : 48.0 KHz Bit depth : 16 bits Compression mode : Lossy Delay relative to video : 1mn 5s Stream size : 326 MiB (21%) Title : AC3 ENG Language : English Default : No Forced : No DURATION : 01:41:36.288000000 NUMBER_OF_FRAMES : 190509 NUMBER_OF_BYTES : 487703040 _STATISTICS_WRITING_APP : mkvmerge v8.7.0 ('All of the above') 64bit _STATISTICS_WRITING_DATE_UTC : 2017-01-15 16:11:10 _STATISTICS_TAGS : BPS DURATION NUMBER_OF_FRAMES NUMBER_OF_BYTES Text #1 ID : 4 Format : UTF-8 Codec ID : S_TEXT/UTF8 Codec ID/Info : UTF-8 Plain Text Title : FORCED Language : Italian Default : Yes Forced : No DURATION : 01:38:50.215000000 NUMBER_OF_FRAMES : 2 NUMBER_OF_BYTES : 29 _STATISTICS_WRITING_APP : mkvmerge v8.7.0 ('All of the above') 64bit _STATISTICS_WRITING_DATE_UTC : 2017-01-15 16:11:10 _STATISTICS_TAGS : BPS DURATION NUMBER_OF_FRAMES NUMBER_OF_BYTES Text #2 ID : 5 Format : UTF-8 Codec ID : S_TEXT/UTF8 Codec ID/Info : UTF-8 Plain Text Title : REGOLARI Language : Italian Default : No Forced : No DURATION : 01:41:11.314000000 NUMBER_OF_FRAMES : 954 NUMBER_OF_BYTES : 28563 _STATISTICS_WRITING_APP : mkvmerge v8.7.0 ('All of the above') 64bit _STATISTICS_WRITING_DATE_UTC : 2017-01-15 16:11:10 _STATISTICS_TAGS : BPS DURATION NUMBER_OF_FRAMES NUMBER_OF_BYTES Text #3 ID : 6 Format : UTF-8 Codec ID : S_TEXT/UTF8 Codec ID/Info : UTF-8 Plain Text Title : NON UDENTI Language : English Default : No Forced : No DURATION : 01:32:30.002000000 NUMBER_OF_FRAMES : 1241 NUMBER_OF_BYTES : 32794 _STATISTICS_WRITING_APP : mkvmerge v8.7.0 ('All of the above') 64bit _STATISTICS_WRITING_DATE_UTC : 2017-01-15 16:11:10 _STATISTICS_TAGS : BPS DURATION NUMBER_OF_FRAMES NUMBER_OF_BYTES Menu 00:00:00.000 : :00:00:00.000 00:07:38.208 : :00:07:38.208 00:18:20.833 : :00:18:20.833 00:26:28.417 : :00:26:28.417 00:35:28.000 : :00:35:28.000 00:45:04.625 : :00:45:04.625 00:54:10.625 : :00:54:10.625 01:03:03.417 : :01:03:03.417 01:11:58.833 : :01:11:58.833 01:20:13.208 : :01:20:13.208 01:30:47.833 : :01:30:47.833 01:36:12.417 : :01:36:12.417 [/spoiler] [/color][/b][/center]

The Fault in Our Stars - Colpa delle Stelle (2014) [DVD9 - MultiLang 5.1 - Multisubs]

Language: | Size: 7.28 GB | Seed: 7 | Leech: 12

Description:

Titolo originale: The Fault in Our Stars Nazione: Usa Anno: 2014 Genere: Drammatico, Sentimentale Durata: Versione cinematografica 1201., Versione estesa 1271. Regia: Josh Boone Produzione: 20th Century Fox Sito ufficiale: http://thefaultinourstarsmovie.com/ Cast: Shailene Woodley, Ansel Elgort, Laura Dern, Sam Trammell, Nat Wolff Data di uscita: Giovedì 4 Settembre 2014 (Cinema) Trama: Hazel Grace Lancaster, una sedicenne affetta da cancro, è obbligata dai genitori a frequentare un gruppo di supporto. Qui incontra e si innamora del diciottenne Augustus Waters, un ex giocatore di basket con una gamba amputata. Hazel fa conoscere ad Augustus il suo romanzo preferito, Un'imperiale afflizione. La passione comune per il romanzo li porta ad Amsterdam, dove hanno un burrascoso incontro con l'autore, Peter Van Houten, ormai alcolizzato. Là Augustus rivela a Hazel di essere nel corso di una grave ricaduta diagnosticata da una recente PET. Il film si chiude con la descrizione delle ultime settimane di vita e infine della morte del ragazzo, del dolore di Hazel e delle rispettive famiglie, ma anche con nuovi sviluppi del difficile rapporto dei ragazzi con Van Houten.

Ezio Bosso - Un Amore (2012) (by emi)

Language: | Size: 72.43 MB | Seed: 16 | Leech: 20

Description:

mp3 a 192 kbps audio di qualità a 95 db Tracklist 01 - Poco Prima Di Dirsi Addio I.mp3 (4.2 MB) 02 - Petite Entr'Acte Pour Contrebasse I.mp3 (671.4 KB) 03 - Giochini.mp3 (5.0 MB) 04 - Rencontres.mp3 (1.6 MB) 05 - A Little Waltz For A Little Piano.mp3 (3.3 MB) 06 - Petite Entr'Acte Pour Contrebasse II.mp3 (955.1 KB) 07 - Zoe's Theme.mp3 (5.5 MB) 08 - Petite Entr'Acte Pour Contrebasse III.mp3 (978.9 KB) 09 - Illusions.mp3 (3.2 MB) 10 - Petite Entr'acte Pour Contrebasse IV.mp3 (958.2 KB) 11 - Tango Triste (A Muchy).mp3 (6.2 MB) 12 - Petite Entr'acte Pour Contrebasse V.mp3 (882.4 KB) 13 - La Vie Des Grands.mp3 (8.5 MB) 14 - Les Adieux.mp3 (4.7 MB) 15 - Solitudes.mp3 (6.4 MB) 16 - Petite Entr'acte Pour Contrebasse VI.mp3 (931.3 KB) 17 - Dirty Tango.mp3 (8.6 MB) 18 - Petite Entr'acte Pour Contrebasse VII.mp3 (862.8 KB) 19 - Mm.mp3 (5.7 MB) 20 - Poco Prima Di Dirsi Addio II.mp3 (3.3 MB)

Ezio Bosso Essential - Music With Piano - Vol. 1 (2013) (by emi)

Language: | Size: 67.13 MB | Seed: 16 | Leech: 6

Description:

mp3 a 192 kbps audio di qualità a 95 db Tracklist 01 - Split, Postcards From Far Away.mp3 (12.2 MB) 02 - Speed Limit, A Night Ride.mp3 (6.3 MB) 03 - Rain, In Your Black Eyes.mp3 (15.3 MB) 04 - Emily Dickinson, Who Cares about The Bluebird Sing.mp3 (5.4 MB) 05 - Diversion, Street Kisses.mp3 (8.3 MB) 06 - The Maddest Noise.mp3 (4.4 MB) 07 - Clouds, The Mind On The (Re)Wind.mp3 (9.8 MB) 08 - Exit, Run 44.mp3 (5.3 MB)

Missione Anthropoid (2016) Portable.mp4.Italian.English.Aac.iCV-MIRCrew

Language: | Size: 613.38 MB | Seed: 92 | Leech: 11

Description:

Anthropoid - Missione Anthropoid (2016) Portable.mp4.Italian.English.Aac.iCV-MIRCrew [center] [color=red][b][img]http://s23.postimg.org/b9yhws27f/0sc_Del1.png[/img] [u]NO FOUND ONLY ORIGINAL RELEASE[/u] [img]http://i.imgur.com/GDNQx1Z.png[/img] My release is always in double track audio italian and Original audio for select it use VLC or dvd player home not use wmp Missione Anthropoid - Anthropoid (2016) [img]http://extraimage.net/images/2017/01/11/361c73ed3b185934ac01e1f6b95eb2df.png[/img] [URL=http://www.imdb.com/title/tt4190530/][IMG]http://www.userlogos.org/files/logos/Sucka/imdb_new.png[/IMG][/URL] [img]http://i.imgur.com/fGu1rKv.png[/img] GENERE: Biografico, Storico, Thriller, Guerra ANNO: 2016 REGIA: Sean Ellis SCENEGGIATURA: Sean Ellis, Anthony Frewin FOTOGRAFIA: Sean Ellis PRODUZIONE: LD Entertainment, 22h22, Lucky Man Films PAESE: Gran Bretagna, Repubblica Ceca, Francia [img]http://i.imgur.com/W7kBqiE.png[/img] Cillian Murphy, Jamie Dornan, Harry Lloyd, Charlotte Le Bon, Toby Jones, Bill Milner, Sam Keeley, Brian Caspe, Marcin Dorocinski [img]http://i.imgur.com/bFK3ggF.png[/img] Nel 1941 il generale delle SS Reinhard Heydrich viene nominato da Hitler a capo delle forze di occupazione naziste in Cecoslovacchia. Soprannominato “il macellaio di Praga”, Heydrich è considerato il numero tre del Reich e il suo regno di terrore e brutale repressione della resistenza ceca spingono gli Alleati a escogitare un piano top secret destinato a cambiare la storia [img]http://i.imgur.com/48xHWWH.png[/img] Based on the extraordinary true story of Operation Anthropoid, the WWII mission to assassinate SS General Reinhard Heydrich, the main architect behind the Final Solution and the Reich's third in command after Hitler and Himmler. [img]http://i.imgur.com/K8bfNTy.png[/img] [img]https://extraimage.net/images/2017/01/17/2f82277349c32bf80e8e0435a2006d36.png[/img] [img]https://extraimage.net/images/2017/01/17/048e8daacb5bc2def89f3c2f8cc9b8f9.png[/img] [img]http://i.imgur.com/aVrMohH.png[/img] [spoiler] Generale Nome completo : Missione Anthropoid (2016) Portable.mp4.ita.eng.iCV-MIRCrew.mp4 Formato : MPEG-4 Profilo formato : Base Media / Version 2 ID codec : mp42 (isom/iso2/avc1/mp41) Dimensione : 613MiB Durata : 2o 0min Modo bitrate generale : Variabile Bitrate totale : 710 Kbps Data codifica : UTC 2017-01-11 12:34:54 Data : UTC 2017-01-11 12:34:54 Creato con : HandBrake 0.10.5 2016021100 Video ID : 1 Formato : AVC Formato/Informazioni : Advanced Video Codec Profilo formato : [email protected] Impostazioni formato, CABAC : Si Impostazioni formato, ReFrames : 4 frame ID codec : avc1 ID codec/Informazioni : Advanced Video Coding Durata : 2o 0min Bitrate : 480 Kbps Larghezza : 320 pixel Altezza : 134 pixel Rapporto aspetto visualizzazione : 2,40:1 Modalità frame rate : Variabile Frame rate : 23,976 (24000/1001) fps Frame rate minimo : 23,810 fps Frame rate massimo : 24,390 fps Spazio colore : YUV Croma subsampling : 4:2:0 Profondità bit : 8 bit Tipo scansione : Progressivo Bit/(pixel*frame) : 0.467 Dimensione della traccia : 411MiB (67%) Compressore : x264 core 142 r2479 dd79a61 Impostazioni compressione : cabac=1 / ref=1 / deblock=1:0:0 / analyse=0x1:0x111 / me=hex / subme=2 / psy=1 / psy_rd=1.00:0.00 / mixed_ref=0 / me_range=16 / chroma_me=1 / trellis=0 / 8x8dct=0 / cqm=0 / deadzone=21,11 / fast_pskip=1 / chroma_qp_offset=0 / threads=12 / lookahead_threads=1 / sliced_threads=0 / nr=0 / decimate=1 / interlaced=0 / bluray_compat=0 / constrained_intra=0 / bframes=3 / b_pyramid=2 / b_adapt=1 / b_bias=0 / direct=1 / weightb=1 / open_gop=0 / weightp=1 / keyint=240 / keyint_min=24 / scenecut=40 / intra_refresh=0 / rc_lookahead=10 / rc=abr / mbtree=1 / bitrate=480 / ratetol=1.0 / qcomp=0.60 / qpmin=0 / qpmax=69 / qpstep=4 / vbv_maxrate=20000 / vbv_bufsize=25000 / nal_hrd=none / filler=0 / ip_ratio=1.40 / aq=1:1.00 Data codifica : UTC 2017-01-11 12:34:54 Data : UTC 2017-01-11 12:34:54 colour_range : Limited Colori primari : BT.709 Caratteristiche trasferimento : BT.709 Coefficienti matrici : BT.709 Menus : 4 Audio #1 ID : 2 Formato : AAC Formato/Informazioni : Advanced Audio Codec Profilo formato : LC ID codec : 40 Durata : 2o 0min Modalità bitrate : Variabile Bitrate : 112 Kbps Canali : 2 canali Posizione canali : Front: L R Frequenza campionamento : 48,0 KHz Frame rate : 46,875 fps (1024 spf) Modo compressione : Con perdita Dimensione della traccia : 97,0MiB (16%) Titolo : Stereo / Stereo Lingua : Italiano Default : Si Alternate group : 1 Data codifica : UTC 2017-01-11 12:34:54 Data : UTC 2017-01-11 12:34:54 Menus : 4 Audio #2 ID : 3 Formato : AAC Formato/Informazioni : Advanced Audio Codec Profilo formato : LC ID codec : 40 Durata : 2o 0min Modalità bitrate : Variabile Bitrate : 112 Kbps Canali : 2 canali Posizione canali : Front: L R Frequenza campionamento : 48,0 KHz Frame rate : 46,875 fps (1024 spf) Modo compressione : Con perdita Dimensione della traccia : 96,5MiB (16%) Titolo : Stereo / Stereo Lingua : Inglese Default : No Alternate group : 1 Data codifica : UTC 2017-01-11 12:34:54 Data : UTC 2017-01-11 12:34:54 Menus : 4 Menu ID : 4 ID codec : text Durata : 2o 0min Lingua : Inglese Data codifica : UTC 2017-01-11 12:34:54 Data : UTC 2017-01-11 12:34:54 Modalità bitrate : CBR Menu For : 1,2,3 00:00:00.000 : 00:00:00.000 00:08:32.178 : 00:08:32.053 00:12:57.943 : 00:12:57.860 00:18:48.377 : 00:18:48.294 00:24:35.682 : 00:24:35.599 00:28:54.190 : 00:28:54.107 00:34:03.124 : 00:34:02.916 00:39:41.879 : 00:39:41.754 00:48:59.186 : 00:48:59.103 00:56:05.070 : 00:56:04.987 00:59:55.967 : 00:59:55.842 01:06:37.702 : 01:06:37.535 01:12:15.164 : 01:12:14.997 01:17:09.124 : 01:17:09.041 01:23:09.901 : 01:23:09.693 01:28:13.204 : 01:28:13.121 01:32:06.479 : 01:32:06.396 01:39:01.936 : 01:39:01.769 01:44:39.565 : 01:44:39.482 01:54:38.037 : 01:54:37.829 [/spoiler] [/color][/b][/center]

South Park S20E07 - Oh.Jeez - iTA ENG SUBS 1080p DLMux x264

Language: | Size: 875.89 MB | Seed: 3 | Leech: 0

Description:

Titolo Italiano: South Park Titolo Originale: South Park Produzione: 1997 © Trey Parker, Matt Stone, Comedy Central Nazione: USA Durata: 10 episodi da 22 minuti circa .:INFO:. South Park (South Park) è una serie televisiva satirica statunitense a cartoni animati. Creata e doppiata da Matt Stone e Trey Parker, viene distribuita e trasmessa negli Stati Uniti da Comedy Central. Trasmessa per la prima volta nel 1997, la serie è giunta alla sua quindicesima stagione. South Park narra le avventure di Stan, Kyle, Eric e Kenny, quattro ragazzi che frequentano la scuola elementare (inizialmente la terza classe e, a partire dalla quarta stagione, la quarta) e vivono nella piccola città di South Park, sulle Montagne Rocciose, in Colorado. In principio il cartone era realizzato utilizzando la tecnica della stop motion cutout animation, dove i fotogrammi vengono realizzati incollando pezzi di cartone direttamente sullo sfondo. Successivamente questa tecnica è stata rimpiazzata dall'animazione al computer. [Fonte: Wiki] .:Download:. 01) Grappoli di ricordi - HD - FullHD 02) Caccia al troll - HD - FullHD 03) Anime perse - HD - FullHD 04) Wieners Out - HD - FullHD 05) Douche and a Danish - HD - FullHD 06) Fort Collins - HD - FullHD 07) Oh, Jeez - HD - FullHD 08) Members Only - HD - FullHD 09) Non è divertente - HD - FullHD 10) The End of Serialization as We Know It - HD - FullHD

Cafe Society (2016).H264.Italian.English.Ac3.5.1.sub.ita.eng.iCV-MIRCrew

Language: | Size: 1.35 GB | Seed: 2 | Leech: 6

Description:

Cafe Society (2016).H264.Italian.English.Ac3.5.1.sub.ita.eng.iCV-MIRCrew [center] [color=red][b][img]http://s23.postimg.org/b9yhws27f/0sc_Del1.png[/img] [u]NO FOUND ONLY ORIGINAL RELEASE[/u] [img]http://i.imgur.com/GDNQx1Z.png[/img] My release is always in double track audio italian and Original audio for select it use VLC or dvd player home not use wmp Cafe Society (2016) [img]http://boltimg.com/images/uwP33.png[/img] [URL=http://www.imdb.com/title/tt4513674/][IMG]http://www.userlogos.org/files/logos/Sucka/imdb_new.png[/IMG][/URL] [img]http://i.imgur.com/fGu1rKv.png[/img] DATA USCITA: 29 settembre 2016 GENERE: Commedia, Sentimentale ANNO: 2016 REGIA: Woody Allen SCENEGGIATURA: Woody Allen FOTOGRAFIA: Vittorio Storaro MONTAGGIO: Alisa Lepselter PRODUZIONE: FilmNation Entertainment, Gravier Productions, Perdido Productions DISTRIBUZIONE: Warner Bros. Italia PAESE: USA DURATA: 96 Min [img]http://i.imgur.com/W7kBqiE.png[/img] Jesse Eisenberg, Kristen Stewart, Steve Carell, Blake Lively, Jeannie Berlin, Sheryl Lee, Corey Stoll, Parker Posey, Anna Camp, Stephen Kunken, Paul Schneider, Ken Stott, Paul Schackman, Sari Lennick, Don Stark, Gregg Binkley, Anthony DiMaria [img]http://i.imgur.com/bFK3ggF.png[/img] Ambientato nel 1930, CAFÉ SOCIETY segue il viaggio di Bobby Dorfman dal Bronx, dove è nato, a Hollywood, dove si innamora, per poi tornare nuovamente a New York, in cui viene travolto nel mondo vibrante della vita dei locali notturni dell'alta società. Incentrato sugli eventi della vita della famiglia originaria del Bronx di Bobby, il film è un ritratto scintillante delle star del cinema............. [img]http://i.imgur.com/48xHWWH.png[/img] In 1930's Hollywood, the powerful agent, Phil Stern, is attending a party and receives a phone call from his sister living in New York. She asks for a job to her son and Phil's nephew, Bobby, who decided to move to Hollywood. Three weeks later Phil schedules a meeting with Bobby and decides to help him. He asks his secretary Veronica "Vonnie" to hang around with Bobby, showing him the touristic places. .............. [img]http://i.imgur.com/K8bfNTy.png[/img] [img]http://boltimg.com/images/uwKcu.png[/img] [img]http://boltimg.com/images/uwCKc.png[/img] [img]http://boltimg.com/images/uwwan.png[/img] [img]http://i.imgur.com/aVrMohH.png[/img] [spoiler] General Unique ID : 40748319332771232126548491083609166121 (0x1EA7D741338C167641B0DAC0B0365129) Complete name : Cafe Society (2016).ita.eng.sub.ita.eng.iCV-MIRCrew.mkv Format : Matroska Format version : Version 2 File size : 1.35 GiB Duration : 1h 36mn Overall bit rate : 2 016 Kbps Movie name : VISIT www.icv-crew.org Encoded date : UTC 2017-01-13 14:41:48 Writing application : Lavf54.63.100 Writing library : Lavf54.63.100 COMMENT : VISIT www.icv-crew.org COPYRIGHT : robbyrs Video ID : 1 Format : AVC Format/Info : Advanced Video Codec Format profile : [email protected] Format settings, CABAC : Yes Format settings, ReFrames : 2 frames Codec ID : V_MPEG4/ISO/AVC Duration : 1h 36mn Bit rate : 1 208 Kbps Nominal bit rate : 1 280 Kbps Width : 720 pixels Height : 360 pixels Display aspect ratio : 2.000 Frame rate mode : Variable Frame rate : 23.976 fps Color space : YUV Chroma subsampling : 4:2:0 Bit depth : 8 bits Scan type : Progressive Bits/(Pixel*Frame) : 0.194 Stream size : 830 MiB (60%) Writing library : x264 core 130 r2273 Encoding settings : cabac=1 / ref=2 / deblock=1:0:0 / analyse=0x1:0x131 / me=hex / subme=7 / psy=1 / psy_rd=1.00:0.00 / mixed_ref=0 / me_range=16 / chroma_me=1 / trellis=1 / 8x8dct=0 / cqm=0 / deadzone=21,11 / fast_pskip=1 / chroma_qp_offset=-2 / threads=12 / lookahead_threads=2 / sliced_threads=0 / nr=0 / decimate=1 / interlaced=0 / bluray_compat=0 / constrained_intra=0 / bframes=3 / b_pyramid=0 / b_adapt=1 / b_bias=0 / direct=3 / weightb=1 / open_gop=0 / weightp=2 / keyint=230 / keyint_min=23 / scenecut=40 / intra_refresh=0 / rc_lookahead=40 / rc=abr / mbtree=1 / bitrate=1280 / ratetol=1.0 / qcomp=0.60 / qpmin=10 / qpmax=69 / qpstep=4 / vbv_maxrate=24000 / vbv_bufsize=24000 / nal_hrd=none / ip_ratio=1.40 / aq=1:1.00 Language : Italian Default : Yes Forced : No DURATION : 01:36:05.552000000 NUMBER_OF_FRAMES : 138235 NUMBER_OF_BYTES : 7006263471 _STATISTICS_WRITING_APP : mkvmerge v8.7.0 ('All of the above') 64bit _STATISTICS_WRITING_DATE_UTC : 2017-01-12 15:58:58 _STATISTICS_TAGS : BPS DURATION NUMBER_OF_FRAMES NUMBER_OF_BYTES Audio #1 ID : 2 Format : AC-3 Format/Info : Audio Coding 3 Mode extension : CM (complete main) Codec ID : A_AC3 Duration : 1h 36mn Bit rate mode : Constant Bit rate : 384 Kbps Channel(s) : 6 channels Channel positions : Front: L C R, Side: L R, LFE Sampling rate : 48.0 KHz Bit depth : 16 bits Compression mode : Lossy Delay relative to video : 1mn 5s Stream size : 264 MiB (19%) Language : Italian Default : Yes Forced : No DURATION : 01:36:02.528000000 NUMBER_OF_FRAMES : 180079 NUMBER_OF_BYTES : 276601344 _STATISTICS_WRITING_APP : mkvmerge v8.7.0 ('All of the above') 64bit _STATISTICS_WRITING_DATE_UTC : 2017-01-12 15:58:58 _STATISTICS_TAGS : BPS DURATION NUMBER_OF_FRAMES NUMBER_OF_BYTES Audio #2 ID : 3 Format : AC-3 Format/Info : Audio Coding 3 Mode extension : CM (complete main) Codec ID : A_AC3 Duration : 1h 36mn Bit rate mode : Constant Bit rate : 384 Kbps Channel(s) : 6 channels Channel positions : Front: L C R, Side: L R, LFE Sampling rate : 48.0 KHz Bit depth : 16 bits Compression mode : Lossy Delay relative to video : 1mn 5s Stream size : 264 MiB (19%) Language : English Default : No Forced : No DURATION : 01:36:05.558000000 NUMBER_OF_FRAMES : 540521 NUMBER_OF_BYTES : 1087528252 _STATISTICS_WRITING_APP : mkvmerge v8.7.0 ('All of the above') 64bit _STATISTICS_WRITING_DATE_UTC : 2017-01-12 15:58:58 _STATISTICS_TAGS : BPS DURATION NUMBER_OF_FRAMES NUMBER_OF_BYTES Text #1 ID : 4 Format : UTF-8 Codec ID : S_TEXT/UTF8 Codec ID/Info : UTF-8 Plain Text Title : italiano forced Language : Italian Default : Yes Forced : Yes DURATION : 01:18:55.527000000 NUMBER_OF_FRAMES : 6 NUMBER_OF_BYTES : 186 _STATISTICS_WRITING_APP : mkvmerge v8.7.0 ('All of the above') 64bit _STATISTICS_WRITING_DATE_UTC : 2017-01-12 15:58:58 _STATISTICS_TAGS : BPS DURATION NUMBER_OF_FRAMES NUMBER_OF_BYTES Text #2 ID : 5 Format : UTF-8 Codec ID : S_TEXT/UTF8 Codec ID/Info : UTF-8 Plain Text Title : Regular Language : Italian Default : No Forced : No DURATION : 01:29:44.342000000 NUMBER_OF_FRAMES : 1831 NUMBER_OF_BYTES : 60932 _STATISTICS_WRITING_APP : mkvmerge v8.7.0 ('All of the above') 64bit _STATISTICS_WRITING_DATE_UTC : 2017-01-12 15:58:58 _STATISTICS_TAGS : BPS DURATION NUMBER_OF_FRAMES NUMBER_OF_BYTES Text #3 ID : 6 Format : UTF-8 Codec ID : S_TEXT/UTF8 Codec ID/Info : UTF-8 Plain Text Title : Regular Language : English Default : No Forced : No DURATION : 01:29:38.081000000 NUMBER_OF_FRAMES : 1699 NUMBER_OF_BYTES : 64196 _STATISTICS_WRITING_APP : mkvmerge v8.7.0 ('All of the above') 64bit _STATISTICS_WRITING_DATE_UTC : 2017-01-12 15:58:58 _STATISTICS_TAGS : BPS DURATION NUMBER_OF_FRAMES NUMBER_OF_BYTES Menu 00:00:00.000 : :00:00:00.000 00:08:35.847 : :00:08:35.847 00:16:40.164 : :00:16:40.164 00:26:28.627 : :00:26:28.627 00:32:30.990 : :00:32:30.990 00:43:12.505 : :00:43:12.505 00:54:03.864 : :00:54:03.864 01:02:38.755 : :01:02:38.755 01:10:05.658 : :01:10:05.658 01:14:41.100 : :01:14:41.100 01:20:46.173 : :01:20:46.173 01:31:57.094 : :01:31:57.094 [/spoiler] [/color][/b][/center]

South Park S20E09 - Non E Divertente - iTA ENG SUBS 1080p DLMux x264

Language: | Size: 868.8 MB | Seed: 3 | Leech: 0

Description:

Titolo Italiano: South Park Titolo Originale: South Park Produzione: 1997 © Trey Parker, Matt Stone, Comedy Central Nazione: USA Durata: 10 episodi da 22 minuti circa .:INFO:. South Park (South Park) è una serie televisiva satirica statunitense a cartoni animati. Creata e doppiata da Matt Stone e Trey Parker, viene distribuita e trasmessa negli Stati Uniti da Comedy Central. Trasmessa per la prima volta nel 1997, la serie è giunta alla sua quindicesima stagione. South Park narra le avventure di Stan, Kyle, Eric e Kenny, quattro ragazzi che frequentano la scuola elementare (inizialmente la terza classe e, a partire dalla quarta stagione, la quarta) e vivono nella piccola città di South Park, sulle Montagne Rocciose, in Colorado. In principio il cartone era realizzato utilizzando la tecnica della stop motion cutout animation, dove i fotogrammi vengono realizzati incollando pezzi di cartone direttamente sullo sfondo. Successivamente questa tecnica è stata rimpiazzata dall'animazione al computer. [Fonte: Wiki] .:Download:. 01) Grappoli di ricordi - HD - FullHD 02) Caccia al troll - HD - FullHD 03) Anime perse - HD - FullHD 04) Wieners Out - HD - FullHD 05) Douche and a Danish - HD - FullHD 06) Fort Collins - HD - FullHD 07) Oh, Jeez - HD - FullHD 08) Members Only - HD - FullHD 09) Non è divertente - HD - FullHD 10) The End of Serialization as We Know It - HD - FullHD

A Cat in Paris - Un Gatto a Parigi (2010) [DVD5 - Ita Fra 5.1 - Ita subs]

Language: | Size: 4.22 GB | Seed: 15 | Leech: 13

Description:

Titolo originale: Une Vie de Chat Nazione: Francia, Paesi Bassi, Svizzera, Belgio Anno: 2010 Genere: Animazione Durata: 62' Regia: Jean-Loup Felicioli e Alain Gagnol Cast: Dominique Blanc, Bernadette Lafont, Bruno Salomone, Jean Benguigui, Oriane Zani. Produzione: PFA (Italia) Data di uscita: Giovedì 18 Dicembre 2014 (cinema) Trama: Il film racconta la storia di un gatto Parigino di nome Dino che vive una doppia vita. Di giorno abita con la piccola Zoe come compagno fedele, mentre di notte esce dalla finestra mentre la bimba dorme per andare a trovare Nico, un ladruncolo dal cuore buono che vive di espedienti e che saltella agilmente sui doccioni di Notre-Dame, penetrando negli appartamenti altrui in cerca di preziosi e facile refurtiva. Una notte la bimba seguirà Dino nelle sue scorribande notturne, diventando suo malgrado testimone di un losco affare. Dino e Nico dovranno quindi salvare la bambina dalle grinfie del mafioso Victor Costa che è riuscito a catturarla, per riportarla dalla madre Jeanne, commissario della polizia locale.

Windows 7 All-In-One

Language: | Size: 3.69 GB | Seed: 75 | Leech: 12

Description:

Windows 7 All-In-One - ITA - 32-Bit (x86) & 64-Bit ( x64) SP1 - 2011. DVD Completo di tutte le edizioni di Windows 7 fornito al solo scopo di Backup, ogni utilizzo illegale e violazione del Copyright, sono soggetti a sanzioni penali. LA COPIA è ORIGINALE E FUNZIONANTE da Masterizzare in un normale DVD. Priva di Virus al 100%. BY IsoWinSO

L era glaciale 4 - Continenti alla deriva (2012).H264.Italian.English.Ac3.5.1.Sub.ita.eng.iCV-MIRCrew

Language: | Size: 1.24 GB | Seed: 61 | Leech: 63

Description:

Ice Age: Continental Drift - L era glaciale 4 - Continenti alla deriva (2012).H264.Italian.English.Ac3.5.1.Sub.ita.eng.iCV-MIRCrew [center] [color=red][b][img]http://extraimago.com/images/2016/07/16/oCo82IVa08d8.png[/img] [u]NO FOUND ONLY ORIGINAL RELEASE[/u] [img]http://i.imgur.com/GDNQx1Z.png[/img] My release is always in double track audio italian and Original audio for select it use VLC or dvd player home not use wmp L'era glaciale 4 - Continenti alla deriva - Ice Age: Continental Drift (2012) [img]http://extraimage.net/images/2017/01/16/903bcfcef1130ef3fcd197eb29602456.png[/img] [URL=][IMG]http://www.userlogos.org/files/logos/Sucka/imdb_new.png[/IMG][/URL] [img]http://i.imgur.com/fGu1rKv.png[/img] Titolo originale Ice Age: Continental Drift Lingua originale inglese Paese di produzione Stati Uniti d'America Anno 2012 Durata 84 minuti Rapporto 2.39:1 Genere animazione, avventura, commedia Regia Steve Martino, Mike Thurmeier Sceneggiatura Michael Berg, Jason Fuchs, Mike Reiss Produttore Lori Forte, John C. Donkin Casa di produzione Blue Sky Studios Distribuzione (Italia) 20th Century Fox Art director Peter DeSeve Fotografia Renato Falcão Montaggio James Palumbo, David Ian Salter Musiche John Powell [img]http://i.imgur.com/W7kBqiE.png[/img] Doppiatori originali Ray Romano: Manfred "Manny" John Leguizamo: Sid Denis Leary: Diego Queen Latifah: Ellie Seann William Scott: Crash Josh Peck: Eddie Chris Wedge: Scrat Keke Palmer: Pesca Wanda Sykes: Nonnina Peter Dinklage: Capitan Sbudella Jennifer Lopez: Shira Aziz Ansari: Sguincio Rebel Wilson: Gura Kunal Nayyar: Gandhalì Nick Frost: Pachi Josh Gad: Louis Alain Chabat: Gabièn Drake: Ethan Joy Behar: Eunice Heather Morris: Katie Alan Tudyk: Milton/Fabio Sloth Nicki Minaj: Steffie Eddie "Piolín" Sotelo: zio Fungus Ben Gleib: Marshall Ally Romano: Meghan Simon Pegg: Buck Patrick Stewart: Ariscratle Doppiatori italiani Filippo Timi: Manfred Claudio Bisio: Sid Pino Insegno: Diego Roberta Lanfranchi: Ellie Francesco Pezzulli: Crash Lee Ryan: Eddie Isabelle Adriani: Pesca Cristina Noci: Nonnina Francesco Pannofino: Capitan Sbudella Hong-hu Ada: Shira Riccardo Scarafoni: Sguincio Domitilla D'Amico: Gura Gianfranco Miranda: Gandhalì Fabrizio Vidale: Pachi Luigi Morville: Louis Marco Rasori: Gabièn Andrea Mete: Ethan Marina Tagliaferri: Eunice Carmen Iovine: Katie Alessio Cigliano: Milton Monica Ward: Steffie Sergio Di Giulio: zio Fungus Roberto Ciufoli: Marshall Elisa Carucci: Meghan Massimo Giuliani: Buck Chris Wedge : Scrat [img]http://i.imgur.com/bFK3ggF.png[/img] Scrat sta cercando ancora di seppellire una ghianda quando apre una fenditura e precipita fino al centro della Terra, causando una catastrofe planetaria dalla quale si innesca la deriva dei continenti.................. [img]http://i.imgur.com/48xHWWH.png[/img] Manny, Diego, and Sid embark upon another adventure after their continent is set adrift. Using an iceberg as a ship, they encounter sea creatures and battle pirates as they explore a new world. . ............. [img]http://i.imgur.com/K8bfNTy.png[/img] [img]http://extraimage.net/images/2017/01/16/07a31b98b71ee2d658bd95bbe16f0e20.png[/img] [img]http://extraimage.net/images/2017/01/16/d74bdc1bb035191811565b40a4badd92.png[/img] [img]http://extraimage.net/images/2017/01/16/ea6088474985e6063365608ccfdb0b2b.png[/img] [img]http://i.imgur.com/aVrMohH.png[/img] [spoiler] Generale ID univoco : 179950359951603226621503101511162644353 (0x87612DBD8A50F9FE262CC36C14A3C781) Nome completo : \L'era glaciale 4 - Continenti alla deriva (2012).H264.ita.eng.sub.ita.eng.iCV-MIRCrew.mkv Formato : Matroska Versione formato : Version 2 Dimensione : 1,24 GiB Durata : 1o 27min Bitrate totale : 2.030 Kbps Film : VISIT www.icv-crew.org Data codifica : UTC 2017-01-16 13:07:57 / UTC 2017-01-16 13:07:57 Creato con : Lavf54.63.100 Compressore : Lavf54.63.100 / Lavf54.63.100 Copyright : robbyrs Video ID : 1 Formato : AVC Formato/Informazioni : Advanced Video Codec Profilo formato : [email protected] Impostazioni formato, CABAC : Si Impostazioni formato, ReFrames : 2 frame ID codec : V_MPEG4/ISO/AVC Durata : 1o 27min Bitrate : 1.270 Kbps Larghezza : 720 pixel Altezza : 300 pixel Rapporto aspetto visualizzazione : 2,40:1 Modalità frame rate : Costante Frame rate : 23,976 (24000/1001) fps Spazio colore : YUV Croma subsampling : 4:2:0 Profondità bit : 8 bit Tipo scansione : Progressivo Bit/(pixel*frame) : 0.245 Dimensione della traccia : 767MiB (60%) Compressore : x264 core 130 r2273 Impostazioni compressione : cabac=1 / ref=2 / deblock=1:0:0 / analyse=0x1:0x131 / me=hex / subme=7 / psy=1 / psy_rd=1.00:0.00 / mixed_ref=0 / me_range=16 / chroma_me=1 / trellis=1 / 8x8dct=0 / cqm=0 / deadzone=21,11 / fast_pskip=1 / chroma_qp_offset=-2 / threads=12 / lookahead_threads=2 / sliced_threads=0 / nr=0 / decimate=1 / interlaced=0 / bluray_compat=0 / constrained_intra=0 / bframes=3 / b_pyramid=0 / b_adapt=1 / b_bias=0 / direct=3 / weightb=1 / open_gop=0 / weightp=2 / keyint=230 / keyint_min=23 / scenecut=40 / intra_refresh=0 / rc_lookahead=40 / rc=abr / mbtree=1 / bitrate=1270 / ratetol=1.0 / qcomp=0.60 / qpmin=10 / qpmax=69 / qpstep=4 / vbv_maxrate=24000 / vbv_bufsize=24000 / nal_hrd=none / ip_ratio=1.40 / aq=1:1.00 Default : Si Forced : No Audio #1 ID : 2 Formato : AC-3 Formato/Informazioni : Audio Coding 3 Estensione modo : CM (complete main) Impostazioni formato, Endianness : Big ID codec : A_AC3 Durata : 1o 27min Modalità bitrate : Costante Bitrate : 384 Kbps Canali : 6 canali Posizione canali : Front: L C R, Side: L R, LFE Frequenza campionamento : 48,0 KHz Frame rate : 31,250 fps (1536 spf) Modo compressione : Con perdita Ritardo video : 67ms Dimensione della traccia : 241MiB (19%) Titolo : Surround Lingua : Italiano Default : Si Forced : No Audio #2 ID : 3 Formato : AC-3 Formato/Informazioni : Audio Coding 3 Estensione modo : CM (complete main) Impostazioni formato, Endianness : Big ID codec : A_AC3 Durata : 1o 27min Modalità bitrate : Costante Bitrate : 384 Kbps Canali : 6 canali Posizione canali : Front: L C R, Side: L R, LFE Frequenza campionamento : 48,0 KHz Frame rate : 31,250 fps (1536 spf) Modo compressione : Con perdita Ritardo video : 67ms Dimensione della traccia : 241MiB (19%) Titolo : Surround Lingua : Inglese Default : No Forced : No Testo #1 ID : 4 Formato : UTF-8 ID codec : S_TEXT/UTF8 ID codec/Informazioni : UTF-8 Plain Text Lingua : Italiano Default : No Forced : No Testo #2 ID : 5 Formato : UTF-8 ID codec : S_TEXT/UTF8 ID codec/Informazioni : UTF-8 Plain Text Lingua : Inglese Default : No Forced : No Menu 00:00:00.000 : :00:00:00.000 00:03:24.182 : :00:03:24.037 00:05:07.410 : :00:05:07.224 00:09:33.551 : :00:09:33.406 00:13:08.807 : :00:13:08.705 00:15:55.432 : :00:15:55.329 00:18:22.746 : :00:18:22.643 00:22:23.904 : :00:22:23.717 00:25:56.616 : :00:25:56.555 00:29:18.026 : :00:29:17.965 00:32:57.662 : :00:32:57.601 00:36:14.483 : :00:36:14.381 00:38:41.755 : :00:38:41.653 00:43:48.770 : :00:43:48.709 00:45:29.705 : :00:45:29.644 00:49:39.037 : :00:49:38.976 00:53:49.537 : :00:53:49.476 00:57:23.042 : :00:57:22.856 01:02:31.225 : :01:02:31.039 01:08:08.395 : :01:08:08.334 01:11:10.536 : :01:11:10.475 01:13:14.701 : :01:13:14.640 01:16:53.503 : :01:16:53.400 01:19:23.737 : :01:19:23.634 [/spoiler] [/color][/b][/center]

L era glaciale 3 - L alba dei dinosauri (2009).H264.Italian.English.Ac3.5.1.MultiSub.iCV-MIRCrew

Language: | Size: 1.29 GB | Seed: 36 | Leech: 31

Description:

Ice Age: Dawn of the Dinosaurs - L era glaciale 3 - L alba dei dinosauri (2009).H264.Italian.English.Ac3.5.1.MultiSub.iCV-MIRCrew [center] [color=red][b][img]http://extraimago.com/images/2016/07/16/oCo82IVa08d8.png[/img] [u]NO FOUND ONLY ORIGINAL RELEASE[/u] [img]http://i.imgur.com/GDNQx1Z.png[/img] My release is always in double track audio italian and Original audio for select it use VLC or dvd player home not use wmp L'era glaciale 3 - L'alba dei dinosauri - Ice Age: Dawn of the Dinosaurs (2009) [img]http://extraimage.net/images/2017/01/16/9d734a25b406c889bc8ee2571950ff80.png[/img] [URL=http://www.imdb.com/title/tt1080016/][IMG]http://www.userlogos.org/files/logos/Sucka/imdb_new.png[/IMG][/URL] [img]http://i.imgur.com/fGu1rKv.png[/img] DATA USCITA: 28 agosto 2009 GENERE: Animazione, Avventura, Commedia, Azione ANNO: 2009 REGIA: Carlos Saldanha SCENEGGIATURA: Peter Ackerman, Michael Berg, Yoni Brenner, Mike Reiss MUSICHE: John Powell PRODUZIONE: Blue Sky Studios, DISTRIBUZIONE: 20th Century Fox, PAESE: USA DURATA: 94 Min [img]http://i.imgur.com/W7kBqiE.png[/img] Doppiatori originali Seann William Scott, John Leguizamo, Queen Latifah, Josh Peck, Denis Leary, Ray Romano, Chris Wedge, Joey King, Atticus Shaffer Doppiatori italiani Leo Gullotta, Claudio Bisio, Pino Insegno, Massimo Giuliani, Francesco Pezzulli, Roberta Lanfranchi, Lee Ryan [img]http://i.imgur.com/bFK3ggF.png[/img] In questo terzo episodio della fortunata serie de L'era glaciale, nuove avventure attendono i nostri eroi sottozero. Scrat sta ancora cercando di conquistare la sfuggente ghianda, mentre forse trova il vero amore. Manny e Ellie attendono la nascita del loro mini-mammut............................ [img]http://i.imgur.com/48xHWWH.png[/img] When Sid's attempt to adopt three dinosaur eggs gets him abducted by their real mother to an underground lost world, his friends attempt to rescue him. ............. [img]http://i.imgur.com/K8bfNTy.png[/img] [img]http://boltimg.com/images/uCWe3.png[/img] [img]http://boltimg.com/images/uCSBn.png[/img] [img]http://boltimg.com/images/uCdFA.png[/img] [img]http://i.imgur.com/aVrMohH.png[/img] [spoiler] General Unique ID : 136906622613570164109426577562717593125 (0x66FF41A3EE5B28B64916BB44E5031E25) Complete name : L'era glaciale 3 - L'alba dei dinosauri (2009).H264.ita.eng.multisb.iCV-MIRCrew.mkv Format : Matroska Format version : Version 2 File size : 1.29 GiB Duration : 1h 30mn Overall bit rate : 2 048 Kbps Encoded date : UTC 2011-02-27 11:07:45 Writing application : Lavf54.63.100 Writing library : Lavf54.63.100 Video ID : 1 Format : AVC Format/Info : Advanced Video Codec Format profile : [email protected] Format settings, CABAC : Yes Format settings, ReFrames : 2 frames Codec ID : V_MPEG4/ISO/AVC Duration : 1h 30mn Bit rate : 1 275 Kbps Width : 720 pixels Height : 388 pixels Display aspect ratio : 1.856 Frame rate mode : Variable Frame rate : 25.000 fps Color space : YUV Chroma subsampling : 4:2:0 Bit depth : 8 bits Scan type : Progressive Bits/(Pixel*Frame) : 0.183 Stream size : 800 MiB (61%) Title : x264 1920x1036 BitRate=10680 kbps Writing library : x264 core 130 r2273 Encoding settings : cabac=1 / ref=2 / deblock=1:0:0 / analyse=0x1:0x131 / me=hex / subme=7 / psy=1 / psy_rd=1.00:0.00 / mixed_ref=0 / me_range=16 / chroma_me=1 / trellis=1 / 8x8dct=0 / cqm=0 / deadzone=21,11 / fast_pskip=1 / chroma_qp_offset=-2 / threads=12 / lookahead_threads=2 / sliced_threads=0 / nr=0 / decimate=1 / interlaced=0 / bluray_compat=0 / constrained_intra=0 / bframes=3 / b_pyramid=0 / b_adapt=1 / b_bias=0 / direct=3 / weightb=1 / open_gop=0 / weightp=2 / keyint=250 / keyint_min=25 / scenecut=40 / intra_refresh=0 / rc_lookahead=40 / rc=2pass / mbtree=1 / bitrate=1275 / ratetol=1.0 / qcomp=0.60 / qpmin=10 / qpmax=69 / qpstep=4 / cplxblur=20.0 / qblur=0.5 / vbv_maxrate=24000 / vbv_bufsize=24000 / nal_hrd=none / ip_ratio=1.40 / aq=1:1.00 Language : Italian Default : Yes Forced : No Audio #1 ID : 2 Format : AC-3 Format/Info : Audio Coding 3 Mode extension : CM (complete main) Codec ID : A_AC3 Duration : 1h 30mn Bit rate mode : Constant Bit rate : 384 Kbps Channel(s) : 2 channels Channel positions : Front: L R Sampling rate : 48.0 KHz Bit depth : 16 bits Compression mode : Lossy Delay relative to video : 1mn 5s Stream size : 248 MiB (19%) Language : Italian Default : No Forced : No Audio #2 ID : 3 Format : AC-3 Format/Info : Audio Coding 3 Mode extension : CM (complete main) Codec ID : A_AC3 Duration : 1h 30mn Bit rate mode : Constant Bit rate : 384 Kbps Channel(s) : 6 channels Channel positions : Front: L C R, Side: L R, LFE Sampling rate : 48.0 KHz Bit depth : 16 bits Compression mode : Lossy Delay relative to video : 1mn 5s Stream size : 248 MiB (19%) Language : English Default : Yes Forced : No Text #1 ID : 4 Format : UTF-8 Codec ID : S_TEXT/UTF8 Codec ID/Info : UTF-8 Plain Text Title : italian Language : Italian Default : Yes Forced : No Text #2 ID : 5 Format : UTF-8 Codec ID : S_TEXT/UTF8 Codec ID/Info : UTF-8 Plain Text Title : english Language : English Default : No Forced : No Text #3 ID : 6 Format : UTF-8 Codec ID : S_TEXT/UTF8 Codec ID/Info : UTF-8 Plain Text Title : french Language : French Default : No Forced : No Text #4 ID : 7 Format : UTF-8 Codec ID : S_TEXT/UTF8 Codec ID/Info : UTF-8 Plain Text Title : spanish Language : Spanish Default : No Forced : No Menu 00:00:00.000 : :Main Titles/in Love 00:03:03.080 : :Having a Baby 00:10:12.760 : :Sid's New Family 00:15:26.160 : :Baby Dinosaur 00:19:11.360 : :Play Nice 00:23:08.440 : :One Angry Fossil 00:26:22.200 : :Underground World 00:30:29.520 : :Buck to the Rescue 00:34:41.680 : :Fierce Flora 00:39:30.440 : :Chasm of Death 00:46:30.000 : :Parenting Dispute 00:48:41.640 : :An Eye for a Tooth 00:54:42.920 : :Nutty Tango 00:55:43.000 : :On Sid's Trail 01:00:36.080 : :Code Word 01:05:17.800 : :Lava Lake 01:08:41.120 : :Peaches 01:12:53.600 : :Battling Rudy 01:17:45.880 : :Home, Sweet Home 01:23:16.600 : :End Titles [/spoiler] [/color][/b][/center]

Eric Clapton - Back Home (2005), [Mp3][TNT]

Language: | Size: 141.35 MB | Seed: 64 | Leech: 10

Description:

Artist: Eric Clapton Title: Back Home Year Of Release: 2005 Genre: Blues Rock Label: Warner Bros Tracks: 12 CDs: 1 Format: Mp3 Quality: 320 kbps Included Scans: Si Archive Size: 141 Mb ----------- 01. So Tired 02. Say What You Will 03. I'm Going Left 04. Love Don't Love Nobody 05. Revolution 06. Love Comes To Everyone 07. Lost And Found 08. Piece Of My Heart 09. One Day 10. One Track Mind 11. Run Home To Me 12. Back Home

Ano Hana (2013) 1x01-11.H264.Italian.Jpn.Mp3.sub.ita.iCV-MIRCrew

Language: | Size: 2.9 GB | Seed: 1 | Leech: 1

Description:

Ano Hana (2013) 1x01-11.H264.Italian.Jpn.Mp3.sub.ita.iCV-MIRCrew [center] [color=red][b][img]http://extraimago.com/images/2016/07/16/oCo82IVa08d8.png[/img] [u]NO FOUND ONLY ORIGINAL RELEASE[/u] [img]http://i.imgur.com/GDNQx1Z.png[/img] My release is always in double track audio italian and Original audio for select it use VLC or dvd player home not use wmp Ano Hana 1x01-11 [img]http://extraimage.net/images/2017/01/16/edd6139603dd19c479f588c899e88816.png[/img] [URL=http://www.imdb.com/title/tt1913273/][IMG]http://www.userlogos.org/files/logos/Sucka/imdb_new.png[/IMG][/URL] Ano Hana 01 - I Super Busters Della Pace Ano Hana 02 - La Valorosa Menma Ano Hana 03 - Il Circolo Cerchiamo Menma Ano Hana 04 - Il Vestito Bianco Con Un Fiocchetto Ano Hana 05 - Tunnel Ano Hana 06 - Dimenticami Ma Non Dimenticarmi Ano Hana 07 - Il Vero Desiderio Ano Hana 08 - I Wonder Ano Hana 09 - Tutti E Menma Ano Hana 10 - Fuochi D'artificio Ano Hana 11 - Il Fiore Sbocciato Quell'Estate [img]http://i.imgur.com/Q5gAZRt.png[/img] Serie TV anime Lingua orig. giapponese Paese Giappone Regia Tatsuyuki Nagai Soggetto Mari Okada Musiche Remedios Studio A-1 Pictures Reti Fuji TV (noitaminA), BS Fuji, Kansai TV, Tōkai TV 1ª TV 14 aprile – 23 giugno 2011 Episodi 11 (completa) Aspect ratio 16:9 Durata ep. 24 min Distributore it. Dynit Rete it. Rai 4 1ª TV it. 5 febbraio – 15 aprile 2012 Episodi it. 11 (completa) Durata ep. it. 24 min Generi dramma, sentimentale, soprannaturale [img]http://i.imgur.com/Jtvgw7x.png[/img] ****************************************** [img]http://i.imgur.com/hL3n1m8.png[/img] L'infanzia di cinque amici (Jintan, Anaru, Yukiatsu, Tsuruko e Poppo) viene funestata dalla morte di Meiko Honma, soprannominata "Menma", una loro compagna di giochi. Ora i ragazzi sono cresciuti e vanno alle scuole superiori, tuttavia non sono più amici. Improvvisamente Jinta Yadomi, detto "Jintan", che era stato il leader del gruppo, chiamato "i Super Busters della Pace", inizia a vedere il fantasma della sua piccola amica di tanti anni prima. [img]http://i.imgur.com/MTp7cO6.png[/img] Six childhood friends have grown apart over the years following the death of one of them, Menma. The original 'leader' of this friend group, Jintan, is currently aimless in life and it is ................ [img]http://i.imgur.com/6TgqSmf.png[/img] [img]http://extraimage.net/images/2017/01/16/a71694069dfdc251079a4bad48abb0a9.png[/img] [url=https://extraimage.net/image/2Qrf][img]http://extraimage.net/images/2017/01/16/cdab28eb2a2bf1d7446f7429c3c32035.th.png[/img][/url] [url=https://extraimage.net/image/2QrW][img]http://extraimage.net/images/2017/01/16/8d063a1becd4f2c8445d64c31047cbbe.th.png[/img][/url] [url=https://extraimage.net/image/2QG8][img]http://extraimage.net/images/2017/01/16/2987c0a26de2025c4693b6311b4fc89b.th.png[/img][/url] [img]http://i.imgur.com/t8N3Ia1.png[/img] [spoiler] Generale ID univoco : 49435749538294295015497422430626628781 (0x2530FAA218D0547B844939ECC00BC4AD) Nome completo : Ano Hana 1x11.ita.jpn.sub.ita.iCV-MIRCrew\Ano Hana 05 - Tunnel.mkv Formato : Matroska Versione formato : Version 2 Dimensione : 284MiB Durata : 22min Bitrate totale : 1.724 Kbps Film : VISIT www.icv-crew.org Data codifica : UTC 2017-01-15 12:43:51 / UTC 2017-01-15 12:43:51 Creato con : Lavf54.63.100 Compressore : Lavf54.63.100 / Lavf54.63.100 Copyright : robbyrs Video ID : 1 Formato : AVC Formato/Informazioni : Advanced Video Codec Profilo formato : [email protected] Impostazioni formato, CABAC : Si Impostazioni formato, ReFrames : 2 frame ID codec : V_MPEG4/ISO/AVC Durata : 22min Bitrate : 1.434 Kbps Bitrate nominale : 1.270 Kbps Larghezza : 720 pixel Altezza : 404 pixel Rapporto aspetto visualizzazione : 16:9 Modalità frame rate : Costante Frame rate : 23,976 (24000/1001) fps Spazio colore : YUV Croma subsampling : 4:2:0 Profondità bit : 8 bit Tipo scansione : Progressivo Bit/(pixel*frame) : 0.206 Dimensione della traccia : 236MiB (83%) Compressore : x264 core 130 r2273 Impostazioni compressione : cabac=1 / ref=2 / deblock=1:0:0 / analyse=0x1:0x131 / me=hex / subme=7 / psy=1 / psy_rd=1.00:0.00 / mixed_ref=0 / me_range=16 / chroma_me=1 / trellis=1 / 8x8dct=0 / cqm=0 / deadzone=21,11 / fast_pskip=1 / chroma_qp_offset=-2 / threads=12 / lookahead_threads=2 / sliced_threads=0 / nr=0 / decimate=1 / interlaced=0 / bluray_compat=0 / constrained_intra=0 / bframes=3 / b_pyramid=0 / b_adapt=1 / b_bias=0 / direct=3 / weightb=1 / open_gop=0 / weightp=2 / keyint=230 / keyint_min=23 / scenecut=40 / intra_refresh=0 / rc_lookahead=40 / rc=abr / mbtree=1 / bitrate=1270 / ratetol=1.0 / qcomp=0.60 / qpmin=10 / qpmax=69 / qpstep=4 / vbv_maxrate=24000 / vbv_bufsize=24000 / nal_hrd=none / ip_ratio=1.40 / aq=1:1.00 Lingua : Italiano Default : Si Forced : No Audio #1 ID : 2 Formato : MPEG Audio Versione formato : Version 1 Profilo formato : Layer 3 ID codec : A_MPEG/L3 ID codec/Suggerimento : MP3 Durata : 22min Modalità bitrate : Costante Bitrate : 128 Kbps Canali : 2 canali Frequenza campionamento : 44,1 KHz Modo compressione : Con perdita Ritardo video : -25ms Dimensione della traccia : 21,1MiB (7%) Compressore : LAME3.99.5 Default : Si Forced : No Audio #2 ID : 3 Formato : MPEG Audio Versione formato : Version 1 Profilo formato : Layer 3 ID codec : A_MPEG/L3 ID codec/Suggerimento : MP3 Durata : 22min Modalità bitrate : Costante Bitrate : 128 Kbps Canali : 2 canali Frequenza campionamento : 44,1 KHz Modo compressione : Con perdita Ritardo video : -25ms Dimensione della traccia : 21,1MiB (7%) Default : No Forced : No Testo #1 ID : 4 Formato : UTF-8 ID codec : S_TEXT/UTF8 ID codec/Informazioni : UTF-8 Plain Text Titolo : Italiano forced Lingua : Italiano Default : Si Forced : Si Testo #2 ID : 5 Formato : UTF-8 ID codec : S_TEXT/UTF8 ID codec/Informazioni : UTF-8 Plain Text Titolo : Italiano Lingua : Italiano Default : No Forced : No [/spoiler] [/color][/b][/center]

Various Artists - Top Single 2017 (2017) (by emi)

Language: | Size: 111.48 MB | Seed: 221 | Leech: 60

Description:

mp3 a 192 kbps audio di qualità a 95 db Tracklist 01 - Ed Sheeran - Shape Of You.mp3 (5.5 MB) 02 - Ed Sheeran - Castle On The Hill.mp3 (6.2 MB) 03 - James Arthur - Say You Won't Let Go.mp3 (5.0 MB) 04 - Clean Bandit (ft. Sean Paul & Anne-Marie) - Rockabye.mp3 (5.9 MB) 05 - Little Mix - Touch.mp3 (5.1 MB) 06 - Zara Larsson - I Would Like.mp3 (5.3 MB) 07 - Rag'n'Bone Man - Human.mp3 (4.7 MB) 08 - Maroon 5 - Don't Wanna Know.mp3 (8.8 MB) 09 - Robbie Williams - Love My Life.mp3 (4.9 MB) 10 - Lady Gaga - Million Reasons.mp3 (4.8 MB) 11 - Robin Schulz & David Guetta (feat. Cheat Codes) - Shed A Light O.mp3 (4.6 MB) 12 - The Weeknd (feat. Daft Punk) - I Feel It Coming.mp3 (6.4 MB) 13 - The Weeknd (feat. Daft Punk) - Starboy.mp3 (5.5 MB) 14 - Rae Sremmurd (feat. Gucci Mane) - Black Beatles.mp3 (6.9 MB) 15 - Bruno Mars -24K Magic.mp3 (5.4 MB) 16 - Little Mix - Shout Out To My Ex.mp3 (5.8 MB) 17 - Shawn Mendes - Mercy.mp3 (5.0 MB) 18 - Steve Aoki & Louis Tomlinson - Just Hold On.mp3 (4.7 MB) 19 - The Chainsmokers (feat. Halsey) - Closer.mp3 (5.8 MB) 20 - John Legend - Love Me Now.mp3 (5.0 MB)

Kubo.E.La.Spada.Magica.2016.iTALiAN.AC3.BRRip.XviD-T4P3

Language: | Size: 1.53 GB | Seed: 282 | Leech: 122

Description:

Kubo e la spada magica Titolo originale: Kubo and the Two Strings Conosciuto anche come: Nazione: U.S.A. Anno: 2016 Genere: Animazione, Avventura Durata: 101' Regia: Travis Knight Cast (voci originali): Art Parkinson, Charlize Theron, Ralph Fiennes, Rooney Mara, Matthew McConaughey, Michael Sun Lee, Cary-Hiroyuki Tagawa, George Takei, Minae Noji Produzione: Laika Entertainment Distribuzione: Universal Pictures Data di uscita: 03 Novembre 2016 (cinema) Trama: L'intelligente e generoso Kubo riesce a sbarcare il lunario raccontando storie agli abitanti della sua città, tra i quali spiccano Hosato, Akihiro e Kameyo. Ma la sua vita relativamente tranquilla viene sconvolta quando Kubo, per errore, evoca uno spirito del suo passato, il quale si precipita giù sulla terra per adempiere alla sua secolare vendetta. In fuga, Kubo si allea con Monkey e Beetle, e parte per un emozionante viaggio per salvare la sua famiglia e risolvere il mistero che avvolge suo padre, il più grande guerriero samurai che il mondo abbia mai conosciuto. Con l'aiuto del suo shamisen — uno strumento musicale magico — Kubo dovrà affrontare dei e mostri, tra cui il vendicativo Moon King e le malvagie Sorelle gemelle, per poter svelare il segreto della sua eredità, riunirsi con la sua famiglia e compiere il suo eroico destino.

Boys Don t Cry (1999).H264.Italian.English.Ac3.5.1.sub.ita.eng.iCV-MIRCrew

Language: | Size: 1.53 GB | Seed: 32 | Leech: 14

Description:

Boys Don t Cry (1999).H264.Italian.English.Ac3.5.1.sub.ita.eng.iCV-MIRCrew [center] [color=red][b][img]http://s23.postimg.org/b9yhws27f/0sc_Del1.png[/img] [u]NO FOUND ONLY ORIGINAL RELEASE[/u] [img]http://i.imgur.com/GDNQx1Z.png[/img] My release is always in double track audio italian and Original audio for select it use VLC or dvd player home not use wmp Boys Don't Cry (1999) [img]http://extraimage.net/images/2017/01/15/564b39ce86482c7e103bc1dcd42b6df4.png[/img] [URL=http://www.imdb.com/title/tt0171804/][IMG]http://www.userlogos.org/files/logos/Sucka/imdb_new.png[/IMG][/URL] [img]http://i.imgur.com/fGu1rKv.png[/img] Titolo originale Boys Don't Cry Paese di produzione Stati Uniti d'America Anno 1999 Durata 114 min Rapporto 1,85:1 Genere biografico, drammatico Regia Kimberly Peirce Soggetto Tracy Granger Sceneggiatura Kimberly Peirce, Andy Bienen Produttore Christine Vachon, Eva Kolodner [img]http://i.imgur.com/W7kBqiE.png[/img] Hilary Swank: Brandon Teena Chloë Sevigny: Lana Tisdel Peter Sarsgaard: John Lotter Brendan Sexton III: Tom Nissen Alicia Goranson: Candace Lambert Alison Folland: Kate Jeannetta Arnette: madre di Lana Rob Campbell: Brian Matt McGrath: Lonny [img]http://i.imgur.com/bFK3ggF.png[/img] Alla fine del 1993, Brandon Teena si trasferisce da Lincoln a Falls City, Nebraska, depressa cittadina di provincia ben nota per la sua chiusura mentale e vari episodi di cronaca nera. Brandon è generoso, solare e affascinante, ma nasconde a tutti il segreto di essere una femmina, Teena Brandon, fatto che si rivelerà in modo inequivocabile allorché verrà denudata di forza. Teena si complica pericolosamente la vita mentendo a tutti e di continuo, talora senza necessità. [img]http://i.imgur.com/48xHWWH.png[/img] Female-born Teena Brandon adopts his male identity of Brandon Teena and attempts to find himself and love in Nebraska. [img]http://i.imgur.com/K8bfNTy.png[/img] [img]http://extraimage.net/images/2017/01/15/d88217acb1a881a065a08f4d3a8ae1f1.png[/img] [img]http://extraimage.net/images/2017/01/15/759d500b383f3fea95fbfc01a3866f09.png[/img] [img]http://extraimage.net/images/2017/01/15/348da733cb4abfc315ffe920a08f1d5c.png[/img] [img]http://i.imgur.com/aVrMohH.png[/img] [spoiler] General Unique ID : 150073160553684936336066350226698167736 (0x70E70A148A45F9BCADB64A8CFD5C65B8) Complete name : Boys Don't Cry (1999).H264.ita.eng.sub.ita.eng.iCV-MIRCrew.mkv Format : Matroska Format version : Version 2 File size : 1.53 GiB Duration : 1h 58mn Overall bit rate : 1 848 Kbps Encoded date : UTC 2017-01-11T18:03:36Z Writing application : HandBrake 0.10.5 2016021100 Writing library : Lavf55.12.0 Video ID : 1 Format : AVC Format/Info : Advanced Video Codec Format profile : [email protected] Format settings, CABAC : Yes Format settings, ReFrames : 4 frames Codec ID : V_MPEG4/ISO/AVC Duration : 1h 58mn Bit rate : 1 270 Kbps Width : 688 pixels Height : 372 pixels Display aspect ratio : 16:9 Original display aspect ratio : 1.850 Frame rate mode : Variable Frame rate : 23.976 fps Color space : YUV Chroma subsampling : 4:2:0 Bit depth : 8 bits Scan type : Progressive Bits/(Pixel*Frame) : 0.207 Stream size : 1.02 GiB (67%) Writing library : x264 core 142 r2479 dd79a61 Encoding settings : cabac=1 / ref=1 / deblock=1:0:0 / analyse=0x1:0x111 / me=hex / subme=2 / psy=1 / psy_rd=1.00:0.00 / mixed_ref=0 / me_range=16 / chroma_me=1 / trellis=0 / 8x8dct=0 / cqm=0 / deadzone=21,11 / fast_pskip=1 / chroma_qp_offset=0 / threads=12 / lookahead_threads=2 / sliced_threads=0 / nr=0 / decimate=1 / interlaced=0 / bluray_compat=0 / constrained_intra=0 / bframes=3 / b_pyramid=2 / b_adapt=1 / b_bias=0 / direct=1 / weightb=1 / open_gop=0 / weightp=1 / keyint=240 / keyint_min=24 / scenecut=40 / intra_refresh=0 / rc_lookahead=10 / rc=abr / mbtree=1 / bitrate=1270 / ratetol=1.0 / qcomp=0.60 / qpmin=0 / qpmax=69 / qpstep=4 / vbv_maxrate=20000 / vbv_bufsize=25000 / nal_hrd=none / filler=0 / ip_ratio=1.40 / aq=1:1.00 Default : Yes Forced : No Color primaries : BT.709-5, BT.1361, IEC 61966-2-4, SMPTE RP177 Transfer characteristics : BT.709-5, BT.1361 Matrix coefficients : BT.709-5, BT.1361, IEC 61966-2-4 709, SMPTE RP177 Audio #1 ID : 2 Format : AC-3 Format/Info : Audio Coding 3 Mode extension : CM (complete main) Codec ID : A_AC3 Duration : 1h 58mn Bit rate mode : Constant Bit rate : 384 Kbps Channel(s) : 6 channels Channel positions : Front: L C R, Side: L R, LFE Sampling rate : 48.0 KHz Bit depth : 16 bits Compression mode : Lossy Delay relative to video : 1mn 5s Stream size : 326 MiB (21%) Title : Surround Language : Italian Default : Yes Forced : No Audio #2 ID : 3 Format : AC-3 Format/Info : Audio Coding 3 Mode extension : CM (complete main) Codec ID : A_AC3 Duration : 1h 58mn Bit rate mode : Constant Bit rate : 192 Kbps Channel(s) : 2 channels Channel positions : Front: L R Sampling rate : 48.0 KHz Bit depth : 16 bits Compression mode : Lossy Delay relative to video : 1mn 5s Stream size : 163 MiB (10%) Title : Stereo Language : English Default : No Forced : No Text #1 ID : 4 Format : ASS Codec ID : S_TEXT/ASS Codec ID/Info : Advanced Sub Station Alpha Compression mode : Lossless Language : Italian Default : No Forced : No Text #2 ID : 5 Format : ASS Codec ID : S_TEXT/ASS Codec ID/Info : Advanced Sub Station Alpha Compression mode : Lossless Language : Italian Default : No Forced : No Text #3 ID : 6 Format : ASS Codec ID : S_TEXT/ASS Codec ID/Info : Advanced Sub Station Alpha Compression mode : Lossless Language : English Default : No Forced : No Menu 00:00:00.000 : :00:00:00.000 00:05:25.241 : :00:05:25.158 00:11:20.930 : :00:11:20.763 00:14:44.508 : :00:14:44.425 00:18:11.548 : :00:18:11.465 00:22:19.379 : :00:22:19.255 00:29:05.493 : :00:29:05.410 00:32:27.904 : :00:32:27.821 00:37:29.121 : :00:37:29.038 00:42:29.755 : :00:42:29.630 00:47:02.194 : :00:47:02.111 00:51:19.743 : :00:51:19.660 00:54:28.598 : :00:54:28.515 01:00:32.879 : :01:00:32.796 01:06:00.915 : :01:06:00.832 01:07:50.358 : :01:07:50.275 01:12:42.691 : :01:12:42.608 01:17:01.158 : :01:17:01.075 01:21:01.440 : :01:21:01.273 01:25:02.180 : :01:25:02.097 01:38:26.066 : :01:38:25.983 01:46:40.727 : :01:46:40.644 01:50:32.751 : :01:50:32.668 01:53:38.520 : :01:53:38.437 [/spoiler] [/color][/b][/center]

Meredith - The Face of an Angel (2014).H264.Italian.English.Ac3.5.1.sub.ita.iCV-MIRCrew

Language: | Size: 1.55 GB | Seed: 65 | Leech: 34

Description:

The Face of an Angel - Meredith - The Face of an Angel (2014).H264.Italian.English.Ac3.5.1.sub.ita.iCV-MIRCrew [center] [color=red][b][img]http://s23.postimg.org/b9yhws27f/0sc_Del1.png[/img] [u]NO FOUND ONLY ORIGINAL RELEASE[/u] [img]http://i.imgur.com/GDNQx1Z.png[/img] My release is always in double track audio italian and Original audio for select it use VLC or dvd player home not use wmp Meredith - The Face of an Angel - The Face of an Angel (2014) [img]http://extraimage.net/images/2017/01/15/3efb3702dcee158b47846cccd58888ed.png[/img] [URL=http://www.imdb.com/title/tt2967008/][IMG]http://www.userlogos.org/files/logos/Sucka/imdb_new.png[/IMG][/URL] [img]http://i.imgur.com/fGu1rKv.png[/img] Titolo originale The Face of an Angel Lingua originale inglese Paese di produzione Regno Unito, Italia, Spagna Anno 2014 Durata 101 min Genere drammatico Regia Michael Winterbottom Soggetto Barbie Latza Nadeau (libro) Sceneggiatura Paul Viragh Produttore Melissa Parmenter Produttore esecutivo Eric Anidjar, Leon Benarroch, Andrew Eaton, Anthony Jabre, Christine Langan, Norman Merry, Roberto Mitrani Casa di produzione BBC Films, Cattleya, Multitrade, Revolution Films, Ypsilon Films Distribuzione (Italia) Movies Inspired, Eagle Pictures Fotografia Hubert Taczanowski Scenografia Carly Reddin Costumi Daniela Ciancio [img]http://i.imgur.com/W7kBqiE.png[/img] Daniel Brühl: Thomas Kate Beckinsale: Simone Ford Valerio Mastandrea: Edoardo Cara Delevingne: Melanie Ava Acres: Bea Genevieve Gaunt: Jessica Fuller Sai Bennett: Elizabeth Pryce Ranieri Menicori: Carlo Elias Andrea Tidona: PM Alberto Baldini Peter Sullivan: James Pryce Corrado Invernizzi: Francesco Edoardo Gabbriellini: Roberto Roberta Cartocci: Maria Argento John Hopkins: Joe Sara Stewart: Sarah [img]http://i.imgur.com/bFK3ggF.png[/img] La pellicola è ispirata alla vicenda dell'omicidio di Meredith Kercher avvenuto a Perugia il 1º novembre del 2007, raccontato dal punto di vista di alcuni giornalisti. [img]http://i.imgur.com/48xHWWH.png[/img] tells the story of a journalist and a filmmaker as they lose themselves in a notorious murder case they are covering. Based on true events, a riveting account of the controversial case of a American student accused of murder in Italy. [img]http://i.imgur.com/K8bfNTy.png[/img] [img]https://boltimg.com/images/uukHN.png[/img] [img]https://boltimg.com/images/uuOjb.png[/img] [img]https://boltimg.com/images/uuqW7.png[/img] [img]http://i.imgur.com/aVrMohH.png[/img] [spoiler] General Unique ID : 285108511372473531182037249122316535217 (0xD67DE6E5E14C833A3BD60A343FD745B1) Complete name : The Face of an Angel (2014).H264.ita.eng.sub.ita.iCV-MIRCrew.mkv Format : Matroska Format version : Version 2 File size : 1.55 GiB Duration : 1h 41mn Overall bit rate : 2 176 Kbps Movie name : VISIT www.icv-crew.org Encoded date : UTC 2017-01-06 22:56:34 Writing application : Lavf54.63.100 Writing library : Lavf54.63.100 COPYRIGHT : robbyrs Video ID : 1 Format : AVC Format/Info : Advanced Video Codec Format profile : [email protected] Format settings, CABAC : Yes Format settings, ReFrames : 2 frames Codec ID : V_MPEG4/ISO/AVC Duration : 1h 41mn Bit rate : 1 275 Kbps Width : 720 pixels Height : 304 pixels Display aspect ratio : 2.40:1 Frame rate mode : Variable Frame rate : 23.976 fps Color space : YUV Chroma subsampling : 4:2:0 Bit depth : 8 bits Scan type : Progressive Bits/(Pixel*Frame) : 0.243 Stream size : 901 MiB (57%) Writing library : x264 core 130 r2273 Encoding settings : cabac=1 / ref=2 / deblock=1:0:0 / analyse=0x1:0x131 / me=hex / subme=7 / psy=1 / psy_rd=1.00:0.00 / mixed_ref=0 / me_range=16 / chroma_me=1 / trellis=1 / 8x8dct=0 / cqm=0 / deadzone=21,11 / fast_pskip=1 / chroma_qp_offset=-2 / threads=12 / lookahead_threads=2 / sliced_threads=0 / nr=0 / decimate=1 / interlaced=0 / bluray_compat=0 / constrained_intra=0 / bframes=3 / b_pyramid=0 / b_adapt=1 / b_bias=0 / direct=3 / weightb=1 / open_gop=0 / weightp=2 / keyint=230 / keyint_min=23 / scenecut=40 / intra_refresh=0 / rc_lookahead=40 / rc=2pass / mbtree=1 / bitrate=1275 / ratetol=1.0 / qcomp=0.60 / qpmin=10 / qpmax=69 / qpstep=4 / cplxblur=20.0 / qblur=0.5 / vbv_maxrate=24000 / vbv_bufsize=24000 / nal_hrd=none / ip_ratio=1.40 / aq=1:1.00 Language : English Default : Yes Forced : No DURATION : 01:41:51.481000000 NUMBER_OF_FRAMES : 146529 NUMBER_OF_BYTES : 7057327972 _STATISTICS_WRITING_APP : mkvmerge v8.7.0 ('All of the above') 64bit _STATISTICS_WRITING_DATE_UTC : 2016-12-15 18:26:49 _STATISTICS_TAGS : BPS DURATION NUMBER_OF_FRAMES NUMBER_OF_BYTES Audio #1 ID : 2 Format : AC-3 Format/Info : Audio Coding 3 Mode extension : CM (complete main) Codec ID : A_AC3 Duration : 1h 41mn Bit rate mode : Constant Bit rate : 448 Kbps Channel(s) : 6 channels Channel positions : Front: L C R, Side: L R, LFE Sampling rate : 48.0 KHz Bit depth : 16 bits Compression mode : Lossy Delay relative to video : 1mn 5s Stream size : 326 MiB (21%) Title : AC3 ITA Language : Italian Default : No Forced : No DURATION : 01:41:51.552000000 NUMBER_OF_FRAMES : 190986 NUMBER_OF_BYTES : 488924160 _STATISTICS_WRITING_APP : mkvmerge v8.7.0 ('All of the above') 64bit _STATISTICS_WRITING_DATE_UTC : 2016-12-15 18:26:49 _STATISTICS_TAGS : BPS DURATION NUMBER_OF_FRAMES NUMBER_OF_BYTES Audio #2 ID : 3 Format : AC-3 Format/Info : Audio Coding 3 Mode extension : CM (complete main) Codec ID : A_AC3 Duration : 1h 41mn Bit rate mode : Constant Bit rate : 448 Kbps Channel(s) : 6 channels Channel positions : Front: L C R, Side: L R, LFE Sampling rate : 48.0 KHz Bit depth : 16 bits Compression mode : Lossy Delay relative to video : 1mn 5s Stream size : 326 MiB (21%) Title : AC3 ENG Language : English Default : No Forced : No DURATION : 01:41:51.552000000 NUMBER_OF_FRAMES : 190986 NUMBER_OF_BYTES : 488924160 _STATISTICS_WRITING_APP : mkvmerge v8.7.0 ('All of the above') 64bit _STATISTICS_WRITING_DATE_UTC : 2016-12-15 18:26:49 _STATISTICS_TAGS : BPS DURATION NUMBER_OF_FRAMES NUMBER_OF_BYTES Text #1 ID : 4 Format : ASS Codec ID : S_TEXT/ASS Codec ID/Info : Advanced Sub Station Alpha Compression mode : Lossless Title : Forced Language : Italian Default : Yes Forced : No DURATION : 01:33:32.831000000 NUMBER_OF_FRAMES : 3 NUMBER_OF_BYTES : 97 _STATISTICS_WRITING_APP : mkvmerge v8.7.0 ('All of the above') 64bit _STATISTICS_WRITING_DATE_UTC : 2016-12-15 18:26:49 _STATISTICS_TAGS : BPS DURATION NUMBER_OF_FRAMES NUMBER_OF_BYTES Text #2 ID : 5 Format : UTF-8 Codec ID : S_TEXT/UTF8 Codec ID/Info : UTF-8 Plain Text Title : Regular Language : Italian Default : No Forced : No DURATION : 01:33:50.432000000 NUMBER_OF_FRAMES : 944 NUMBER_OF_BYTES : 40344 _STATISTICS_WRITING_APP : mkvmerge v8.7.0 ('All of the above') 64bit _STATISTICS_WRITING_DATE_UTC : 2016-12-15 18:26:49 _STATISTICS_TAGS : BPS DURATION NUMBER_OF_FRAMES NUMBER_OF_BYTES Menu 00:00:00.000 : :00:00:00.000 00:07:05.342 : :00:07:05.342 00:14:28.201 : :00:14:28.201 00:20:13.838 : :00:20:13.838 00:29:27.099 : :00:29:27.099 00:39:02.590 : :00:39:02.590 00:50:56.804 : :00:50:56.804 00:59:52.756 : :00:59:52.756 01:08:53.129 : :01:08:53.129 01:16:19.950 : :01:16:19.950 01:25:27.706 : :01:25:27.706 01:35:23.259 : :01:35:23.259 [/spoiler] [/color][/b][/center]

Edith Piaf - Le Vie en Rose [Flac][TntVillage]

Language: | Size: 190.16 MB | Seed: 18 | Leech: 0

Description:

[img]http://extraimago.com/images/2016/06/28/FrontEdithPiafByTntvillage.jpg[/img] Artist...............: Edith Piaf Album................: La vie en Rose Genre................: Chanson Source...............: CD Year.................: 2013 - BOOTLEG Ripper...............: EAC (Secure mode) / LAME 3.92 & Asus CD-S520 Codec................: Free Lossless Audio Codec (FLAC) Version..............: reference libFLAC 1.2.1 20070917 Quality..............: Lossless, (avg. compression: 35 %) Channels.............: Stereo / 44100 HZ / 16 Bit Tags.................: VorbisComment Information..........: TntVillage Ripped by............: Leonenero on 27/06/2016 Posted by............: Leonenero on 28/06/2016 News Server..........: news.astraweb.com News Group(s)........: TntVillage Included.............: NFO, MD5, LOG, CUE, M3U8 Covers...............: Front Back CD --------------------------------------------------------------------- Tracklisting --------------------------------------------------------------------- 1. Edith Piaf - C' est toi e plus forte [02:28] 2. Edith Piaf - Browning [03:17] 3. Edith Piaf - Mon amant de la coloniale [03:08] 4. Edith Piaf - Les mames de la coche [03:16] 5. Edith Piaf - Les hiboux [03:21] 6. Edith Piaf - Deux menetries [02:20] 7. Edith Piaf - Le petit boutique [03:16] 8. Edith Piaf - La vie en rose [03:03] 9. Edith Piaf - Les trois cloches [04:07] 10. Edith Piaf - J' M' en fous pas mal [04:20] 11. Edith Piaf - Dns ma rue [05:31] 12. Edith Piaf - C' etait une historie d amor [04:18] 13. Edith Piaf - L' accordeoniste [03:12] 14. Edith Piaf - Madeleine qu a vait du coeur [03:17] 15. Edith Piaf - J' suis mordue [03:00] 16. Edith Piaf - Correqu et reguyer [03:12] Playing Time.........: 55:15 Total Size...........: 189,93 MB When one thinks of Edith Piaf, one thinks of love, sorrow and music. One did not breathe without the other two.

Deepwater - Inferno sull'oceano (2016).H264.Italian.English.Ac3.5.1.sub.ita.eng.iCV-MIRCrew

Language: | Size: 1.61 GB | Seed: 278 | Leech: 98

Description:

Deepwater Horizon - Deepwater - Inferno sull'oceano (2016).H264.Italian.English.Ac3.5.1.sub.ita.eng.iCV-MIRCrew [center] [color=red][b][img]http://s23.postimg.org/b9yhws27f/0sc_Del1.png[/img] [u]NO FOUND ONLY ORIGINAL RELEASE[/u] [img]http://i.imgur.com/GDNQx1Z.png[/img] My release is always in double track audio italian and Original audio for select it use VLC or dvd player home not use wmp Deepwater - Inferno sull'oceano - Deepwater Horizon (2016) [img]http://extraimage.net/images/2017/01/15/47137918b05900f2ac0c1eaa30fbfd0f.png[/img] [URL=http://www.imdb.com/title/tt1860357/][IMG]http://www.userlogos.org/files/logos/Sucka/imdb_new.png[/IMG][/URL] [img]http://i.imgur.com/fGu1rKv.png[/img] GENERE: Drammatico, Azione ANNO: 2016 REGIA: Peter Berg SCENEGGIATURA: Matthew Michael Carnahan, Matthew Sand FOTOGRAFIA: Enrique Chediak MONTAGGIO: Gabriel Fleming, Colby Parker Jr. MUSICHE: Steve Jablonsky PRODUZIONE: Di Bonaventura Pictures, Lions Gate Entertainment, Participant Media DISTRIBUZIONE: Medusa Film PAESE: USA DURATA: 97 Min [img]http://i.imgur.com/W7kBqiE.png[/img] Mark Wahlberg, Kurt Russell, Kate Hudson, Dylan O'Brien, John Malkovich, Gina Rodriguez, Brad Leland, J.D. Evermore, Joe Chrest [img]http://i.imgur.com/bFK3ggF.png[/img] Il 20 aprile 2010 sulla Deepwater Horizon nel Golfo del Messico, si è verificato uno dei più gravi disastri mondiali causati dall'uomo. Questo film racconta una storia di vitale importanza che molti non hanno visto: la storia dei 126 lavoratori che si trovavano a bordo della Deepwater Horizon quel giorno, sorpresi nelle più strazianti circostanze immaginabili [img]http://i.imgur.com/48xHWWH.png[/img] In April 2010, there is no oil exploration operation in the Gulf of Mexico to compare with the Deepwater Horizon oil rig with its size or sheer depth of its drilling. However, the project for the BP oil company is beset with technical difficulties to the point where the general operational supervisor, Jimmy Harrell, and his Chief Electrical Engineer, Mike Williams, are concerned potentially dangerous trouble is brewing. [img]http://i.imgur.com/K8bfNTy.png[/img] [img]http://extraimage.net/images/2017/01/15/50a3a88f44ae4b861a310e93cf4d2106.png[/img] [img]http://extraimage.net/images/2017/01/15/706a883593b2aeb754e90034d554c6ca.png[/img] [img]http://extraimage.net/images/2017/01/15/d1e1deea884ca35f965231dc5b1d5320.png[/img] [img]http://extraimage.net/images/2017/01/15/9c9168cfebe50ec3d3b86462b321c5b3.png[/img] [img]http://i.imgur.com/aVrMohH.png[/img] [spoiler] General Unique ID : 110670010992415558613296477443892893574 (0x534244D0D6349BA52E169792A95AD786) Complete name : Deepwater - Inferno sull'oceano (2016).H264.ita.eng.sub.ita.eng.iCV-MIRCrew.mkv Format : Matroska Format version : Version 2 File size : 1.61 GiB Duration : 1h 47mn Overall bit rate : 2 157 Kbps Movie name : VISIT www.icv-crew.org Encoded date : UTC 2017-01-14 17:15:59 Writing application : Lavf54.63.100 Writing library : Lavf54.63.100 COPYRIGHT : robbyrs Video ID : 1 Format : AVC Format/Info : Advanced Video Codec Format profile : [email protected] Format settings, CABAC : Yes Format settings, ReFrames : 2 frames Codec ID : V_MPEG4/ISO/AVC Duration : 1h 47mn Bit rate : 1 218 Kbps Nominal bit rate : 1 280 Kbps Width : 720 pixels Height : 304 pixels Display aspect ratio : 2.35:1 Original display aspect ratio : 2.35:1 Frame rate mode : Variable Frame rate : 24.000 fps Color space : YUV Chroma subsampling : 4:2:0 Bit depth : 8 bits Scan type : Progressive Bits/(Pixel*Frame) : 0.232 Stream size : 934 MiB (56%) Writing library : x264 core 130 r2273 Encoding settings : cabac=1 / ref=2 / deblock=1:0:0 / analyse=0x1:0x131 / me=hex / subme=7 / psy=1 / psy_rd=1.00:0.00 / mixed_ref=0 / me_range=16 / chroma_me=1 / trellis=1 / 8x8dct=0 / cqm=0 / deadzone=21,11 / fast_pskip=1 / chroma_qp_offset=-2 / threads=12 / lookahead_threads=2 / sliced_threads=0 / nr=0 / decimate=1 / interlaced=0 / bluray_compat=0 / constrained_intra=0 / bframes=3 / b_pyramid=0 / b_adapt=1 / b_bias=0 / direct=3 / weightb=1 / open_gop=0 / weightp=2 / keyint=240 / keyint_min=24 / scenecut=40 / intra_refresh=0 / rc_lookahead=40 / rc=abr / mbtree=1 / bitrate=1280 / ratetol=1.0 / qcomp=0.60 / qpmin=10 / qpmax=69 / qpstep=4 / vbv_maxrate=24000 / vbv_bufsize=24000 / nal_hrd=none / ip_ratio=1.40 / aq=1:1.00 Language : English Default : Yes Forced : No DURATION : 01:47:11.000000000 NUMBER_OF_FRAMES : 154344 NUMBER_OF_BYTES : 7762123870 _STATISTICS_WRITING_APP : mkvmerge v8.3.0 ('Over the Horizon') 64bit _STATISTICS_WRITING_DATE_UTC : 2017-01-13 17:54:47 _STATISTICS_TAGS : BPS DURATION NUMBER_OF_FRAMES NUMBER_OF_BYTES Audio #1 ID : 2 Format : AC-3 Format/Info : Audio Coding 3 Mode extension : CM (complete main) Codec ID : A_AC3 Duration : 1h 47mn Bit rate mode : Constant Bit rate : 448 Kbps Channel(s) : 6 channels Channel positions : Front: L C R, Side: L R, LFE Sampling rate : 48.0 KHz Bit depth : 16 bits Compression mode : Lossy Delay relative to video : 1mn 5s Stream size : 343 MiB (21%) Title : AC3 iTA Language : Italian Default : No Forced : No DURATION : 01:47:08.704000000 NUMBER_OF_FRAMES : 200897 NUMBER_OF_BYTES : 514296320 _STATISTICS_WRITING_APP : mkvmerge v8.3.0 ('Over the Horizon') 64bit _STATISTICS_WRITING_DATE_UTC : 2017-01-13 17:54:47 _STATISTICS_TAGS : BPS DURATION NUMBER_OF_FRAMES NUMBER_OF_BYTES Audio #2 ID : 3 Format : AC-3 Format/Info : Audio Coding 3 Mode extension : CM (complete main) Codec ID : A_AC3 Duration : 1h 47mn Bit rate mode : Constant Bit rate : 448 Kbps Channel(s) : 6 channels Channel positions : Front: L C R, Side: L R, LFE Sampling rate : 48.0 KHz Bit depth : 16 bits Compression mode : Lossy Delay relative to video : 1mn 5s Stream size : 343 MiB (21%) Title : AC3 ENG Language : English Default : No Forced : No DURATION : 01:47:08.736000000 NUMBER_OF_FRAMES : 200898 NUMBER_OF_BYTES : 514298880 _STATISTICS_WRITING_APP : mkvmerge v8.3.0 ('Over the Horizon') 64bit _STATISTICS_WRITING_DATE_UTC : 2017-01-13 17:54:47 _STATISTICS_TAGS : BPS DURATION NUMBER_OF_FRAMES NUMBER_OF_BYTES Text #1 ID : 4 Format : UTF-8 Codec ID : S_TEXT/UTF8 Codec ID/Info : UTF-8 Plain Text Title : FORCED iTA Language : Italian Default : Yes Forced : No DURATION : 01:36:53.218000000 NUMBER_OF_FRAMES : 24 NUMBER_OF_BYTES : 1149 _STATISTICS_WRITING_APP : mkvmerge v8.3.0 ('Over the Horizon') 64bit _STATISTICS_WRITING_DATE_UTC : 2017-01-13 17:54:47 _STATISTICS_TAGS : BPS DURATION NUMBER_OF_FRAMES NUMBER_OF_BYTES Text #2 ID : 5 Format : UTF-8 Codec ID : S_TEXT/UTF8 Codec ID/Info : UTF-8 Plain Text Title : REGULAR iTA Language : Italian Default : No Forced : No DURATION : 01:36:39.457000000 NUMBER_OF_FRAMES : 1142 NUMBER_OF_BYTES : 46571 _STATISTICS_WRITING_APP : mkvmerge v8.3.0 ('Over the Horizon') 64bit _STATISTICS_WRITING_DATE_UTC : 2017-01-13 17:54:47 _STATISTICS_TAGS : BPS DURATION NUMBER_OF_FRAMES NUMBER_OF_BYTES Text #3 ID : 6 Format : UTF-8 Codec ID : S_TEXT/UTF8 Codec ID/Info : UTF-8 Plain Text Title : REGULAR ENG Language : English Default : No Forced : No DURATION : 01:36:39.795000000 NUMBER_OF_FRAMES : 1477 NUMBER_OF_BYTES : 51375 _STATISTICS_WRITING_APP : mkvmerge v8.3.0 ('Over the Horizon') 64bit _STATISTICS_WRITING_DATE_UTC : 2017-01-13 17:54:47 _STATISTICS_TAGS : BPS DURATION NUMBER_OF_FRAMES NUMBER_OF_BYTES Text #4 ID : 7 Format : UTF-8 Codec ID : S_TEXT/UTF8 Codec ID/Info : UTF-8 Plain Text Title : NON UDENTI ENG Language : English Default : No Forced : No DURATION : 01:36:41.667000000 NUMBER_OF_FRAMES : 1639 NUMBER_OF_BYTES : 56939 _STATISTICS_WRITING_APP : mkvmerge v8.3.0 ('Over the Horizon') 64bit _STATISTICS_WRITING_DATE_UTC : 2017-01-13 17:54:47 _STATISTICS_TAGS : BPS DURATION NUMBER_OF_FRAMES NUMBER_OF_BYTES Menu 00:00:00.000 : :00:00:00.000 00:07:38.208 : :00:07:38.208 00:18:20.833 : :00:18:20.833 00:26:28.417 : :00:26:28.417 00:35:28.000 : :00:35:28.000 00:45:04.625 : :00:45:04.625 00:54:10.625 : :00:54:10.625 01:03:03.417 : :01:03:03.417 01:11:58.833 : :01:11:58.833 01:20:13.208 : :01:20:13.208 01:30:47.833 : :01:30:47.833 01:36:12.417 : :01:36:12.417 [/spoiler] [/color][/b][/center]
 «  1 2 3 4 5 6 7 ... 449 450 451 452 453  »
  Movie/Films     Animation/Cartoons     TV Shows/Series     Music     Games     Applications     Books     Other  

   How works MfT    Rules    Suggest idea    Request torrent    Privacy Policy    DMCA    Contacts    MfT Status    Friends sites    Is this site safe?   

mkv, HD-Rip , BD-Rip , Blu-Ray , HD Film , hd film , hd films , scarica film gratis , hd torrents , hd torrent , hdtorrents, hdrip , bdrip , Bluray ,

Blu-Ray player, scarica film , scarica torrent , torrent film , film ita, bluray, mux, 1080p, 720p, hdtorrents, torrent ita, torrents ita, HD film ita, HD ita, Blu-Ray ita