Search Top Tags














Passengers (2016).H264.Italian.English.Ac3.5.1.sub.ita.eng.iCV-MIRCrew

Language: | Size: 1.78 GB | Seed: 1 | Leech: 15

Description:

Passengers (2016).H264.Italian.English.Ac3.5.1.sub.ita.eng.iCV-MIRCrew [center] [color=red][b][img]http://s23.postimg.org/b9yhws27f/0sc_Del1.png[/img] [u]NO FOUND ONLY ORIGINAL RELEASE[/u] [img]http://i.imgur.com/GDNQx1Z.png[/img] My release is always in double track audio italian and Original audio for select it use VLC or dvd player home not use wmp Passengers (2016) [img]https://extraimage.net/images/2017/03/24/b176235ed2c9db18653fa679cdc7b4af.png[/img] [URL=http://www.imdb.com/title/tt1355644/][IMG]http://www.userlogos.org/files/logos/Sucka/imdb_new.png[/IMG][/URL] [img]http://i.imgur.com/fGu1rKv.png[/img] DATA USCITA: 30 dicembre 2016 GENERE: Avventura, Fantascienza ANNO: 2016 REGIA: Morten Tyldum SCENEGGIATURA: Jon Spaihts FOTOGRAFIA: Rodrigo Prieto MONTAGGIO: Maryann Brandon MUSICHE: Thomas Newman PRODUZIONE: Start Motion Pictures, Company Films, Wayfare Entertainment DISTRIBUZIONE: Warner Bros. Italia PAESE: USA DURATA: 116 Min [img]http://i.imgur.com/W7kBqiE.png[/img] Chris Pratt, Jennifer Lawrence, Michael Sheen, Laurence Fishburne, Aurora Perrineau, Marie Burke [img]http://i.imgur.com/bFK3ggF.png[/img] Durante un viaggio verso una nuova casa su un altro pianeta, due passeggeri vengono svegliati 90 anni prima del previsto per un guasto della nave spaziale. Jim (Chris Pratt) e Aurora (Jennifer Lawrence) si ritrovano con la prospettiva di passare il resto della loro vita a bordo, pur con tutti i comfort possibili............. [img]http://i.imgur.com/48xHWWH.png[/img] A spacecraft traveling to a distant colony planet and transporting thousands of people has a malfunction in its sleep chambers. As a result, two passengers are awakened 90 years early. [img]http://i.imgur.com/K8bfNTy.png[/img] [url=https://extraimage.net/image/2HHZ][img]https://extraimage.net/images/2017/03/24/5559eb6b2b76ffeedf04453c1977c330.th.png[/img][/url] [url=https://extraimage.net/image/2HHK][img]https://extraimage.net/images/2017/03/24/73b3705f83554698af1783cb197cd917.th.png[/img][/url] [url=https://extraimage.net/image/2HHe][img]https://extraimage.net/images/2017/03/24/f0b0723caf481c0182c7140dadb21f21.th.png[/img][/url] [url=https://extraimage.net/image/2HH4][img]https://extraimage.net/images/2017/03/24/5cb24ccb9d4b10f7d026e3aa317d33f5.th.png[/img][/url] [img]http://i.imgur.com/aVrMohH.png[/img] [spoiler] Generale ID univoco : 282472274620809729785503113004554359504 (0xD4822E641D88720A3CCB6534169B92D0) Nome completo : Passengers (2016).H264.ita.eng.sub.ita.eng.iCV-MIRCrew.mkv Formato : Matroska Versione formato : Version 2 Dimensione : 1,78 GiB Durata : 1o 56min Bitrate totale : 2.190 Kbps Film : VISIT www.icv-crew.org Data codifica : UTC 2017-03-24 15:51:46 / UTC 2017-03-24 15:51:46 Creato con : Lavf54.63.100 Compressore : Lavf54.63.100 / Lavf54.63.100 Copyright : robbyrs Video ID : 1 Formato : AVC Formato/Informazioni : Advanced Video Codec Profilo formato : [email protected] Impostazioni formato, CABAC : Si Impostazioni formato, ReFrames : 2 frame ID codec : V_MPEG4/ISO/AVC Durata : 1o 56min Bitrate : 1.290 Kbps Larghezza : 720 pixel Altezza : 300 pixel Rapporto aspetto visualizzazione : 2,40:1 Modalità frame rate : Costante Frame rate : 23,976 (24000/1001) fps Spazio colore : YUV Croma subsampling : 4:2:0 Profondità bit : 8 bit Tipo scansione : Progressivo Bit/(pixel*frame) : 0.249 Dimensione della traccia : 1,01 GiB (57%) Compressore : x264 core 130 r2273 Impostazioni compressione : cabac=1 / ref=2 / deblock=1:0:0 / analyse=0x1:0x131 / me=hex / subme=7 / psy=1 / psy_rd=1.00:0.00 / mixed_ref=0 / me_range=16 / chroma_me=1 / trellis=1 / 8x8dct=0 / cqm=0 / deadzone=21,11 / fast_pskip=1 / chroma_qp_offset=-2 / threads=12 / lookahead_threads=2 / sliced_threads=0 / nr=0 / decimate=1 / interlaced=0 / bluray_compat=0 / constrained_intra=0 / bframes=3 / b_pyramid=0 / b_adapt=1 / b_bias=0 / direct=3 / weightb=1 / open_gop=0 / weightp=2 / keyint=230 / keyint_min=23 / scenecut=40 / intra_refresh=0 / rc_lookahead=40 / rc=2pass / mbtree=1 / bitrate=1290 / ratetol=1.0 / qcomp=0.60 / qpmin=10 / qpmax=69 / qpstep=4 / cplxblur=20.0 / qblur=0.5 / vbv_maxrate=24000 / vbv_bufsize=24000 / nal_hrd=none / ip_ratio=1.40 / aq=1:1.00 Lingua : Italiano Default : Si Forced : No Statistics Tags Issue : mkvmerge v8.7.0 ('All of the above') 64bit 2017-03-22 14:01:56 / Lavf54.63.100 2017-03-24 15:51:46 / UTC 2017-03-24 15:51:46 FromStats_BitRate : 9755299 FromStats_Duration : 01:56:10.839000000 FromStats_FrameCount : 167133 FromStats_StreamSize : 8500327900 Audio #1 ID : 2 Formato : AC-3 Formato/Informazioni : Audio Coding 3 Estensione modo : CM (complete main) Impostazioni formato, Endianness : Big ID codec : A_AC3 Durata : 1o 56min Modalità bitrate : Costante Bitrate : 448 Kbps Canali : 6 canali Posizione canali : Front: L C R, Side: L R, LFE Frequenza campionamento : 48,0 KHz Frame rate : 31,250 fps (1536 spf) Profondità bit : 16 bit Modo compressione : Con perdita Ritardo video : -5ms Dimensione della traccia : 372MiB (20%) Titolo : AC3 ITA Lingua : Italiano Default : No Forced : Si Statistics Tags Issue : mkvmerge v8.7.0 ('All of the above') 64bit 2017-03-22 14:01:56 / Lavf54.63.100 2017-03-24 15:51:46 / UTC 2017-03-24 15:51:46 FromStats_BitRate : 640000 FromStats_Duration : 01:56:10.976000000 FromStats_FrameCount : 217843 FromStats_StreamSize : 557678080 Audio #2 ID : 3 Formato : AC-3 Formato/Informazioni : Audio Coding 3 Estensione modo : CM (complete main) Impostazioni formato, Endianness : Big ID codec : A_AC3 Durata : 1o 56min Modalità bitrate : Costante Bitrate : 448 Kbps Canali : 6 canali Posizione canali : Front: L C R, Side: L R, LFE Frequenza campionamento : 48,0 KHz Frame rate : 31,250 fps (1536 spf) Profondità bit : 16 bit Modo compressione : Con perdita Ritardo video : -5ms Dimensione della traccia : 372MiB (20%) Titolo : AC3 ENG Lingua : Inglese Default : No Forced : No Statistics Tags Issue : mkvmerge v8.7.0 ('All of the above') 64bit 2017-03-22 14:01:56 / Lavf54.63.100 2017-03-24 15:51:46 / UTC 2017-03-24 15:51:46 FromStats_BitRate : 640000 FromStats_Duration : 01:56:10.976000000 FromStats_FrameCount : 217843 FromStats_StreamSize : 557678080 Testo #1 ID : 4 Formato : UTF-8 ID codec : S_TEXT/UTF8 ID codec/Informazioni : UTF-8 Plain Text Titolo : FORCED Lingua : Italiano Default : Si Forced : No Statistics Tags Issue : mkvmerge v8.7.0 ('All of the above') 64bit 2017-03-22 14:01:56 / Lavf54.63.100 2017-03-24 15:51:46 / UTC 2017-03-24 15:51:46 FromStats_BitRate : 0 FromStats_Duration : 01:45:13.516000000 FromStats_FrameCount : 15 FromStats_StreamSize : 381 Testo #2 ID : 5 Formato : UTF-8 ID codec : S_TEXT/UTF8 ID codec/Informazioni : UTF-8 Plain Text Titolo : REGULAR Lingua : Italiano Default : No Forced : No Statistics Tags Issue : mkvmerge v8.7.0 ('All of the above') 64bit 2017-03-22 14:01:56 / Lavf54.63.100 2017-03-24 15:51:46 / UTC 2017-03-24 15:51:46 FromStats_BitRate : 45 FromStats_Duration : 01:54:21.480000000 FromStats_FrameCount : 1157 FromStats_StreamSize : 39056 Testo #3 ID : 6 Formato : UTF-8 ID codec : S_TEXT/UTF8 ID codec/Informazioni : UTF-8 Plain Text Titolo : REGULAR Lingua : Inglese Default : No Forced : No Statistics Tags Issue : mkvmerge v8.7.0 ('All of the above') 64bit 2017-03-22 14:01:56 / Lavf54.63.100 2017-03-24 15:51:46 / UTC 2017-03-24 15:51:46 FromStats_BitRate : 48 FromStats_Duration : 01:43:06.556000000 FromStats_FrameCount : 1237 FromStats_StreamSize : 37557 Menu 00:00:00.000 : :00:00:00.000 00:07:05.342 : :00:07:05.342 00:14:28.201 : :00:14:28.201 00:20:13.838 : :00:20:13.838 00:29:27.099 : :00:29:27.099 00:39:02.590 : :00:39:02.590 00:50:56.804 : :00:50:56.804 00:59:52.756 : :00:59:52.756 01:08:53.129 : :01:08:53.129 01:16:19.950 : :01:16:19.950 01:25:27.706 : :01:25:27.706 01:35:23.259 : :01:35:23.259 01:47:10.200 : :01:47:10:200 [/spoiler] [/color][/b][/center]

Arrival (2016).H264.Italian.English.Ac3.5.1.sub.ita.eng.iCV-MIRCrew

Language: | Size: 1.78 GB | Seed: 1 | Leech: 11

Description:

Arrival (2016).H264.Italian.English.Ac3.5.1.sub.ita.eng.iCV-MIRCrew [center] [color=red][b][img]http://s23.postimg.org/b9yhws27f/0sc_Del1.png[/img] [u]NO FOUND ONLY ORIGINAL RELEASE[/u] [img]http://i.imgur.com/GDNQx1Z.png[/img] My release is always in double track audio italian and Original audio for select it use VLC or dvd player home not use wmp Arrival (2016) [img]https://extraimage.net/images/2017/03/24/b2345b5a6549054110043959518ef46a.png[/img] [URL=http://www.imdb.com/title/tt2543164/][IMG]http://www.userlogos.org/files/logos/Sucka/imdb_new.png[/IMG][/URL] [img]http://i.imgur.com/fGu1rKv.png[/img] Titolo originale Arrival Lingua originale inglese Paese di produzione Stati Uniti d'America Anno 2016 Durata 116 min Genere fantascienza Regia Denis Villeneuve Soggetto Ted Chiang (libro) Sceneggiatura Eric Heisserer Produttore Dan Levine, Shawn Levy, David Linde, Karen Lunder, Aaron Ryder Produttore esecutivo Glen Basner, Dan Cohen, Eric Heisserer, Tory Metzger, Milan Popelka, Stan Wlodkowski Casa di produzione Lava Bear Films, 21 Laps Entertainment, FilmNation Entertainment Fotografia Bradford Young Montaggio Joe Walker Musiche Jóhann Jóhannsson Scenografia Patrice Vermette [img]http://i.imgur.com/W7kBqiE.png[/img] Amy Adams: Louise Banks Jeremy Renner: Ian Donnelly Forest Whitaker: colonnello Weber Michael Stuhlbarg: agente David Halpern Tzi Ma: generale Shang Mark O'Brien: capitano Marks [img]http://i.imgur.com/bFK3ggF.png[/img] Dodici misteriose astronavi extraterrestri, soprannominate "gusci" da parte dei militari degli Stati Uniti, appaiono in tutta la Terra. Non è chiaro il motivo per cui siano arrivate o se vi sia una logica dietro la scelta dei luoghi dell'atterraggio. La linguista Louise Banks viene selezionata per far parte di una squadra speciale di esperti istituita per tentare di comunicare con la specie aliena nel sito di atterraggio del Montana............... [img]http://i.imgur.com/48xHWWH.png[/img] When twelve mysterious spacecraft appear around the world, linguistics professor Louise Banks is tasked with interpreting the language of the apparent alien visitors. [img]http://i.imgur.com/K8bfNTy.png[/img] [url=https://extraimage.net/image/2H5d][img]https://extraimage.net/images/2017/03/24/de9f64e71d2a2d6ae3143624f7a6464a.th.png[/img][/url] [url=https://extraimage.net/image/2H5h][img]https://extraimage.net/images/2017/03/24/5609f04609001ee990d3c70476daf67b.th.png[/img][/url] [url=https://extraimage.net/image/2H5b][img]https://extraimage.net/images/2017/03/24/2767f0f2904ddca5528c45d5a275b5d1.th.png[/img][/url] [url=https://extraimage.net/image/2H53][img]https://extraimage.net/images/2017/03/24/2244cc6e2761f0e70b16d8a4169622b8.th.png[/img][/url] [url=https://extraimage.net/image/2H59][img]https://extraimage.net/images/2017/03/24/2754ee73e05bce624fd9e060b97e11ae.th.png[/img][/url] [img]http://i.imgur.com/aVrMohH.png[/img] [spoiler] General Unique ID : 263940539784211909904529794848908624993 (0xC691195238192DB850D4A8593747C461) Complete name : Arrival (2016).H264.ita.eng.sub.ita.eng.iCV-MIRCrew.mkv Format : Matroska Format version : Version 2 File size : 1.78 GiB Duration : 1h 56mn Overall bit rate : 2 189 Kbps Movie name : VISIT www.icv-crew.org Encoded date : UTC 2017-03-22 21:48:04 Writing application : Lavf54.63.100 Writing library : Lavf54.63.100 COPYRIGHT : robbyrs Video ID : 1 Format : AVC Format/Info : Advanced Video Codec Format profile : [email protected] Format settings, CABAC : Yes Format settings, ReFrames : 2 frames Codec ID : V_MPEG4/ISO/AVC Duration : 1h 56mn Bit rate : 1 290 Kbps Width : 720 pixels Height : 304 pixels Display aspect ratio : 2.40:1 Frame rate mode : Variable Frame rate : 23.976 fps Color space : YUV Chroma subsampling : 4:2:0 Bit depth : 8 bits Scan type : Progressive Bits/(Pixel*Frame) : 0.246 Stream size : 1.02 GiB (57%) Writing library : x264 core 130 r2273 Encoding settings : cabac=1 / ref=2 / deblock=1:0:0 / analyse=0x1:0x131 / me=hex / subme=7 / psy=1 / psy_rd=1.00:0.00 / mixed_ref=0 / me_range=16 / chroma_me=1 / trellis=1 / 8x8dct=0 / cqm=0 / deadzone=21,11 / fast_pskip=1 / chroma_qp_offset=-2 / threads=12 / lookahead_threads=2 / sliced_threads=0 / nr=0 / decimate=1 / interlaced=0 / bluray_compat=0 / constrained_intra=0 / bframes=3 / b_pyramid=0 / b_adapt=1 / b_bias=0 / direct=3 / weightb=1 / open_gop=0 / weightp=2 / keyint=230 / keyint_min=23 / scenecut=40 / intra_refresh=0 / rc_lookahead=40 / rc=2pass / mbtree=1 / bitrate=1290 / ratetol=1.0 / qcomp=0.60 / qpmin=10 / qpmax=69 / qpstep=4 / cplxblur=20.0 / qblur=0.5 / vbv_maxrate=24000 / vbv_bufsize=24000 / nal_hrd=none / ip_ratio=1.40 / aq=1:1.00 Language : Italian Default : Yes Forced : No DURATION : 01:56:22.935000000 NUMBER_OF_FRAMES : 167423 NUMBER_OF_BYTES : 7340046661 _STATISTICS_WRITING_APP : mkvmerge v8.7.0 ('All of the above') 64bit _STATISTICS_WRITING_DATE_UTC : 2017-03-18 20:31:15 _STATISTICS_TAGS : BPS DURATION NUMBER_OF_FRAMES NUMBER_OF_BYTES Audio #1 ID : 2 Format : AC-3 Format/Info : Audio Coding 3 Mode extension : CM (complete main) Codec ID : A_AC3 Duration : 1h 56mn Bit rate mode : Constant Bit rate : 448 Kbps Channel(s) : 6 channels Channel positions : Front: L C R, Side: L R, LFE Sampling rate : 48.0 KHz Bit depth : 16 bits Compression mode : Lossy Delay relative to video : 1mn 5s Stream size : 373 MiB (20%) Language : Italian Default : No Forced : No DURATION : 01:56:27.552000000 NUMBER_OF_FRAMES : 218361 NUMBER_OF_BYTES : 559004160 _STATISTICS_WRITING_APP : mkvmerge v8.7.0 ('All of the above') 64bit _STATISTICS_WRITING_DATE_UTC : 2017-03-18 20:31:15 _STATISTICS_TAGS : BPS DURATION NUMBER_OF_FRAMES NUMBER_OF_BYTES Audio #2 ID : 3 Format : AC-3 Format/Info : Audio Coding 3 Mode extension : CM (complete main) Codec ID : A_AC3 Duration : 1h 56mn Bit rate mode : Constant Bit rate : 448 Kbps Channel(s) : 6 channels Channel positions : Front: L C R, Side: L R, LFE Sampling rate : 48.0 KHz Bit depth : 16 bits Compression mode : Lossy Delay relative to video : 1mn 5s Stream size : 373 MiB (20%) Language : English Default : No Forced : No DURATION : 01:56:22.976000000 NUMBER_OF_FRAMES : 654654 NUMBER_OF_BYTES : 1317163968 _STATISTICS_WRITING_APP : mkvmerge v8.7.0 ('All of the above') 64bit _STATISTICS_WRITING_DATE_UTC : 2017-03-18 20:31:15 _STATISTICS_TAGS : BPS DURATION NUMBER_OF_FRAMES NUMBER_OF_BYTES Text #1 ID : 4 Format : UTF-8 Codec ID : S_TEXT/UTF8 Codec ID/Info : UTF-8 Plain Text Title : FORCED Language : Italian Default : Yes Forced : No DURATION : 00:43:08.586000000 NUMBER_OF_FRAMES : 11 NUMBER_OF_BYTES : 208 _STATISTICS_WRITING_APP : mkvmerge v8.7.0 ('All of the above') 64bit _STATISTICS_WRITING_DATE_UTC : 2017-03-18 20:31:15 _STATISTICS_TAGS : BPS DURATION NUMBER_OF_FRAMES NUMBER_OF_BYTES Text #2 ID : 5 Format : UTF-8 Codec ID : S_TEXT/UTF8 Codec ID/Info : UTF-8 Plain Text Title : REGOLARI Language : Italian Default : No Forced : No DURATION : 01:54:53.053000000 NUMBER_OF_FRAMES : 1010 NUMBER_OF_BYTES : 41067 _STATISTICS_WRITING_APP : mkvmerge v8.7.0 ('All of the above') 64bit _STATISTICS_WRITING_DATE_UTC : 2017-03-18 20:31:15 _STATISTICS_TAGS : BPS DURATION NUMBER_OF_FRAMES NUMBER_OF_BYTES Text #3 ID : 6 Format : UTF-8 Codec ID : S_TEXT/UTF8 Codec ID/Info : UTF-8 Plain Text Title : NON UDENTI Language : English Default : No Forced : No DURATION : 01:48:58.656000000 NUMBER_OF_FRAMES : 1439 NUMBER_OF_BYTES : 47166 _STATISTICS_WRITING_APP : mkvmerge v8.7.0 ('All of the above') 64bit _STATISTICS_WRITING_DATE_UTC : 2017-03-18 20:31:15 _STATISTICS_TAGS : BPS DURATION NUMBER_OF_FRAMES NUMBER_OF_BYTES Menu 00:00:00.000 : :00:00:00.000 00:07:05.342 : :00:07:05.342 00:14:28.201 : :00:14:28.201 00:20:13.838 : :00:20:13.838 00:29:27.099 : :00:29:27.099 00:39:02.590 : :00:39:02.590 00:50:56.804 : :00:50:56.804 00:59:52.756 : :00:59:52.756 01:08:53.129 : :01:08:53.129 01:16:19.950 : :01:16:19.950 01:25:27.706 : :01:25:27.706 01:35:23.259 : :01:35:23.259 01:47:10.200 : :01:47:10:200 [/spoiler] [/color][/b][/center]

qBittorrent v3.3.11 Multilingual (64x&86x) + Crack

Language: | Size: 21.76 MB | Seed: 404 | Leech: 80

Description:

-.-.-.-.-.-.-.-.-.-. .: Descrizione del Software :. TNTVIllage.py is an unofficial TNTVillage's research plugin for qBittorrent, created by ngosang .: Scheda del Software :. Titolo originale: TNTVIllage.py Os: Linux/Mac/Windows Versione: 1.00 Lingua: N/A Genere: Plugin di ricerca http://i.imgur.com/cMExRWH.png http://i.imgur.com/xfAfWUxl.png B6AAAAAAAAAAAAAAAAAAAAAAAAAAAf/2Q==

XYplorer v17.80.0000 Multilingual (64x&86x) +Portable+ Keygen

Language: | Size: 2.79 MB | Seed: 541 | Leech: 93

Description:

XYplorer is a file manager for Windows. It features tabbed browsing, a powerful file search, a versatile preview, a highly customizable interface, optional dual pane, and a large array of unique ways to efficiently automate frequently recurring tasks. It’s fast, light, and portable. It’s Portable XYplorer is a portable file manager. It doesn’t require any installation, stores all configuration data in the application data folder, and running it doesn’t change your system or registry. Take it with you and start it from a USB stick. File management to go. It’s Tabbed Tabs let you switch between folders most easily. Drag them around, hide them, lock them, name them, or drop files onto them. The tabs remember their configuration individually and across sessions. On top of this you get tabsets and dual pane. It’s Functional XYplorer has been designed to make you faster. Numerous usability enhancements in an attractive interface help to streamline your workflow and increase your efficiency. You will definitely save a lot of time. It’s Scriptable Yes, you can program this app. Individual solutions for individual tasks. No plugins needed, scripts run out-of-the-box. Even beginners can benefit from this feature since many ready-to-use scripts are available in the forum. It’s Customizable You can fine-tune the app to look and behave exactly as you want it. This ranges from fonts and colors to custom toolbar buttons and even file icons and program associations. And every bit of it is fully portable. It’s Responsive Your customer voice is listened to and taken seriously, most of the time you get instant feedback, and your wish might actually get implemented sooner than you’d think. Windows 10, 10 Server, 8.1, 8, Server 2012, 7, Server 2008, Vista, XP, Server 2003; 32-bit and 64-bit versions. Portable XYplorer is a powerful file managing system that can be used as an alternative to Windows Explorer. Since this is a portable software, installation is not required. You can simply place Portable XYplorer on an external drive and run its executable file on any computer. Also, your Windows registry will not be affected. The interface of the application is familiar to the one of Explorer, so navigating within it shouldn’t be a problem to users of any level. So, you can copy various elements to the clipboard (e.g. item base, compact file info, large icon, image, selected list row) and use special functions when renaming files (e.g. batch rename, search and replace, keep particular characters). But you can also move, copy or backup files to a particular location, open an item with command-line arguments and paste special (e.g. image into new PNG file, text into new file). In addition, you can locate files and repeat the last search, compare files (e.g. selected file with the one in clipboard), create new items, as well as manage and apply search templates. Furthermore, you can view tabs and a mini tree, calculate folder sizes, go to the hotlist, create and manage a favorites list, add tags, run scripts, customize keyboard shortcuts, switch to dual pane mode, create new tabsets, and many others. The file manager runs on a low amount of system resources, includes a comprehensive help file for beginners and has an excellent response time. We haven’t come across any difficulties during our tests and highly recommend Portable XYplorer to all users, especially the experienced ones, since it comes with many advanced functions.

WonderFox HD Video Converter Factory Pro v11.0 (86x&64x) + Crack

Language: | Size: 52.3 MB | Seed: 540 | Leech: 30

Description:

WonderFox HD Video Converter Factory Pro It is equipped with advanced High-Definition (HD) video conversion technology. It can help users convert videos from Standard-Definition (SD) to High-Definition (HD) like HD MP4, HD MKV, HD AVI, HD MTS, HD TRP, even 4k standard and also enables users to cut down the video size (convert HD videos to SD videos). This HD conversion software supports the newest encoder H265(HEVC), VP9 and 200+ video formats. It can convert nearly all popular videos to virtually any video format including SD video to HD video, for example, converting Multi-track HD video M2TS, MKV, AVCHD, HDTV BDAV and MPEG-TS and more to a wide range of popular video and audio formats. Features Rich video effect options: Mosaic, Blur, Sharpen, Emboss, Noise, Old Film, etc. Crop video to remove the black bars. Cut off unwanted area to feature a highlight. Cut part of video clip that you want to get output, save time for the conversion process. Merge multi video clips to one flexibly. 1. Add the latest pictue enhancement technology(code=wf2.31). 2. Support downloading 1080P, 4K, 8K video from YouTube.

VueScan Pro v9.5.72 Multilingual (64x&86x) + Patch

Language: | Size: 10.21 MB | Seed: 152 | Leech: 79

Description:

VueScan Pro download software update – the world’s most popular scanner software, is used extensively by photographers, home users, scanning services and corporations. It works with most high-quality flatbed and film scanners to produce scans that have excellent color fidelity and color balance. VueScan is very easy to use, and also has advanced features for restoring faded colors, batch scanning and other features used by professionals. Vue-Scan can output scanned documents, photos, and film in PDF, JPEG, TIFF formats. It can also recognize text using OCR and create multi-page pdfs using both flatbed scanners and scanners with automatic document feeders. Vue-Scan is a replacement for the software that came with your scanner. Whether you are looking for more advanced features that your scanner vendor doesn’t provide, or your scanner vendor no longer supports your scanner, Vue-Scan helps you get the most out of your scanner. Vue-Scan changes nothing on your system, installs nothing in your system and all other scanner software will continue to function. Accessing your WiFi enabled scanner has never been easier. Vue-Scan Mobile allows you to seamlessly scan documents and photos straight to your iPhone, iPad, or iPod Touch from HP, Canon, and Epson WiFi printer/scanners. In addition to sending via Email and saving to the Photos App, Vue-scan Mobile allows you to save scanned images to your favorite iOS apps that can open PDF or JPEG files such as iBooks, Dropbox, GoodReader, Evernote, etc. VueScan is compatible with over 1750 different scanners so chances are it will work with yours too. Vue-Scan has been built in two completely different types: Standard and Professional Editions. Guide Me mode guides you step by step through the scanner process. The Advanced mode let’s you unlock powerful features to have complete control over your scan. After you purchase and enter a serial number, the Standard Edition or Professional Edition features are enabled and the dollar-sign watermark is disabled. VueScan works on Windows, Mac OS X, and Linux. Many scanner vendors will stop supporting a scanner and it will stop working on a new operating system. VueScan solves that problem and let’s you use your old scanner again. Features of VueScan 9 Final • Works with 1200 flatbed and film scanners • Runs on Mac OS X, Windows and Linux • Improves your productivity and quality of scans • Has been downloaded more than 5 million times • Create raw scan files • ICC profiles and color spaces • IT8 color calibration

Shotcut Video Editor v17.03 (86x) Multilingual (64x&86x) + Crack

Language: | Size: 304.26 MB | Seed: 404 | Leech: 44

Description:

With Shotcut you work with numerous panels that can be docked and undocked as you see fit. Viewable information includes details regarding media properties, an encoding panel, filter panel, and a jobs queue. You can also see recent files, view playlists with a thumbnail view and see recent search history. It even supports drag and drop functionality from file manager. Key Features include: Wide format support. 4K resolution support. Audio mixing across all tracks. Video compositing across video tracks. Intuitive interface. Shotcut has superb support for wide format media including hundreds of audio and video formats and codecs thanks to FFmpeg. Working with Shotcut is really easy you have all the information, tools and functions that you need to produce quality material. It supports native editing of media files, it has multi-format timelines, and it gives you data on resolutions and frame-rates within the project that you are working on. Shotcut also has some really neat device options. With Blackmagic Design SDI and HDMI support for media input. You can input media from your screen, webcam and various audio capture devices as well. Wide Format Support Support for the latest audio and video formats thanks to FFmpeg Supports popular image formats such as BMP, GIF, JPEG, PNG, SVG, TGA, TIFF as well as image sequences No import required – native timeline editing Frame-accurate seeking for many formats Multi-format timeline: mix and match resolutions and frame rates within a project Webcam capture Audio capture Support for 4K resolutions Network stream playback (HTTP, HLS, RTMP, RTSP, MMS, UDP) Frei0r video generator plugins (e.g. color bars and plasma) Color, noise, and counter generators EDL (CMX3600 Edit Decision List) export Export single frame as image or video as image sequence Audio Features Audio scopes: loudness, peak meter, waveform, spectrum analyzer Volume control Audio filters: Balance, Bass & Treble, Band Pass, Compressor, Copy Channel, Delay, Downmix, Expander, Gain, High Pass, Limiter, Low Pass, Normlize: One Pass, Normalize: Two Pass, Notch, Pan, Reverb, Swap Channels Audio mixing across all tracks Fade in and out audio and fade video from and to black with easy-to-use fader controls on timeline Cross-fade audio and video dissolve transitions easily by overlapping shots on the same track of the timeline JACK transport sync Tone generator Video Effects Video compositing across video tracks HTML5 (sans audio and video) as video source and filters 3-way (shadows, mids, highlights) color wheels for color correction and grading Eye dropper tool to pick neutral color for white balancing Deinterlacing Auto-rotate Fade in/out audio and fade video from and to black with easy-to-use fader controls on timeline Video wipe transitions: bar, barn door, box, clock (radial), diagonal, iris, matrix, and custom gradient image Track compositing/blending modes: Over, Add, Saturate, Multiply, Screen, Overlay, Darken, Dodge, Burn, Hard Light, Soft Light, Difference, Exclusion, HSL Hue, HSL Saturation, HSL Color, HSL Luminosity. Video Filters: Alpha Channel: Adjust, Alpha Channel: View, Blur, Brightness, Chroma Key: Advanced, Chroma Key: Simple, Contrast, Color Grading, Crop, Diffusion, Glow, Invert Colors, Key Spill: Advanced, Key Spill: Simple, Lens Correction, 3D LUT, Mirror, Old Film: Dust, Old Film: Grain, Old Film: Projector, Old Film: Scratches, Old Film: Technocolor, Opacity, Rotate, Rutt-Etra-Izer, Saturation, Sepia Tone, Sharpen, Size and Position, Stabilize, Text, Vignette, Wave, White Balance Speed effect for audio/video clips Editing Features Trimming on source clip player or timeline with ripple option Easy-to-use cut, copy, and paste operations Append, insert, overwrite, lift, and ripple delete editing on the timeline 3-point editing Hide, mute, and lock track controls Multitrack timeline with thumbnails and waveforms Unlimited undo and redo for playlist edits including a history view Create, play, edit, save, load, encode, and stream MLT XML projects (with auto-save) Save and load trimmed clip as MLT XML file Load and play complex MLT XML file as a clip Drag-n-drop files from file manager Scrubbing and transport control Cross Platform & Codec Independent Cross platform support: available on Windows, Linux, and macOS (OS X) Codec independent so does not rely on system codecs Can run as a portable app from external drive UI translations: Catalan, Chinese, Czech, Danish, Dutch, English, French, Gaelic, German, Greek, Italian, Occitan, Polish, Portugese, Russian, Slovak, Spanish, Ukranian (not all 100%, but you can help Batch encoding with job control Encode/transcode to a variety of formats and codecs thanks to FFmpeg Stream (encode to IP) files and any capture source Video quality measurement (PSNR and SSIM) Perform integrity check of an audio/video file View detailed information about an audio/video file Display and Monitoring External monitoring via Blackmagic Decklink card on NTSC monitor External monitoring on an extra system display/monitor UI themes/skins: native-OS look and custom dark and light Control video zoom in the player: fit viewable area (default), 50%, original (100%), and 200% Flexible UI through dock-able panels Detailed media properties panel Recent files panel with search Thumbnail and waveform caching between sessions Hardware Support Blackmagic Design SDI and HDMI for input and preview monitoring Leap Motion for jog/shuttle control Webcam capture Audio capture to system audio card Capture (record) SDI, HDMI, webcam (V4L2), JACK audio, PulseAudio, IP stream, and Windows DirectShow devices Multi-core parallel image processing (when not using GPU and frame-dropping is disabled) DeckLink SDI keyer output OpenGL GPU-based image processing with 16-bit floating point linear per color component.

Roboform v8.3.0 Multilingual (64x&86x) + Crack

Language: | Size: 27.1 MB | Seed: 767 | Leech: 5

Description:

---------------------- ::Description:: ---------------------- AI RoboForm the best manager of passwords and form filler with a serious Artificial intelligence. Main features RoboForm: automatically saves your internet-paroli, automatically enters in the form of passwords, click on the button Login for you, fills your personal information forms, varying remains classified information and notes, generate random passwords, encrypts passwords and personal data using AES, Blowfish , RC6, 3-DES or 1-DES, stores all the information only on the local computer, works with USB- disk providing maximum mobility, synchronizes your passwords and notes with the Palm or Pocket PC, provides backups and data recovery, works on both Windows Further to your browser, works with browsers Netscape, Mozilla, and Firefox on Windows interface is Multilingual. ---------------------- ::Screenshots:: ---------------------- http://softhound.com/wp-content/uploads/2017/02/airoboformenterprise.jpg

Mirillis Action! v2.1.0 (86x&64x) + Crack

Language: | Size: 18.29 MB | Seed: 707 | Leech: 89

Description:

Description:- Action! allows real-time recording/capture of Windows Aero desktop in a superb HD video quality. With Action! you can record web player videos, your gameplay, display game framerates, add live audio commentary to create high quality tutorials, record music, capture screenshots… and more! Features:- Record gameplay in HD. Benchmark games performance:- Action! outstanding performance and GPU utilization allows the smoothest real-time HD gameplay video recording ever! Display current and average game framerate (FPS) during gameplay and save your benchmark results. https://mirillis.com/gfx/action_record_gameplay.jpg Smooth Windows HD desktop recording, easy tutorial creation:- Action! defines a new standard of performance and user experience for real-time desktop recording software. Record smooth high framerate HD videos of your dekstop and applications activity, add microphone audio commentary and create great tutorials with ease! https://mirillis.com/gfx/action_record_desktop.jpg

Internet Download Manager (idm) v6.28 Build 1 Multilingual (64x&86x) + Crack

Language: | Size: 8.17 MB | Seed: 899 | Leech: 80

Description:

Internet Download Manager (IDM) v6.28 Build 1 Final + Patch {KatCore}.Zip Internet Download Manager (IDM) is a tool to increase download speeds by up to 5 times, resume and schedule downloads. Comprehensive error recovery and resume capability will restart broken or interrupted downloads due to lost connections, network problems, computer shutdowns, or unexpected power outages. Simple graphic user interface makes IDM user friendly and easy to use.Internet Download Manager has a smart download logic accelerator that features intelligent dynamic file segmentation and safe multipart downloading technology to accelerate your downloads. Unlike other download managers and accelerators Internet Download Manager segments downloaded files dynamically during download process and reuses available connections without additional connect and login stages to achieve best acceleration performance. Internet Download Manager supports proxy servers, ftp and http protocols, firewalls, redirects, cookies, authorization, MP3 audio and MPEG video content processing. IDM integrates seamlessly into Microsoft Internet Explorer, Netscape, MSN Explorer, AOL, Opera, Mozilla, Mozilla Firefox, Mozilla Firebird, Avant Browser, MyIE2, and all other popular browsers to automatically handle your downloads. You can also drag and drop files, or use Internet Download Manager from command line. Internet Download Manager can dial your modem at the set time, download the files you want, then hang up or even shut down your computer when it’s done. Other features include multilingual support, zip preview, download categories, scheduler pro, sounds on different events, HTTPS support, queue processor, html help and tutorial, enhanced virus protection on download completion, progressive downloading with quotas (useful for connections that use some kind of fair access policy or FAP like Direcway, Direct PC, Hughes, etc.), built-in download accelerator, and many others. ? Improved IDM download engine ? A new type of extension for Firefox (webextension) has been created that supports multiprosess Firefox feature (e10s) ? Added support for Firefox 53, 54, 55 ? Improved video recognition in web players ? Fixed bugs Installation Instructios: ? Install "idman628build1.exe" After the install "exit", ? Open Patch Folder. ? Double click "Patch.exe",Then click Patch, ? Open "C:\Program Files (x86)\Internet Download Manager" Folder, open "IDMan.exe", ? Exit, ? Then click "Register.reg", Yes & ok, ? enjoy.

Icecream Screen Recorder v4.70 Multilingual (64x&86x) + Crack

Language: | Size: 55.84 MB | Seed: 747 | Leech: 90

Description:

Icecream Screen Recorder Pro - easy to use program for recording video from your computer screen (recording games, Skype, webinars, and more), as well as how to create screenshots of all windows, and the selected area. The app has a complete set of tools required for professional video capture from the screen. Screen Recorder allows you to capture the selection of any screen size. If you need to allocate a portion of the screenshot or add text comments to him, this program has the drawing tools. They allow you to draw on the screenshot shapes, lines and text overlay. A screenshot of the program can immediately copied to the clipboard, or upload to a server IceCream Apps and give a short direct link to it. Using IceCream Screen Recorder, you can record high-quality video with sound. It is possible to adjust the microphone volume and system sounds. The program keeps a history of all records. shortcut keys can be used to use the functions of the program. Features: • Choose the area to create a video screenshot or right on the screen of your computer with a single click. • Draw, tracing, show arrows or print text on the future of the screenshot or video directly while shooting. • Quick access to all the recorded video from the screen or a screenshot. • Adjust the microphone volume and system sounds. • Save a screenshot to the clipboard to send on Skype or e-mail. • You decide: whether to remove the mouse, turn off the screensaver there, whether to hide the icons on the desktop, etc. • One-click to send a screenshot Icecream Apps server to receive and send short links to friends or partners. • Use hot keys to control the video recording process with the screen and create screenshots.

Hotspot Shield Elite (VPN) v6.5.3 Multilingual (64x&86x) + Patch

Language: | Size: 21.04 MB | Seed: 933 | Leech: 15

Description:

Hotspot Shield VPN from Anchor is the worlds most trusted internet security solution. With over 75 million downloads, Hotspot Shield VPN for Windows secures more Windows machines than any other competitor VPNs. Hotspot Shield free VPN for Windows secures your web browsing session, protects your online identity from snoopers, encrypts passwords, online shopping information, chats, and downloads. - Custom Internet Security Hotspot Shield VPN for Windows is a custom internet security application designed and developed specifically for the users of Windows operating system. The bespoke solution works seamlessly on: - Windows XP - Windows Vista - Windows 7 - Windows 8 - Windows 10 Hotspot Shield free VPN for Windows offers protection against malware, phishing and spam sites. It secures the IP address assigned to you by your ISP and assigns you a new US IP address. This makes tracking or monitoring your online activities next to impossible. - Unblock Websites Corporate offices, schools, colleges and universities are some of the places that would not let you access Facebook, YouTube, Gmail, game sites and Twitter. Hotspot Shield VPN for Windows allows you to access all such sites without any restrictions. With Hotspot Shield, you can bypass internet filters that restrict access to Facebook or other sites at work or school, giving you uncensored access to what you want. - Surf Anonymously Online privacy and security are two of the biggest concerns of the current times. Other than snoopers and hackers tracking your online activities, ISPs also keep the log files pertaining to all user activity. It is like living in a glass house where you are always exposed to vulnerabilities. Hotspot Shield free VPN for Windows protects your IP address, concealing your location from not only snoopers but also from your own ISP. You are able to browse the internet as an anonymous user in complete privacy. Hackers have no chance to track you back to your computer with Hotspot Shield. - Public Wi-Fi Protection Public hotspots are the places where most of the online attacks take place. Unaware and unprotected people end up losing their online identity, passwords, credit card information and other sensitive data at hotels, restaurants, coffee shops and airports. Public Wi-Fi hotspots have unsecured and unprotected network connections.Thismakes it easier for the snoopers to intercept your data on that particular network. Hotspot Shield VPN for Windows supports encrypted network traffic which secures your online shopping data, passwords, instant messages and more from snoopers. This ensures that neither snoopers nor your ISPs are able to monitor, track or intercept your web activity. Whats New in Hotspot Shield VPN Elite 5.20.2: May include unspecified updates, enhancements, or bug fixes. http://i1.wp.com/extraimago.com/images/2015/10/04/Hotspot.Shield.VPN.Elite.4reealtorrentz.png http://i1.wp.com/extraimago.com/images/2015/10/04/HotspotShieldVPNElite5.20.2MultilingualPatch4realtorrentz.pngInstructions: 1. Unpack and install 2. Read instructions.txt

Hotspot Shield Elite (VPN) v6.5.2 (64x&86x) + Crack

Language: | Size: 25.31 MB | Seed: 198 | Leech: 49

Description:

============= :: Name Of the App :: ============= Hotspot Shield Elite v6.5.2 Setup ============= :: Description :: ============= Though Hotspot Shield Elite lets you download and surf without a bandwidth cap, you are limited to seven days before you have to pay. There is a wholly free version, but it’s riddled with ads. Once you’ve registered with Hotspot Shield, protecting your surfing only requires one click and no complicated setup. ============= :: Screenshot :: ============= https://i1.wp.com/fullstuff.co/wp-content/uploads/2016/08/hssev6.20.png https://i0.wp.com/fullstuff.co/wp-content/uploads/2016/08/hsse6.201.png

FlashFXP v5.4.0 build 3965 Multilingual (64x&86x) + Crack

Language: | Size: 8.82 MB | Seed: 361 | Leech: 99

Description:

---------------------- ::Description:: ---------------------- FlashFXP – a very good FTP-client that supports all types of connections, able to work through firewalls, and supports protocols for secure connections SSL / TSL. The program can import lists of sites from many popular FTP-client. There is a convenient feature – the list of pending tasks, which will resume unfinished downloads at any time. The program has the ability to automate downloading using command line parameters. The program allows you to produce and organize the data not only between the local computer, but also two remote FTP-servers. Using FlashFXP, very convenient to download files that are located in different folders or on different FTP-servers. All the files you want to download, you can put in place. The program will remember their location when you start the download to make a connection to the server, go into the folder and start downloading. ---------------------- ::Screenshots:: ---------------------- https://i1.wp.com/softhound.com/wp-content/uploads/2017/02/flashfxp5.png

Devart ODBC Driver for MySQL v2.1.4 Multilingual (64x&86x) + Crack

Language: | Size: 12.79 MB | Seed: 968 | Leech: 82

Description:

Devart-ODBC-Driver-for-MySQ Devart ODBC Driver for MySQL provides high-performance and feature-rich connectivity solution for ODBC-based applications to access MySQL databases from from Windows, MacOS, Linux, both 32-bit and 64-bit. Full support for standard ODBC API functions and data types implemented in our driver makes interaction of your database applications with MySQL fast, easy and extremely handy. Direct Connection via TCP/IP, HTTP, Proxy Our driver provides capabilities to establish SSL-encrypted connections to MySQL databases directly via TCP/IP avoiding MySQL Client with support for both IPv4 and IPv6. In addition, there is a set of options for connection to MySQL via HTTP and Proxy. SSH Secure Connection You can also connect to MySQL servers securely via SSH tunnel. SSH protocol is one of the most reliable protocols for data en­cryption. SSH is an acknowledged industry standard in the area of secure data transfer through un­protected con­nections.\ SSL Encryption Use SSL connection options provided in our driver along with support for SSL protocol for secure encrypted connection to MySQL. MySQL Compatibility Our driver is compatible with major and the latest MySQL Server versions. MySQL servers: 6.0, 5.6, 5.5, 5.1, 5.0, 4.1, 4.0, and 3.23 MariaDB 5.x Bulk Updates Moreover, with our driver you can perform bulk updates to MySQL database by combining SQL statements into batches, thus simplifying and speeding up large data modification to MySQL. ODBC Conformance The driver provides full support for common ODBC interface: ODBC API Functions support ODBC Data Types support In addition, we provide support for Advanced Connection String parameters. Thus allowing any desktop and web applications to connect to MySQL from various environments and platforms, that support ODBC. Advanced Data Conversion We have implemented advanced Data Conversion mechanisms that provide bi-directional mapping between any MySQL and ODBC data types. Integration The driver is compatible with 3rd-party data analyses tools, such as Microsoft Excel, and integrates with various IDEs and systems like Visual Studio, etc. For the complete list of compatible tools and environments visit the Compatibility page. Platforms Variety ODBC driver for MySQL can be used with 32-bit and 64-bit applications on both x32 and x64 platforms, so there is no need to additionally configure the driver, applications or environment. Fully Unicode Driver With our fully Unicode driver, you can retrieve and work with any data from multi-lingual MySQL databases correctly, not depending on whether its charset is Latin, Cyrillic, Hebrew, Chinese, etc., in any environment localization. High Performance Every operation with MySQL becomes significantly faster using such capabilities of our driver as Local data caching, connection pooling, query optimization and much more. Support Visit our Support page to get instant support from experienced professionals, fast and detailed responses, user engagement and interaction, frequent builds with bug fixes, and much more.

Devart dotConnect for MySQL v8.7.852 Multilingual (64x&86x) + Crack

Language: | Size: 50.94 MB | Seed: 557 | Leech: 20

Description:

dotConnect for MySQL, formerly known as MyDirect .NET, is an enhanced ORM-enabled data provider for MySQL that builds on the ADO.NET technology to present a complete solution for developing MySQL-based database applications. It introduces new approaches for designing application architecture, boosts productivity, and leverages database applications. Fast and Advanced ADO.NET Provider dotConnect for MySQL offers both high performance connectivity to the MySQL database and a number of innovative development tools and technologies. It supports a wide range of MySQL-specific features, such as secure SSL and SSH connections, embedded server, compression protocol, HTTP tunneling and others. RAD Approach dotConnect for MySQL provides a vast number of GUI tools that increase your productivity. It integrates into Visual Studio Server Explorer and other tools, and provides advanced visual component editors to simplify component tweaking. DataSet tools, such as DataSet Wizard, DataSet Editor, DataSet Manager, provide you an easy way to create and edit typed and untyped DataSets. ORM Solutions dotConnect for MySQL offers enhanced ORM support with a bundled visual designer for ORM models – Entity Developer. dotConnect for MySQL supports ADO.NET Entity Framework, NHibernate, and LinqConnect (formerly known as LINQ to MySQL) – our own ORM solution, closely compatible to Microsoft LINQ to SQL, while extending its functionality with its own features. Features Direct Mode Allows your application to work with MySQL directly via TCP/IP without involving MySQL client library. Enterprise Library Can be used in conjunction with Microsoft Enterprise Library Data Access Application Block. Monitoring Allows per-component tracing of database events with a free dbMonitor application. Implements Role, Session State, Membership, Profile, Site Map, and other ASP 2.0 providers. BIS Enables Integration Services to export and import data to/from MySQL servers. Compatibility Supports MySQL servers from 3.23 and higher on .NET and .NET Compact Framework 2.0 and higher and Mono. General usability Direct access to server data. Does not require a MySQL client library Real RAD for database applications Fully compliant with ADO.NET 100% managed code Highly usable design time support Easy to deploy Network and connectivity In Direct mode does not require a MySQL client library and works directly through TCP/IP Both connected and disconnected data access models SSL connection to MySQL server SSH client forwarding protocol Connection through proxy servers Connection through HTTP tunnels Support for compression protocol Unicode connections Failover support Compatibility Full support of the latest versions of MySQL, including Embedded Server, Percona, and MariaDB Full support for x64 architecture .NET Compact Framework support Mono Framework support Microsoft Visual Studio 2008, 2010, 2012, 2013, and 2015 support CodeGear Delphi 2007 support Embarcadero Delphi Prism support SQL Server 2008 Business Intelligence Solutions support MySQL technology support All MySQL data types support Stored procedures support Returning result sets from stored procedures View editing MySqlDump component to store a database or its parts as a script and then restore it MySqlLoader component for fast data loading Support for multiple query execution Fill DataSet with multiple query Ability to store data in the MySqlDataReader object in the FetchAll mode Session identifer retrieval for session management ADO.NET technology support Full support for ADO.NET Entity Framework v1 – v6 Entity Framework Core support [New] Server enumeration Batch update support Extended metadata information retrieval Advanced CommandBuilder component with automatic refresh SQL Enhanced pooling control through connection string Connection string builder Provider factory for generating key data access classes Asynchronous command execution Provider-specific types support Password change API Database Change Notification Support Possibility to retrieve last auto-incremented value Retrieval of output parameters from stored procedures and functions ADO.NET Entity Framework Conceptual approach to enterprise development High performance Wide support for LINQ to Entities Entity Framework Code First support Entity Framework Code First Migrations support Wide support for EntitySQL Full CRUD (Create, Retrieve, Update, Delete) support Wide support for server data types Entity Framework Spatials support Change tracking support Object data caching Inheritance mapping support (TPH, TPT, and TPCT models) Ability to use stored procedures when manipulating data Stored procedure import support Ability to build database-independent applications Full-text search support Visual Studio EDM Wizard support Reverse engineering of database objects to entity model Support for most Entity Framework Canonical Functions Visual model creation and code generation with Entity Developer Update Model From Database functionality for Entity Developer Update To Database with Mapping Synchronization functionality for Entity Developer Illustrated tutorial to get started with Entity Framework in 5 minutes dbForge Fusion for MySQL main features Integration with dotConnect for MySQL for enhanced component designers and drag and drop features Stored routines and SQL script debugger SQL code completion and navigation Visual query builder Database Explorer Visual object editors Database search engine Code template library Security Manager Session Manager Export/Import Wizards Product clarity Complete documentation sets integrated into Visual Studio and CodeGear Delphi Integration with Visual Studio and MSDN help collections Documentation available as a standalone chm file A large amount of helpful demos in C#, VB, C++, and Delphi

Coolutils Total PDF Converter v6.1.0.128 Multilingual (64x&86x) + Keygen

Language: | Size: 35.11 MB | Seed: 1 | Leech: 0

Description:

Coolutils Total PDF Converter Total PDF Converter converts PDF files to HTML, DOC (Word), text, Excel, PostScript, CSV or image files (e.g. TIFF). When you need to convert PDF files to other formats or PS to PDF, Total PDF Converter is the ultimate choice. Why? Because, it’s fast, easy-to-handle, accurate, doesn’t require Adobe Acrobat, supports many target formats and has a batch option (can convert hundreds of PDF files as well as single files). In addition to this, registered users get command line support to manage the utility with maximum efficiency. Other unique features of Total PDF Converter License Key include: • PDF Converter can save Adobe files as images (in JPEG format) and position several of them on one screen. This is especially useful for users of Sony PSP. Have your PDF files displayed on your TV in the way that suits you most. The pages can be displayed vertically, horizontally, even diagonally, with one, two, three or more pages on the screen. • Total PDF Converter can also save conversion preferences. This means, for example, that you do not have to re-check “Change each page to a separate file” every time you convert PDF to TIFF. • The tool will also give you the option of tsrating page numbering in the outout file from any numbers (e.g. “6,7,8,9”, not just “1,2,3,4”). • Total PDF Converter Crack also supports DPI and paper size for TIFF. This means that now you can select the quality and size of the output TIFF image. Choose from 75, 150 or 300 DPI or set your own. The page size can be A3, A4, A5, B4, B5 or Letter. As well as this, you can rename .tiff to .tif via the GUI and command line in the \PDF to TIFF conversion process. • Total PDF Converter Serial Key can convert multi-page PDF files to HTML and place each page in a separate HTML file. Total PDF Converter supports PDF, PS, EPS, PRN, XPS, OXPS files. New formats are constantly being added. Tell Total PDF Converter if you want to omit images from the source files. You can also omit text if you like. Convert PDF to PDF/A in batch. Update thousands of files in one process. Total PDF Converter can act as a PDF splitting utility and extract selected pages from a multi-page PDF. It can also split PDF by bookmarks or by blank pages. Total PDF Converter will change the date of the file or keep the original time stamps. Just check the appropriate checkbox. Sign PDF documents with your digital signature on the spot. Combine several PDF files into one multi-page document with out powerful batch PDF converter. Total PDF Converter can automatically rotate your documents. PDF to JPEG? Customize the final image to your needs. Set the desired quality of the JPEG image to compromize the file size. The app also extracts selected pages and converts them to JPEG. Convert PDF/PS/EPS/PRN files via our clear interface with lots of hints for beginners. The widest list of output file types: DOC, RTF, XLS, HTML, BMP, JPEG, GIF, WMF, EMF, PNG, EPS, PS, TIFF, TXT, CSV, and PDF! Total PDF Converter can combine several PDF files into one TIFF image. Or place every page of a multi-page PDF into a new TIFF files. Tune the output: set margins in inches to your standards. Each PDF file is displayed in Preview panel. You can zoom it in/out or view the document full-sized. Preview option makes it easy to find the necessary PDF file. Add text or image watermarks to the header or the footer of the output file. It’s perfect for stamping bates too! Want more order? Add pagination (sequential numbering of folders is available). Total PDF Converter can extract odd or even pages for you. No matter what MS Office you have, our app can convert PDF to DOC and DocX. We also offer PDF Converter SDK for Web\SQL server\ASP\.NET\C#. With ActiveX you can easily implement our PDF converter into your application. Total PDF Converter has full command line support (get the ready-to-use command line from GUI).

BootIt-« Bare Metal v1.36 Multilingual (64x&86x) + Crack

Language: | Size: 7.92 MB | Seed: 509 | Leech: 69

Description:

BootIt Bare Metal Manage your partitions, install and boot multiple operating systems with ease, back up and restore partitions or entire drives – all this and more, using BootIt Bare Metal. Taking its roots from its highly successful predecessor, BootIt Next Generation, BootIt BM has been developed from the beginning to provide a powerful set of tools for today’s computer users, enthusiasts, and professionals. BootIt® Bare Metal - Partition Manager With today’s large hard drive sizes, proper partitioning and management is more important than ever. BootIt BM offers standard partitioning features as well as many special features not found elsewhere: Compatible with all Windows versions (9x/Me/NT/2000/XP/2003/Vista/2008/Win7/Win8/Servers). Compatible with x64 (AMD64/EM64T) and Windows 64bit OS. Supports MBR, EMBR and GPT type partitioning. Direct support for PATA/SATA (AHCI) drives. Create, move, copy, delete, and undelete partitions. Optionally, wipe a partition when deleted. Non-destructive resizing of FAT/FAT32, NTFS, and Linux Ext2/3/4 partitions. Create over 200 primary partitions on EMBR disks. Specify unlimited primary partitions on a per-drive basis. Convert between MBR, EMBR and GPT type disks. Easily enforce Windows 7 partition alignment standards. Complete control over drive geometry. Directly edit the Windows BCD store to fix booting errors – no Windows DVD required! Edit small text files on any supported partition, even those hidden from Windows. Supports hard drives beyond 16 exabytes in size. and much more… BootIt® Bare Metal - Boot Manager BootIt BM provides a full set of options for each boot item, giving the user an unequaled level of flexibility in configuring (non-UEFI) multi-boot systems: Compatible with all Windows versions (9x/Me/NT/2000/XP/2003/Vista/2008/Win7/Win8/Servers). Compatible with x64 (AMD64/EM64T) and Windows 64bit OS. Boot any partition on any hard drive (up to 16), including logical volumes. Boot multiple operating systems from a single partition. Supports hiding/unhiding partitions, “swapping” of drives, and partition table order for each boot item. Automatically detects existing operating systems upon installation and adds them to the boot menu. Use the Direct Boot Menu to boot directly into any partition, bypassing the normal boot menu. Customize and secure the computer with user IDs and passwords. Support booting to Linux, MS-DOS, OS/2, and more... and much more… BootIt® Bare Metal - Disk Imaging Creating and restoring partition and disk images is a simple matter using the included full version of Image for DOS. Sporting a new graphical user interface, Image for DOS brings complete image file compatibility with TeraByte’s current imaging products (Image for Windows, Image for Linux, and Image for DOS) – a much requested feature. Launched directly from the BootIt BM desktop, accessing this powerful tool is a simple matter of a single mouse click or touch of a key: Compatible with all Windows versions (9x/Me/NT/2000/XP/2003/Vista/2008/Win7/Win8/Servers). Compatible with x64 (AMD64/EM64T) and Windows 64bit OS. Compatible with Linux file systems. Create backup images of single partitions, multiple partitions, or entire drives. Quickly recover from drive failure, corruption or data loss by restoring an image or extracting the data from a backup. Migrate to a new drive by restoring an image or by copying (cloning) the original drive. Optionally, expand existing partitions to utilize a larger drive. Support for both internal and external drives (including USB 2.0, IEEE1394, and eSATA). BootIt® Bare Metal - Scripting BootIt Bare Metal (paid version) includes an enhanced version of the TeraByte OS Deployment Tool Suite Professional that includes the powerful TBScript engine. This offers you an almost unlimited number of solutions: Automate partition creation, deletion, sliding, copying, and resizing. Automate disk image backups or restores. Use existing .TBS scripts to prepare Windows to run on different hardware. Access files in supported partitions. Explore and change OS configuration files. And so much more...

Avira Antivirus Pro v15.0.25.154 Multilingual (64x&86x) + Keygen

Language: | Size: 302.76 MB | Seed: 1 | Leech: 0

Description:

Avira Antivirus Pro v15.0.25.154 New Avira Antivirus Pro - Security and simplicity redefined. The quick and easy way to protect yourself from online threats without all the hassle. From malware and Trojans to spies and identity theft, Aviras NEW Antivirus Pro gives you the protection you need to live the life you want. Antivirus from the experts Additional features are nice, but antivirus is what we do best. Rest assured that youll be protected by some of the most cutting-edge antivirus technologies available. Period. Aviras NEW Antivirus Pro is built upon some of the most powerful security technologies in the world. Combining advanced heuristics with the power of cloud computing, we make sure that you have the strongest protection possible. But you dont have to take our word for it, Aviras antivirus technology is trusted by millions of users and consistently earns the praise of independent reviewing platforms. Antivirus Scanner Total protection from malware. Real-time cloud protection Protects you from emerging threats. Blocks PUA Blocks hidden applications bundled with legitimate software. Email Protection Scans emails for malware. Network Protection Scans files shared on your network. Advanced Web Protection Safely surf, shop, stream, download and bank online. Game Mode Suspends unnecessary notifications during games and movies. Browser Tracking Blocker Prevents ad networks from monitoring what you do online. Safe Browsing Blocks harmful websites before they load. What's new: Official site does not provide any info about changes in this version

Avast! Pro AntivirusInternet SecurityPremier 17.2.3419.0 + Keys

Language: | Size: 849.29 MB | Seed: 131 | Leech: 39

Description:

Avast! Pro Antivirus / Internet Security / Premier 17.2.3419.0 + Keys is most advanced security suite adds military-grade data shredding and automatic software updates in addition to antivirus, firewall, and Home Network Security. avast! is only the most trusted name in antivirus, actively protecting more than 200 million PCs, Macs and Androids. Premier: Avast Premier gives you the highest level of security, automation, and support you need and want. Internet Security: Our best-seller because it offers the protection people need with the performance and flexibility they want. Pro Antivirus: Gives technical pros additional network and DNS security. Automatic software updates Hackers love to exploit old software. Italian’s the weakest link in most people’s security. Avast Premier automates software updating so you don’t have to think about it. Putting you a few steps ahead Looking for the ultimate? You’re in the right place. In addition to all the features of Internet Security, you are getting advanced security measures keeping your PCs and network even safer. Yes, your PC can run it If your PC can run the full version of Windows 8.1, it can run Premier. Period. New Features in Avast! Pro Antivirus / Internet Security / Premier 17.2.3419.0 + Keys: – HTTPS scanning. Now, we are able to detect and decrypt TLS/SSL protected traffic in our Web-content filtering component. We are using our own generated certificates that are added into the Root Certificate store in Windows and also into major browsers. This feature will protect you against viruses coming through HTTPs traffic as well as adding compatibility for SPDY+HTTPS/ HTTP 2.0 traffic. You can tune/disable this feature in the settings section. – Home Network Security. Scan your home network for vulnerabilities (wifi status, connected devices, router settings, factory passwords, etc.). This is quite a new approach as we are trying to discover potential problems not isolated on the particular device only, but in the entire network of devices you use or connect to the Internet from. – SecureDNS (this feature is active in the paid versions only). We are introducing a new provider which guards against unprotected DNS/DNS hijack on a router/client (including unsecured networks, public ones, etc.). – Smart Scan. Integrated all on demand scans into one (Antivirus, Software updates, Home Network, GrimeFighter). One scan, different results and recommendations. – New Support System. Easy contact for paid users to submit a ticket with all info included automatically. Improved knowledge base for free users. Help is completely online and is more up to date. – General bugfixing. This covers a lot of stability and performance changes in all components (but the main focus was traditionally on the network and engine components). – GrimeFighter Free. GrimeFighter will offer free cleaning of junk files and tuning of system settings. These tasks are performed by our Zilch and Torque minions. Other minion functions remain as paid-for features. – AVAST NG. A hardware based virtualization solution capable of running each Windows process in standalone safe virtualized environment (VM) and fully integrated to your desktop. Each process is executed in its own instance of VM, which means totally isolated from your other applications. This feature is now powering the Avast DeepScreen, resulting in better detection. The technology will also eventually power the Sandbox and SafeZone components (although it does not now). Languages: English, Arabic, Belarusian, Bengali, Bulgarian, Catalan, Chinese (Simplified), Chinese (Traditional), Croatian, Czech, Danish, Dutch, Estonian, Finnish, French, German, Hebrew, Hindi, Hungarian, Indonesian, Italian, Japanese, Korean, Latvian, Malay, Norwegian, Persian, Polish, Portuguese (Brazil), Portuguese (Portugal), Romanian, Russian, Serbian, Spanish, Slovak, Slovenian, Swedish, Thai, Turkish, Ukrainian, Urdu, Vietnamese What’s new Avast! Pro Antivirus / Internet Security / Premier 17.2.3419.0 + Keys: – not working User interface after update – problems on Windows Vista after update – issues with SecureLine license after update – conflict with Comodo firewall – installation of web extensions on 64-bit version of Firefox – problems with opening Avast UI after installation – security issue in SafeZone browser banking mode

Ashampoo-« Backup Pro v10.05 Multilingual (64x&86x) + Crack

Language: | Size: 62.43 MB | Seed: 588 | Leech: 14

Description:

Ashampoo Backup Pro 10.05 Are you looking for an easy to use yet highly versatile backup solution? Ashampoo® Backup Pro 11 takes the fear out of viruses, ransomware or hardware defects! Simply roll your system back to a previous update to get your data back. Ashampoo® Backup Pro 11 gives you various options to backup individual files or entire disc partitions either on any storage media or in the cloud. User-friendly, intuitive, fast. Even in the event of a total system failure, the integrated emergency application can bring back your system! A backup solution for everyone! - Backup and restore entire Windows systems - Your lifesaver against ransomware - New and self-explanatory user interface - Well-structured and clear design - Handy rescue system with UEFI support - New system recovery tool The remedy for ransomware and viruses No need for reinstallations - the solution against malware. Ransomware takes your computer hostage and encrypts your personal files. Viruses destroy entire systems and take away your control over your PC. Ashampoo® Backup Pro 11 can reverse these devastating effects with ease! Simply restore a previous backup and all's well again! Always up-to-date Always up-to-date backups with maximum file encryption. The advanced backup mechanism ensures that only modified portions of your data are stored. This prevents duplicates and provides immense space savings. Modern high quality encryption will protect your files against unauthorized access. Store it wherever you like Works with any storage format. Ashampoo® Backup Pro 11 stores your backups on any hard disk, SSD, flash drive or network location. Local backups profit from the newly developed "Infinite Reverse Incremental" technology that requires spectacularly little disk space. Benefit from space savings up to 50%! Easy cloud upload Store backups on the Internet. Ashampoo® Backup Pro 11 makes working with Dropbox or Google Drive incredibly easy. Enjoy your independence of traditional storage media! This does not only include traditional file backups but also extends to entire drives! There's built-in support for Dropbox, Google Drive, Microsoft OneDrive, Strato, 1&1 and many others. Versatile data recovery Individual files, entire partitions or system recovery. The choice is yours: extract individual files from backups with the help of virtual drives or restore entire partitions! If all else fails, the integrated rescue disc or flash drive will get your PC going again. It will boot again and a working backup will be restored. That's all it takes to get your Windows working again! New overview and user handling Clean, logical, beautiful: the new face of Ashampoo® Backup Pro 11. Ashampoo® Backup Pro 11 features a completely redesigned user interface to make your work easier and more intuitive as users are guided through logical steps with on screen explanations. A backup solution to sit back, relax and work intuitively? Certainly! No prior knowledge required, all needs and use cases covered. Automatically safe Once enabled, your backups will always be up-to-date. Ashampoo® Backup Pro 11 can create backups fully automatically in the background. Once enabled, you no longer have to take action! And backup processes are automatically paused to avoid slowdowns whenever you need the full power of your machine! Success in just a few clicks A backup solution for beginners - with professional results! Ashampoo® Backup Pro 11 does not require any previous knowledge. Sophisticated backups can be created with very few inputs! On the spot explanations are available for all program settings and various presets cover all common use cases like email, browser or contact backups.

Ashampoo -« Backup Pro v11.05 Multilingual (64x&86x) + Crack

Language: | Size: 81.71 MB | Seed: 196 | Leech: 7

Description:

Ashampoo Backup Pro 11.05 Are you looking for an easy to use yet highly versatile backup solution? Ashampoo® Backup Pro 11 takes the fear out of viruses, ransomware or hardware defects! Simply roll your system back to a previous update to get your data back. Ashampoo® Backup Pro 11 gives you various options to backup individual files or entire disc partitions either on any storage media or in the cloud. User-friendly, intuitive, fast. Even in the event of a total system failure, the integrated emergency application can bring back your system! A backup solution for everyone! - Backup and restore entire Windows systems - Your lifesaver against ransomware - New and self-explanatory user interface - Well-structured and clear design - Handy rescue system with UEFI support - New system recovery tool The remedy for ransomware and viruses No need for reinstallations - the solution against malware. Ransomware takes your computer hostage and encrypts your personal files. Viruses destroy entire systems and take away your control over your PC. Ashampoo® Backup Pro 11 can reverse these devastating effects with ease! Simply restore a previous backup and all's well again! Always up-to-date Always up-to-date backups with maximum file encryption. The advanced backup mechanism ensures that only modified portions of your data are stored. This prevents duplicates and provides immense space savings. Modern high quality encryption will protect your files against unauthorized access. Store it wherever you like Works with any storage format. Ashampoo® Backup Pro 11 stores your backups on any hard disk, SSD, flash drive or network location. Local backups profit from the newly developed "Infinite Reverse Incremental" technology that requires spectacularly little disk space. Benefit from space savings up to 50%! Easy cloud upload Store backups on the Internet. Ashampoo® Backup Pro 11 makes working with Dropbox or Google Drive incredibly easy. Enjoy your independence of traditional storage media! This does not only include traditional file backups but also extends to entire drives! There's built-in support for Dropbox, Google Drive, Microsoft OneDrive, Strato, 1&1 and many others.

AnyMP4 Video Converter Ultimate v7.2.6 With Crack

Language: | Size: 50.47 MB | Seed: 1 | Leech: 0

Description:

AnyMP4 Video Converter Ultimate v7.2.6 With Crack Description: AnyMP4 Video Converter Ultimate v7.2.6 With Crack, AnyMP4 Video Converter Ultimate – this is the most comprehensive video converter. It will help you convert any videos, HD or general ones, download online videos from mainstream websites and convert downloaded videos and rip DVD movies. With one program at hand, you can easily enjoy any videos or audios on most popular devices and with popular players. Features: Convert to any 2D and 3D videos High video quality Convert any video file to your needed video/audio format Play online videos on portable devices Convert DVD to various videos and audios Make your own 3D videos Clip, effect, crop, and watermark your video Merge videos into one Optimized video effect Fast converting speed http://www.4realtorrentz.com/wp-content/uploads/2016/04/2016-12-27-17_06_09-AnyMP4-Video-Converter-Ultimate.png

Aiseesoft Video Converter Ultimate 9.2.8 Multilingual (64x&86x) + Crack

Language: | Size: 53.7 MB | Seed: 472 | Leech: 56

Description:

Aiseesoft Video Converter Ultimate is the powerful conversion software to assist you converting homemade DVD and videos to 2D/3D/HD video files with great video editing features and supports iPhone/iPad/iPod and most popular portable devices. Convert video to HD/3D video files Convert video to HD video for extraordinary visual experience, including HD AVI, HD WMV, HD MOV, TS, HD MP4, etc. and 3D video files with five modes including Anaglyph (Red/cyan), Side By Side (Full), Side by Side (Half-Width), Top and Bottom (Full), Top and Bottom (Half-Height). Convert homemade DVD to 2D/3D video formats Convert home DVD to video in MP4, AVI, WMV, 3GP, FLV, and tons of other formats and 3D video files with only one conversion. Moreover, this software supports batch conversion, which lets you effortlessly convert multiple files to the same or different video formats with one conversion. Offer default settings for popular devices Video Converter Ultimate offers many default settings for iPhone/iPad/iPod (iPod Touch 5 and iPhone 5 included), Android devices, Samsung devices and other popular devices. It's easy to trim and clip your DVDs and video files. You are allowed to edit and personalize DVDs or videos by adjusting video effect (brightness, contrast, hue, saturation and output volume), crop video, trim video, add watermark to video, and merge multiple video files.

Joe Cocker - Stingray [Flac][TntVillage]

Language: | Size: 244.99 MB | Seed: 2 | Leech: 1

Description:

[img]https://extraimage.net/images/2017/03/24/ab7ba9e4b3dcfb97a3f2d57574856e81.jpg[/img] Artist...............: Joe Cocker Album................: Stingray Genre................: Rock Source...............: CD Year.................: 1976 Ripper...............: Exact Audio Copy (Secure mode) & Acer CD-R/RW 4X4X32 Codec................: Free Lossless Audio Codec (FLAC) Version..............: reference libFLAC 1.2.1 20070917 Quality..............: Lossless, (avg. compression: 53 %) Channels.............: Stereo / 44100 HZ / 16 Bit Tags.................: VorbisComment Information..........: TntVillage Ripped by............: leonenero on 05/05/2014 Posted by............: leonenero on 05/05/2014 News Server..........: news.astraweb.com News Group(s)........: alt.binaries.sounds.flac.full_TntVillage Included.............: NFO, M3U8, LOG, CUE Covers...............: Front Back CD Tracklisting 1 The Jealous Kind 3:51 2 I Broke Down 3:29 3 You Come Along 3:50 4 Catfish 5:24 5 Moon Dew 5:53 6 The Man in Me 2:41 7 She Is My Lady 4:37 8 Worrier 3:16 9 Born Thru Indifference 6:15 Playing Time.........: 45.50 Total Size...........: 244,78 MB Stingray was the last album Joe Cocker ever released for A&M Records in April of 1976. This much overlooked album[which A&M failed to promote adequately]ranks as a favorite among his musical peers. Joe turns in some unbelievable vocal performances on such tunes as "The Jealous Kind", "A Song For You", "She is My Lady" and "The Worrier"[which Features Eric Clapton on guitar]. The soulful rhythm section is anchored by Joe's then backup band Stuff with lead guitarist Eric Gale providing flawless guitar solo's throughout. Great backup vocals are provided by Patti Austin, Deniece Williams and Bonnie Bramlet. The late Peter Tosh makes a cameo as well on the Dylan tune "The Man in Me". It's been said by a prior review of this album many years ago by James Chrispell"Stingray is full of gems worth seeking out".

Caetano Veloso - Gal Costa - Gilberto Gil - Ao Vivo Na Bahia [Flac][TntVillage]

Language: | Size: 249.98 MB | Seed: 24 | Leech: 3

Description:

[img]https://extraimage.net/images/2017/03/22/4101de7a0195f4ffeb98f0a778186ece.jpg[/img] Artist...............: Caetano Veloso - Gal Costa - Gilberto Gil Album................: Ao Vivo na Bahia Genre................: MPB Source...............: CD Year.................: 1974 Ripper...............: EAC (Secure mode) / LAME 3.92 & Asus CD-S520 Codec................: Free Lossless Audio Codec (FLAC) Version..............: reference libFLAC 1.3.1 20141125 Quality..............: Lossless, (avg. compression: 53 %) Channels.............: Stereo / 44100 HZ / 16 Bit Tags.................: VorbisComment Information..........: TntVillage Ripped by............: Leonenero on 19/03/2017 Posted by............: Leonenero on 22/03/2017 News Server..........: news.astraweb.com News Group(s)........: TNTVILLAGE Included.............: NFO, M3U, LOG, CUE Covers...............: Front Back CD --------------------------------------------------------------------- Tracklisting --------------------------------------------------------------------- 1. Gal Costa - Quem Nasceu [03:48] 2. Caetano Veloso - De Noite na Cama [04:14] 3. Caetano Veloso - O Conteúdo [09:29] 4. Gilberto Gil - Terramoto [05:26] 5. Gilberto Gil - O Relógio Quebrou [05:53] 6. Gilberto Gil - O Sonho Acabou [03:30] 7. Gilberto Gil - Cantiga do Sapo [03:54] 8. Gal Costa - Acontece [03:25] 9. Caetano Veloso - Felicidade (Felicidade Foi Embora) [06:31] Playing Time.........: 46:14 Total Size...........: 249,78 MB Great live material from 1974, recorded in Bahia, and featuring Caetano, Gal, and Gilberto Gil – each performing tracks on their own! The quality's better than a lot of other Brazilian live albums from the early 70s, and the album's a strong one in Caetano's early 70s catalog – showing his keenly collaborative presence at the time, and offering up one of the few important documents of work with Tropicalia contemporaries Gal Costa and Gilberto Gil! Caetano sings "Felicidade", "De Noite Na Cama", and "O Conteudo"; Gal performs "Acontece" and "Quem Nasceu"; and Gil rounds out the set with "Terremoto", "O Relogio Quebrou", "O Sonho Acabou", and "Cantigo Do Sapo".

Free.State.Of.Jones.2016.iTALiAN.AC3.BRRip.XviD-T4P3

Language: | Size: 1.7 GB | Seed: 6 | Leech: 0

Description:

Free State of Jones Titolo originale: The Free State of Jones Nazione: U.S.A. Anno: 2016 Genere: Drammatico, Azione, Biografico Durata: 139' Regia: Gary Ross Cast: Matthew McConaughey, Gugu Mbatha Raw, Keri Russell, Mahershala Ali, Jacob Lofland, Sean Bridgers, Gary Grubbs, Matt Lintz, Jessica Collins Produzione: Larger Than Life Productions, Route One Films, Vendian Entertainment Distribuzione: 01 Distribution Data di uscita: 01 Dicembre 2016 (cinema) Trama: L'incredibile storia vera di Newt Knight, il contadino del Sud degli States che durante la Guerra Civile Americana si ribellò all’esercito confederato. Con l’aiuto di un gruppo di agricoltori e di schiavi, Knight guidò una rivolta che portò la Contea di Jones a separarsi dagli Stati della Confederazione. Dalle sue nozze con l'ex schiava Rachel nascerà la prima comunità di razza mista del dopoguerra.

Non.C.E.Piu.Religione.2016.iTALiAN.AC3.BRRip.XviD-T4P3

Language: | Size: 1.4 GB | Seed: 6 | Leech: 0

Description:

Non c'è più religione Titolo originale: Non c'è più religione Nazione: Italia Anno: 2016 Genere: Commedia Durata: 105' Regia: Luca Miniero Cast: Claudio Bisio, Alessandro Gassmann, Angela Finocchiaro, Nabiha Akkari, Giovanni Cacioppo, Laura Adriani, Mehdi Meskar, Paola Casella, Massimo De Lorenzo Produzione: Cattleya, Rai Cinema Distribuzione: 01 Distribution Data di uscita: 07 Dicembre 2016 (cinema) Trama: Una piccola isola del Mediterraneo e un presepe vivente da realizzare come ogni anno per celebrare il Natale. Purtroppo quest’anno il Gesù Bambino titolare è cresciuto: ha barba e brufoli da adolescente e nella culla non ci sta proprio. A Porto Buio però non nascono più bambini da un pezzo ma bisogna trovarne un altro a tutti i costi: la tradizione del presepe è infatti l’unica “resistenza per non scomparire”. Il sindaco Cecco, fresco di nomina, vorrebbe chiederne uno in prestito ai tunisini che vivono sull’isola: peccato che fra le due comunità non corra buon sangue. Ad aiutarlo nell’impresa due amici di vecchia data: Bilal, al secolo Marietto, italiano convertito all'Islam e guida dei tunisini, e Suor Marta, che non ne vuole sapere di “profanare” la culla di Gesù. I tre si ritroveranno uno contro l’altro, usando la scusa della religione per saldare i conti con il proprio passato... Un lama al posto del bue, un Gesù musulmano e un ramadan cristiano, una chiesa divisa in due e una madonna buddista: un presepe vivente così non si vedeva da 2000 anni nella piccola isola di Porto Buio. Una commedia esilarante sull’Italia di oggi, che si arrangia come può, dove l’unica religione che conta è la fantasia.

La cena di Natale (2016).H264.Italian.Ac3.5.1.sub.NUita.eng.iCV-MIRCrew

Language: | Size: 1.15 GB | Seed: 1 | Leech: 3

Description:

La cena di Natale (2016).H264.Italian.Ac3.5.1.sub.NUita.eng.iCV-MIRCrew [center] [color=red][b][img]http://s23.postimg.org/b9yhws27f/0sc_Del1.png[/img] [u]NO FOUND ONLY ORIGINAL RELEASE[/u] [img]http://i.imgur.com/GDNQx1Z.png[/img] My release is always in double track audio italian and Original audio for select it use VLC or dvd player home not use wmp ENGLISH SUBTITLE INSIDE La cena di Natale (2016) [img]https://extraimage.net/images/2017/03/22/ca9ac04dc6f70c22eba8d8c7b26e0be3.png[/img] [URL=http://www.imdb.com/title/tt6281650/][IMG]http://www.userlogos.org/files/logos/Sucka/imdb_new.png[/IMG][/URL] [img]http://i.imgur.com/fGu1rKv.png[/img] DATA USCITA: 24 novembre 2016 GENERE: Commedia ANNO: 2016 REGIA: Marco Ponti FOTOGRAFIA: Roberto Forza MONTAGGIO: Consuelo Catucci MUSICHE: Gigi Meroni PRODUZIONE: I.I.F. Italian International Film DISTRIBUZIONE: 01 Distribution PAESE: Italia DURATA: 95 Min [img]http://i.imgur.com/W7kBqiE.png[/img] Riccardo Scamarcio, Laura Chiatti, Michele Placido, Maria Pia Calzone, Antonella Attili, Eugenio Franceschini, Antonio Gerardi, Veronica Pivetti, Eva Riccobono, Dario Aita, Giulia Elettra Gorietti, Uccio De Santis, Crescenza Guarnieri, Ivana Lotito [img]http://i.imgur.com/bFK3ggF.png[/img] Una Vigilia magica, con la presenza silenziosa e speciale della neve che imbianca la splendida Polignano a mare, dove tutti però sono più agitati del solito. La più sconvolta è Matilde che riceve un anello con smeraldo da Don Mimì, suo marito, "colpevole" di averla troppo trascurata negli ultimi tempi.................. [img]http://i.imgur.com/48xHWWH.png[/img] In Polignano a Mare, covered in snow, they are more nervous than usual. Hysterics, anxiousness, pregnancy tests, lost rings and stuck lifts - what else can happen? [img]http://i.imgur.com/K8bfNTy.png[/img] [img]https://extraimage.net/images/2017/03/22/b0a99a64950d2528c207022b959bacc9.png[/img] [img]https://extraimage.net/images/2017/03/22/cc3d15368ddf094a57ee3d8dab6c003f.png[/img] [img]https://extraimage.net/images/2017/03/22/979a360d36612be45d37d566c8684630.png[/img] [img]http://i.imgur.com/aVrMohH.png[/img] [spoiler] General Unique ID : 210421509037690477878778396930456924256 (0x9E4DB5618F214229694FF056F93BB060) Complete name : La cena di Natale (2016).ita.sub.ita.eng.iCV-MIRCrew.mkv Format : Matroska Format version : Version 2 File size : 1.15 GiB Duration : 1h 34mn Overall bit rate : 1 741 Kbps Movie name : VISIT www.icv-crew.org Encoded date : UTC 2017-03-14 19:04:35 Writing application : Lavf54.63.100 Writing library : Lavf54.63.100 COPYRIGHT : robbyrs Video ID : 1 Format : AVC Format/Info : Advanced Video Codec Format profile : [email protected] Format settings, CABAC : Yes Format settings, ReFrames : 2 frames Codec ID : V_MPEG4/ISO/AVC Duration : 1h 34mn Bit rate : 1 290 Kbps Width : 720 pixels Height : 300 pixels Display aspect ratio : 2.40:1 Frame rate mode : Variable Frame rate : 24.000 fps Color space : YUV Chroma subsampling : 4:2:0 Bit depth : 8 bits Scan type : Progressive Bits/(Pixel*Frame) : 0.249 Stream size : 851 MiB (72%) Writing library : x264 core 130 r2273 Encoding settings : cabac=1 / ref=2 / deblock=1:0:0 / analyse=0x1:0x131 / me=hex / subme=7 / psy=1 / psy_rd=1.00:0.00 / mixed_ref=0 / me_range=16 / chroma_me=1 / trellis=1 / 8x8dct=0 / cqm=0 / deadzone=21,11 / fast_pskip=1 / chroma_qp_offset=-2 / threads=12 / lookahead_threads=2 / sliced_threads=0 / nr=0 / decimate=1 / interlaced=0 / bluray_compat=0 / constrained_intra=0 / bframes=3 / b_pyramid=0 / b_adapt=1 / b_bias=0 / direct=3 / weightb=1 / open_gop=0 / weightp=2 / keyint=240 / keyint_min=24 / scenecut=40 / intra_refresh=0 / rc_lookahead=40 / rc=2pass / mbtree=1 / bitrate=1290 / ratetol=1.0 / qcomp=0.60 / qpmin=10 / qpmax=69 / qpstep=4 / cplxblur=20.0 / qblur=0.5 / vbv_maxrate=24000 / vbv_bufsize=24000 / nal_hrd=none / ip_ratio=1.40 / aq=1:1.00 Language : Italian Default : Yes Forced : No DURATION : 01:34:29.084000000 NUMBER_OF_FRAMES : 136058 NUMBER_OF_BYTES : 5525977434 _STATISTICS_WRITING_APP : mkvmerge v9.9.0 ('Pick Up') 32bit _STATISTICS_WRITING_DATE_UTC : 2017-03-09 05:53:49 _STATISTICS_TAGS : BPS DURATION NUMBER_OF_FRAMES NUMBER_OF_BYTES Audio ID : 2 Format : AC-3 Format/Info : Audio Coding 3 Mode extension : CM (complete main) Codec ID : A_AC3 Duration : 1h 34mn Bit rate mode : Constant Bit rate : 448 Kbps Channel(s) : 6 channels Channel positions : Front: L C R, Side: L R, LFE Sampling rate : 48.0 KHz Bit depth : 16 bits Compression mode : Lossy Delay relative to video : 1mn 5s Stream size : 303 MiB (26%) Title : Ita. AC3 640 Kbps Language : Italian Default : No Forced : No DURATION : 01:34:29.088000000 NUMBER_OF_FRAMES : 177159 NUMBER_OF_BYTES : 453527040 _STATISTICS_WRITING_APP : mkvmerge v9.9.0 ('Pick Up') 32bit _STATISTICS_WRITING_DATE_UTC : 2017-03-09 05:53:49 _STATISTICS_TAGS : BPS DURATION NUMBER_OF_FRAMES NUMBER_OF_BYTES Text #1 ID : 3 Format : UTF-8 Codec ID : S_TEXT/UTF8 Codec ID/Info : UTF-8 Plain Text Title : Sub. Ita. Non Udenti Language : Italian Default : No Forced : No DURATION : 01:29:54.375000000 NUMBER_OF_FRAMES : 1132 NUMBER_OF_BYTES : 44365 _STATISTICS_WRITING_APP : mkvmerge v9.9.0 ('Pick Up') 32bit _STATISTICS_WRITING_DATE_UTC : 2017-03-09 05:53:49 _STATISTICS_TAGS : BPS DURATION NUMBER_OF_FRAMES NUMBER_OF_BYTES Text #2 ID : 4 Format : UTF-8 Codec ID : S_TEXT/UTF8 Codec ID/Info : UTF-8 Plain Text Title : Sub. Eng. Language : English Default : No Forced : No DURATION : 01:30:33.833000000 NUMBER_OF_FRAMES : 1254 NUMBER_OF_BYTES : 44399 _STATISTICS_WRITING_APP : mkvmerge v9.9.0 ('Pick Up') 32bit _STATISTICS_WRITING_DATE_UTC : 2017-03-09 05:53:49 _STATISTICS_TAGS : BPS DURATION NUMBER_OF_FRAMES NUMBER_OF_BYTES Menu 00:00:00.000 : :00:00:00.000 00:06:23.375 : :00:06:23.375 00:12:17.875 : :00:12:17.875 00:19:33.958 : :00:19:33.958 00:30:11.583 : :00:30:11.583 00:38:49.250 : :00:38:49.250 00:48:09.417 : :00:48:09.417 00:56:16.708 : :00:56:16.708 01:01:34.708 : :01:01:34.708 01:09:06.542 : :01:09:06.542 01:17:43.667 : :01:17:43.667 01:26:11.000 : :01:26:11.000 [/spoiler] [/color][/b][/center]

Victoria.S01E06.Il.Marito.Della.Regina.iTALiAN.720p.BDMux.x264-BlackBit.mkv

Language: | Size: 1.8 GB | Seed: 2 | Leech: 0

Description:

The early life of Queen Victoria, from her ascension to the throne at the tender age of 18 to her courtship and marriage to Prince Albert. The first series depicts the first few years of the reign of Queen Victoria, played by Jenna Coleman, from her accession to the throne at the age of eighteen, to her intense friendship and infatuation with Lord Melbourne, to her courtship and early marriage to Prince Albert (played by Tom Hughes) and finally to the birth of their first child, Victoria.