Support us
Login | Signup

Popular TAGs: 2016 2015 2014 2013 720p 1080p m1080p XviD x264 x265 3D DVDrip BDrip MKV 320kbps

Show only:                                            

Sort by: Date | Name | Seeders | Leechers | Comments

Rihanna - That Hits (2016) (by emi)

Language: | Size: 235.01 MB | Seed: 41 | Leech: 4

Description:

mp3 a 192 kbps audio di qualità a 95 db Tracklist CD 1 01 - Diamonds.mp3 (5.30 MB) 02 - Right Now (feat. David Guetta).mp3 (4.32 MB) 03 - We Found Love (feat. Calvin Harris).mp3 (5.09 MB) 04 - Roc Me Out.mp3 (4.93 MB) 05 - Stay (feat. Mikky Ekko).mp3 (5.67 MB) 06 - What's My Name (feat. Drake).mp3 (6.21 MB) 07 - Rude Boy.mp3 (5.28 MB) 08 - Umbrella (feat. Jay-Z).mp3 (6.48 MB) 09 - S&M.mp3 (5.73 MB) 10 - Te Amo.mp3 (4.94 MB) 11 - Only Girl (In The World).mp3 (5.55 MB) 12 - We Ride.mp3 (5.56 MB) 13 - Russian Roulette.mp3 (6 MB) 14 - Shut Up And Drive.mp3 (5.03 MB) CD 2 01 - Nobodys Business (feat. Chris Brown).mp3 (5.10 MB) 02 - Loveeeee Song (feat. Future).mp3 (6.04 MB) 03 - Live Your Life (feat. T.I.).mp3 (5.71 MB) 04 - Who's That Chick (feat. David Guetta).mp3 (5.40 MB) 05 - Cheers (Drink To That).mp3 (6.16 MB) 06 - Pour It Up.mp3 (4.44 MB) 07 - Rehab.mp3 (6.90 MB) 08 - Talk The Talk (feat. Jay-Z).mp3 (4.95 MB) 09 - Man Down.mp3 (6.30 MB) 10 - Where Have You Been.mp3 (5.72 MB) 11 - Love The Way You Lie (Pt. 2).mp3 (6.94 MB) 12 - Don't Stop The Music.mp3 (6.31 MB) 13 - California King Bed.mp3 (5.91 MB) 14 - You Da One.mp3 (4.73 MB) CD 3 01 - Pon De Replay.mp3 (5.81 MB) 02 - Hard ft. Jezzy.mp3 (5.92 MB) 03 - SOS.mp3 (5.65 MB) 04 - Farewell.mp3 (6.01 MB) 05 - Breakin' Dishes.mp3 (4.77 MB) 06 - Complicated.mp3 (6.02 MB) 07 - Hate That I Love You (feat. Ne-Yo).mp3 (5.20 MB) 08 - Disturbia.mp3 (5.62 MB) 09 - Good Girl Gone Bad.mp3 (5.06 MB) 10 - Run This Town (feat. Jay-Z & Kanye WEst).mp3 (6.42 MB) 11 - Cry.mp3 (5.52 MB) 12 - Take A Bow.mp3 (5.39 MB) 13 - Kisses Don't Lie.mp3 (5.49 MB) 14 - Unfaithful.mp3 (5.37 MB)

Frank Sinatra - A Jolly Christmas [Flac][TNT]

Language: | Size: 160.95 MB | Seed: 41 | Leech: 3

Description:

Artist...............: Frank Sinatra Album................: A Jolly Christmas From Frank Sinatra [2005 Reissue] Genre................: Vocal Source...............: CD Year.................: 1957 Ripper...............: Exact Audio Copy (Secure mode) & Asus CD-S520 Codec................: Free Lossless Audio Codec (FLAC) Version..............: reference libFLAC 1.2.1 20070917 Quality..............: Lossless, (avg. compression: 42 %) Channels.............: Stereo / 44100 HZ / 16 Bit Tags.................: VorbisComment Information..........: Ripped by............: leonenero on 13/12/2012 Posted by............: leonenero on 14/12/2012 News Server..........: news.astraweb.com News Group(s)........: alt.binaries.sounds.flac.full_albums Included.............: NFO, M3U, LOG, CUE Covers...............: Front Back CD --------------------------------------------------------------------- Tracklisting --------------------------------------------------------------------- 1. Frank Sinatra - Jingle Bells [02.00] 2. Frank Sinatra - The Christmas Song [03.28] 3. Frank Sinatra - Mistletoe And Holly [02.18] 4. Frank Sinatra - I'll Be Home For Christmas [03.11] 5. Frank Sinatra - The Christmas Waltz [03.03] 6. Frank Sinatra - Have Yourself A Merry Little Christmas [03.29] 7. Frank Sinatra - The First Noel [02.44] 8. Frank Sinatra - Hark! The Herald Angels Sing [02.24] 9. Frank Sinatra - O Little Town Of Bethlehem [02.06] 10. Frank Sinatra - Adeste Fideles [02.34] 11. Frank Sinatra - It Came Upon A Midnight Clear [02.51] 12. Frank Sinatra - Silent Night [02.31] 13. Frank Sinatra - White Christmas [02.37] 14. Frank Sinatra - The Christmas Waltz [02.59] Playing Time.........: 38.22 Total Size...........: 160,67 MB A Jolly Christmas from Frank Sinatra is a Christmas album by American singer Frank Sinatra, originally released by Capitol Records in 1957. This was Sinatra's first full-length Christmas album. It features the Ralph Brewster Singers along with an orchestra conducted by Gordon Jenkins. Capitol reissued the album in 1963 with different cover art and a new title, The Sinatra Christmas Album, a title which also featured on the album's initial 1987 compact disc pressing. The original title and cover were eventually restored for subsequent CD pressings in 1990 and 1999. In 2001, the album art was altered from its 1957 version. The CD bonus tracks were originally issued on a 1954 Capitol 45 rpm single, arranged and conducted by Nelson Riddle. In 2007 the album was reissued yet again, with a "50th Anniversary" banner placed atop the 2001 cover art and an additional bonus track (a vintage radio PSA that Sinatra did for the American Lung Association's "Christmas Seals" campaign) added. [img]http://torrent-stats.info/d56e/1b3c85d58.png[/img]

VMware Workstation Pro Lite v12.5.1 Build 4542065 + License Keys

Language: | Size: 131.63 MB | Seed: 41 | Leech: 64

Description:

VMware Workstation Pro Lite Edition 12.5.1 Build 4542065 VMware Workstation Pro transforms the way technical professionals develop, test, demonstrate and deploy software by running multiple x86-based operating systems simultaneously on the same PC. Built on 15 years of virtualization excellence and winner of more than 50 industry awards, VMware Workstation Pro takes desktop virtualization to the next level by giving users an unmatched operating system support, rich user experience and incredible performance. Introducing Workstation 12 Pro VMware Workstation 12 Pro continues VMware’s tradition of delivering leading edge features and performance that technical professionals rely on every day when working with virtual machines. With support for the latest version of Windows and Linux, the latest processors and hardware, and the ability to connect to VMware vSphere and vCloud Air, it's the perfect tool to increase productivity, save time and conquer the cloud. - Built for Microsoft Windows 10 and More - Display Powerful 3D Graphics - Ready for High Resolution Displays - Create Powerful Virtual Machines - Ready for the Latest Hardware - Enhanced Connectivity - Build Virtual Networks - Leverage the Power of vSphere and vCloud Air - User Interface - Expiring Virtual Machines - Virtual Machine Cross Compatibility - Protect Your Work and Save Time - Run Restricted Virtual Machines Workstation 12 now provides vCloud Air power operations so you can power on/off or suspend/resume virtual machines saving extra steps and time. Now with Workstation 12 Pro you can tear away a virtual machine tab to the desktop and create a whole new Workstation instance when you need to work with multiple virtual machines. Workstation 12 Pro improves the performance of encrypted VMs during suspend and resume operations with up to 3x faster performance over previous versions of Workstation.

Mamma ho perso l'aereo (1990) [BDMux 720p - H264 - Ita Eng Aac - sub Ita Eng]

Language: | Size: 902.4 MB | Seed: 41 | Leech: 0

Description:

GENERE : Commedia ANNO : 1990 REGIA : Chris Columbus ATTORI : Macaulay Culkin, John Heard, Catherine O'Hara, Joe Pesci, Daniel Stern, Anna Slotky, Michael Maronna, Devin Ratray, Gerry Bamman, Daiana Campeanu, John Candy, Kieran Culkin, Jedidiah Cohen, Angela Goethals, Larry Hankin, Kristin Minter, Senta Moses, Hillary Wolf, Roberts Blossom SCENEGGIATURA : John Hughes FOTOGRAFIA : Julio Macat MONTAGGIO : Raja Gosnell MUSICHE : John Williams PRODUZIONE : JOHN HUGHES PER 20TH CENTURY FOX DISTRIBUZIONE : TWENTIETH CENTURY FOX (1990) - 20TH CENTURY FOX HOME ENTERTAINMENT PAESE : USA DURATA : 106 Min Trama I signori McCallister in partenza per le vacanze di Natale con la numerosa famiglia si accorgono solo dopo il decollo dell'aereo di aver dimenticato a casa il più piccolo dei suoi figli. Il piccolo Kevin rimasto solo non si perde d'animo, egli infatti si prenderà cura della casa a modo suo, riuscendo perfino a sgominare una banda di maldestri scassinatori.

Don't Breathe - Man In The Dark (2016).H264.Italian.English.Ac3.5.1.sub.ita.eng.iCV-MIRCrew

Language: | Size: 1.27 GB | Seed: 41 | Leech: 191

Description:

[img]http://i.imgur.com/GDNQx1Z.png[/img] My release is always in double track audio italian and Original audio for select it use VLC or dvd player home not use wmp Man In The Dark - Don't Breathe (2016) [img]http://extraimage.net/images/2016/12/29/1944fd3ddb5cf3a8736d54d2a9ce63a6.png[/img] [URL=http://www.imdb.com/title/tt4160708/][IMG]http://www.userlogos.org/files/logos/Sucka/imdb_new.png[/IMG][/URL] [img]http://s19.postimage.org/bgh0za7kj/banner_scheda.gif[/img] DATA USCITA: 08 settembre 2016 GENERE: Horror, Thriller ANNO: 2016 REGIA: Fede Alvarez SCENEGGIATURA: Fede Alvarez, Rodo Sayagues MUSICHE: Roque Baños PRODUZIONE: Ghost House Pictures, Good Universe, Sony Pictures Entertainment DISTRIBUZIONE: Warner Bros. Italia PAESE: USA DURATA: 88 Min [img]http://s19.postimage.org/i9hdvjydv/banner_trama.gif[/img] Jane Levy, Dylan Minnette, Daniel Zovatto, Stephen Lang [img]http://s19.postimage.org/i9hdvjydv/banner_trama.gif[/img] Alcuni ragazzi si introducono nella casa di un uomo cieco per commettere un crimine. Considerando le condizioni del padrone di casa i giovani sono convinti che si tratterà di una passeggiata, ma le cose non andranno come previsto. [img]http://s19.postimage.org/nwdqt10wj/banner_storyline.gif[/img] Hoping to walk away with a massive fortune, a trio of thieves break into the house of a blind man who isn't as helpless as he seems. [img]http://i.imgur.com/GgEl7ea.png[/img] [url=https://extraimage.net/image/2cAN][img]http://extraimage.net/images/2016/12/29/9af35bad443ff0eaaf9dec9ece1a3bcb.th.png[/img][/url] [url=https://extraimage.net/image/2cAT][img]http://extraimage.net/images/2016/12/29/dd9e42eb7a0ab601b4ddd88c62bba92d.th.png[/img][/url] [url=https://extraimage.net/image/2cAj][img]http://extraimage.net/images/2016/12/29/04446ea1397996e484c2639d3bf99f67.th.png[/img][/url] [url=https://extraimage.net/image/2cAn][img]http://extraimage.net/images/2016/12/29/a3e9a94eca2bfa476637b8251dddee83.th.png[/img][/url] [img]http://i.imgur.com/cWb6Z.gif[/img] [img]http://s19.postimage.org/f07k2tzo3/banner_dati_file.gif[/img] [spoiler] General Unique ID : 259948078423925999277219218465827266731 (0xC3902DC74B9D95BD821B886DF66B20AB) Complete name : Man In The Dark (2016).H264.ita.eng.sub.ita.eng.iCV-MIRCrew.mkv Format : Matroska Format version : Version 2 File size : 1.27 GiB Duration : 1h 28mn Overall bit rate : 2 048 Kbps Movie name : VISIT www.icv-crew.org Encoded date : UTC 2016-12-28 09:55:29 Writing application : Lavf54.63.100 Writing library : Lavf54.63.100 COPYRIGHT : robbyrs Video ID : 1 Format : AVC Format/Info : Advanced Video Codec Format profile : [email protected] Format settings, CABAC : Yes Format settings, ReFrames : 2 frames Codec ID : V_MPEG4/ISO/AVC Duration : 1h 28mn Bit rate : 1 275 Kbps Width : 720 pixels Height : 300 pixels Display aspect ratio : 2.40:1 Frame rate mode : Variable Frame rate : 23.976 fps Color space : YUV Chroma subsampling : 4:2:0 Bit depth : 8 bits Scan type : Progressive Bits/(Pixel*Frame) : 0.246 Stream size : 785 MiB (61%) Writing library : x264 core 130 r2273 Encoding settings : cabac=1 / ref=2 / deblock=1:0:0 / analyse=0x1:0x131 / me=hex / subme=7 / psy=1 / psy_rd=1.00:0.00 / mixed_ref=0 / me_range=16 / chroma_me=1 / trellis=1 / 8x8dct=0 / cqm=0 / deadzone=21,11 / fast_pskip=1 / chroma_qp_offset=-2 / threads=12 / lookahead_threads=2 / sliced_threads=0 / nr=0 / decimate=1 / interlaced=0 / bluray_compat=0 / constrained_intra=0 / bframes=3 / b_pyramid=0 / b_adapt=1 / b_bias=0 / direct=3 / weightb=1 / open_gop=0 / weightp=2 / keyint=230 / keyint_min=23 / scenecut=40 / intra_refresh=0 / rc_lookahead=40 / rc=2pass / mbtree=1 / bitrate=1275 / ratetol=1.0 / qcomp=0.60 / qpmin=10 / qpmax=69 / qpstep=4 / cplxblur=20.0 / qblur=0.5 / vbv_maxrate=24000 / vbv_bufsize=24000 / nal_hrd=none / ip_ratio=1.40 / aq=1:1.00 Language : English Default : Yes Forced : No DURATION : 01:28:32.266000000 NUMBER_OF_FRAMES : 127367 NUMBER_OF_BYTES : 6720486044 _STATISTICS_WRITING_APP : mkvmerge v8.7.0 ('All of the above') 64bit _STATISTICS_WRITING_DATE_UTC : 2016-12-24 13:59:29 _STATISTICS_TAGS : BPS DURATION NUMBER_OF_FRAMES NUMBER_OF_BYTES Audio #1 ID : 2 Format : AC-3 Format/Info : Audio Coding 3 Mode extension : CM (complete main) Codec ID : A_AC3 Duration : 1h 28mn Bit rate mode : Constant Bit rate : 384 Kbps Channel(s) : 6 channels Channel positions : Front: L C R, Side: L R, LFE Sampling rate : 48.0 KHz Bit depth : 16 bits Compression mode : Lossy Delay relative to video : 1mn 5s Stream size : 243 MiB (19%) Language : Italian Default : Yes Forced : No DURATION : 01:28:31.936000000 NUMBER_OF_FRAMES : 165998 NUMBER_OF_BYTES : 254972928 _STATISTICS_WRITING_APP : mkvmerge v8.7.0 ('All of the above') 64bit _STATISTICS_WRITING_DATE_UTC : 2016-12-24 13:59:29 _STATISTICS_TAGS : BPS DURATION NUMBER_OF_FRAMES NUMBER_OF_BYTES Audio #2 ID : 3 Format : AC-3 Format/Info : Audio Coding 3 Mode extension : CM (complete main) Codec ID : A_AC3 Duration : 1h 28mn Bit rate mode : Constant Bit rate : 384 Kbps Channel(s) : 6 channels Channel positions : Front: L C R, Side: L R, LFE Sampling rate : 48.0 KHz Bit depth : 16 bits Compression mode : Lossy Delay relative to video : 1mn 5s Stream size : 243 MiB (19%) Language : English Default : No Forced : No DURATION : 01:28:32.288000000 NUMBER_OF_FRAMES : 166009 NUMBER_OF_BYTES : 424983040 _STATISTICS_WRITING_APP : mkvmerge v8.7.0 ('All of the above') 64bit _STATISTICS_WRITING_DATE_UTC : 2016-12-24 13:59:29 _STATISTICS_TAGS : BPS DURATION NUMBER_OF_FRAMES NUMBER_OF_BYTES Text #1 ID : 4 Format : UTF-8 Codec ID : S_TEXT/UTF8 Codec ID/Info : UTF-8 Plain Text Title : Forced Language : Italian Default : Yes Forced : No DURATION : 01:20:20.612000000 NUMBER_OF_FRAMES : 9 NUMBER_OF_BYTES : 282 _STATISTICS_WRITING_APP : mkvmerge v8.7.0 ('All of the above') 64bit _STATISTICS_WRITING_DATE_UTC : 2016-12-24 13:59:29 _STATISTICS_TAGS : BPS DURATION NUMBER_OF_FRAMES NUMBER_OF_BYTES Text #2 ID : 5 Format : UTF-8 Codec ID : S_TEXT/UTF8 Codec ID/Info : UTF-8 Plain Text Title : Regular Language : Italian Default : No Forced : No DURATION : 01:26:15.259000000 NUMBER_OF_FRAMES : 508 NUMBER_OF_BYTES : 15478 _STATISTICS_WRITING_APP : mkvmerge v8.7.0 ('All of the above') 64bit _STATISTICS_WRITING_DATE_UTC : 2016-12-24 13:59:29 _STATISTICS_TAGS : BPS DURATION NUMBER_OF_FRAMES NUMBER_OF_BYTES Text #3 ID : 6 Format : UTF-8 Codec ID : S_TEXT/UTF8 Codec ID/Info : UTF-8 Plain Text Title : Regular Language : English Default : No Forced : No DURATION : 01:20:35.038000000 NUMBER_OF_FRAMES : 493 NUMBER_OF_BYTES : 13931 _STATISTICS_WRITING_APP : mkvmerge v8.7.0 ('All of the above') 64bit _STATISTICS_WRITING_DATE_UTC : 2016-12-24 13:59:29 _STATISTICS_TAGS : BPS DURATION NUMBER_OF_FRAMES NUMBER_OF_BYTES Menu 00:00:00.000 : :00:00:00.000 00:07:05.342 : :00:07:05.342 00:14:28.201 : :00:14:28.201 00:20:13.838 : :00:20:13.838 00:29:27.099 : :00:29:27.099 00:39:02.590 : :00:39:02.590 00:50:56.804 : :00:50:56.804 00:59:52.756 : :00:59:52.756 01:08:53.129 : :01:08:53.129 01:16:19.950 : :01:16:19.950 01:23:27.706 : :01:23:27.706 [/spoiler] [/color][/b][/center]

Mary Poppins (1964) 50° Anniversario BDRip 720p - H264 - Ita Eng Ac3 - Sub Ita Eng

Language: | Size: 4.38 GB | Seed: 40 | Leech: 2

Description:

Titolo originale: Mary Poppins Nazione: Usa Anno: 1964 Genere: Commedia Durata: 138' Regia: Robert Stevenson Cast: Julie Andrews, Dick Van Dyke, David Tomlinson, Glynis Johns, Hermione Baddeley, Reta Shaw, Karen Dotrice, Matthew Garber, Elsa Lanchester Produzione: Walt Disney Distribuzione: Rank Trama: Scesa dal cielo dopo una petizione di due bambini per fare loro da governante, Mary Poppins, porta un pò di entusiasmo e serenità ma anche un pò di scompiglio nella famiglia. Mostra/Nascondi Spoiler Testo nascosto Parole chiave: commedia

VA - Dream Dance Vol.78-3CD-2016-VOiCE

Language: | Size: 415.38 MB | Seed: 40 | Leech: 1

Description:

Description ARTiST : VA TiTLE : Dream Dance Vol.78 GENRE : Trance LABEL : Sme Media (Sony Music RiPDATE : Jan-08-2016 STOREDATE : Jan-08-2016 ENCODER : LAME 3.98.4 V0: preset extreme QUALiTY : VBRkbps - 44,1Hz - Joint-Stereo SiZE/LENGTH : 413,2 MB/ 231:21 min TYPE/SOURCE : Sampler / CDDA TRACK LiST # Name Time Cd1 01 Dream Dance Alliance - Freak Out 03:19 02 Armin Van Buuren Feat. Cimo Fraenkel - Strong Ones 03:10 03 Tiesto And Don Diablo Feat. Thomas Troelsen - Chemicals 03:43 04 Hardwell Feat. Jake Reese - Mad World 03:32 05 Atb - Flash X 04:08 06 Dash Berlin And Dubvision Feat. Jonny Rose - Yesterday Is Gone 02:54 07 Cosmic Gate With Eric Lumiere - Run Away (Alexander Popov Remix) 03:52 08 DJ Shog Feat. Jenson - Where Did You Go 02:55 09 Galantis - Dont Care 03:45 10 Thomas Gold And Deniz Koyu - Never Alone 03:16 11 Besh - World Wide Wait 03:25 12 Apek Feat. Linney - Voices 03:39 13 Wildones Feat. David Julien - You Dancing (Ang Remix) 03:46 14 Khomha Feat. Mike Schmid - Restart 03:59 15 Thomas Newson And Marco V Feat. Rumors - Together 03:17 16 Brklyn Feat. Lenachka - Steal Your Heart (Breathe Carolina Remix) 03:35 17 Dvbbs - Never Leave 03:07 18 Tommy Trash Feat. Jhart - Wake The Giant 03:32 19 Kevin Wild X Judah - Haywire 03:59 20 Ftampa - Strike It Up 02:50 21 Faithless - Salva Mea 2.0 (Above And Beyond Remix) 05:54 Cd2 01 Calvin Harris And Disciples - How Deep Is Your Love 03:32 02 Holmes And Watson - By Your Side 03:07 03 Digitalism - Second Chance (Funkagenda Remix) 03:19 04 Dzeko And Torres Feat. Delaney Jane - Lamour Toujours (Tiesto Edit) 02:44 05 Mason Tyler Feat. L.O.C. - All Around The World 03:38 06 Shaun Bate Feat. Sirona - Sing That Song (Stereo Faces Remix) 02:53 07 La Sal - Ride Like The Wind (Mason Tyler Remix) 03:37 08 Pat Farrell Feat. Alina Renae - for You 03:41 09 Dave Emanuel Divine And Andy Prinz - You And Me 03:23 10 Kiavetta And Oneils Feat. Michael Zhonga - Breathtaking (Well Run Away) 03:15 11 Palladium And Van Snyder Feat. Bianca Varela - Adrift (Enyo And Mario Ayuda Remix) 02:56 12 Basslovers United And Addicted Craze Feat. Melina Cortez - Fight (Stereo Faces Remix) 03:08 13 Nolita - Joyride 03:37 14 Andor Van Reeven - What If 2k15 03:10 15 Jason Mayhem - Air Lounge 03:22 16 Cosmic Culture - Miss A Day 03:32 17 Tube Tonic And Dave Cansis - Take Control (Mason Tyler Remix) 03:37 18 DJ Fait - Lost 03:23 19 Dennis Pedersen - Pickles 04:31 20 Tribune - Shooting Stars 03:37 21 Pulsedriver And Tiscore - My Love (Topmodelz Remix) 03:38 22 Trance Arts Feat. Carie - Ive Seen The World 03:55 Cd3 01 Chicane - Fibreglasses 03:13 02 Ferry Corsten - Find A Way 04:09 03 Kyau And Albert - Lover In The Dark 03:01 04 Bt Feat. Dragon Jontron And Senadee - Lifeline 03:57 05 Luke Chable Feat. Johnny Dharma - Mr Gravity 03:10 06 Gai Barone - Anzoo 03:15 07 Tom Fall And Jes - Come Back 03:36 08 Marlo Feat. Christina Novelli - Hold It Together (Ahmed Romel Remix) 03:10 09 Cabriolet Paris And David Berkeley - Wishing Well (Stoneface And Terminal Remix) 03:51 10 Dennis Sheperd Feat. Katty Heath - Where I Begin 04:02 11 Raven And Kleekamp - Olympus 03:05 12 Sneijder And Giuseppe Ottaviani - Nero 03:33 13 Thomas Hayes Feat. Joni Fatora - Neon (Ryos Remix) 03:19 14 Bravenus - All About You 03:12 15 Sun Liquide - Celebrate The Light (Rene Ablaze Remix) 03:58 16 Anna Lee And Dima Krasnik - Optical Illusion (Daniel Kandis Remix) 04:19 17 Marc Simz - Tamahine 03:28 18 Matt Bowdidge - Final Rising 03:46 19 Milan Van Skyler - The Only One 03:03 20 Alex Wright - Temptation 04:51 21 Talla 2xlc And Andre Visior - Horizons 04:16 22 Aly And Fila Feat. Ever Burn - Is It Love (James Dymond Remix) 03:55 TRACKS: 65 TOTAL TiME:231:21 REL.NOTES

South Park s12e13, [SatRip - Xvid - Ita Mp3]

Language: | Size: 250.09 MB | Seed: 40 | Leech: 19

Description:

South Park (South Park) è una serie televisiva satirica statunitense a cartoni animati. Creata e doppiata da Matt Stone e Trey Parker, viene distribuita e trasmessa negli Stati Uniti da Comedy Central. Trasmessa per la prima volta nel 1997, la serie è giunta alla sua dodicesima stagione. South Park narra le avventure di Stan, Kyle, Eric e Kenny, quattro ragazzi che frequentano la scuola elementare (inizialmente la terza classe e, a partire dalla quarta serie, la quarta) e vivono nella piccola città di South Park, Colorado. In principio il cartone era realizzato utilizzando la tecnica della stop motion cutout animation, dove i fotogrammi vengono realizzati incollando pezzi di cartone direttamente sullo sfondo. Successivamente questa tecnica è stata rimpiazzata dall'animazione al computer.

Star Wars: Episodio V - L'Impero Colpisce Ancora (1980), [BDrip 1080p - H265 - Ita Eng Ac3

Language: | Size: 2.76 GB | Seed: 40 | Leech: 3

Description:

Titolo originale: Star Wars: Episode V - Empire Strikes Back Nazionalità: USA Anno: 1980 (Remastered Blu-Ray Version 2011) Genere: Fantascienza Regia: Irvin Kershner Cast: Harrison Ford, Carrie Fisher, Billy Dee Williams, Mark Hamill, Frank Oz, Alec Guinness, Julian Glover, Clive Revill, Bruce Boa, Anthony Daniels, Kenny Baker, Kenneth Colley, Jeremy Bulloch, Mark Jones, Peter Mayhew, Michael Culver, John Ratzenberger, Norman Chancer, Richard Oldfield, Burnell Tucker, John Morton, Jack Purvis, Christopher Malcolm, Milton Johns, Ray Hassett, Des Webb, Michael Sheard, John Dicks, Oliver Maguire, Robin Scobby, Dennis Lawson, Ian Liston, Jack McKenzie, Jerry Marte, Norwich Duff, Brigitte Kahn .: Trama :. Dopo la vittoria nella battaglia contro la Morte Nera, l'Alleanza Ribelle stabilisce la sua base sul freddo pianeta Hoth. Darth Fener ossessionato dall'idea di ritrovare Luke Skywalker, ora divenuto uno dei comdanti della ribellione, invia sonde droidi in tutta la galassia, compreso il pianeta Hoth. Nel corso di un pattugliamento intorno alla base, Luke viene attaccato da un abitante del posto, un wampa, un essere vivente simile allo Yeti. Tornando alla base, Han Solo annuncia la sua intenzione di lasciare l'Alleanza per ripagare un debito a Jabba the Hutt, ma rimanda la partenza per cercare Luke. Il ragazzo, dopo essere sfuggito al wampa vagando nella neve, ha una visione in cui il Fantasma della Forza Obi-Wan Kenobi lo inv

Cop Car (2015) 1080p BrRip x264 - YIFY

Language: | Size: 1.24 GB | Seed: 40 | Leech: 6

Description:

Kevin Bacon (The Following, HBO's Taking Chance, Mystic River) stars in director Jon Watts' delightful throwback thriller Cop Car. When two good-natured but rebellious young boys (James Freedson-Jackson and Hays Wellford) stumble across an abandoned cop car hidden in a secluded glade they decide to take it for a quick joyride. Their bad decision unleashes the ire of the county sheriff (Kevin Bacon) and leads to brutal consequences.

Il viaggio Di Arlo (2015) .mkv FullHD m1080p iTA AC3 2.0 192 x264

Language: | Size: 1.54 GB | Seed: 40 | Leech: 23

Description:

Titolo originale: The Good Dinosaur Nazione: U.S.A. Anno: 2015 Genere: Animazione Durata: 100' Regia: Peter Sohn Sito ufficiale: aja.disney.com/the-good-dinosaur Sito italiano: www.ilviaggiodiarlo.it Cast (voci): Judy Greer, Neil Patrick Harris, John Lithgow, Bill Hader, Frances McDormand, Lucas Neff Produzione: Pixar Animation Studios, Walt Disney Pictures Data di uscita: 25 Novembre 2015 (cinema) Trama: Che cosa sarebbe successo se l'asteroide che ha cambiato per sempre la vita sulla terra non avesse colpito il nostro pianeta e i dinosauri non si fossero mai estinti? Un viaggio epico nell'era della preistoria, dove un coraggioso e curioso dinosauro di nome Arlo stringe un'insolita amicizia con un essere umano. Attraversando luoghi aspri e misteriosi, Arlo imparerà ad affrontare le sue paure e scoprirà ciò di cui è veramente capace.

Electronique numérique en 26 fiches. Dunod PDF

Language: | Size: 3.08 MB | Seed: 40 | Leech: 0

Description:

Electronique numérique en 26 fiches. Dunod PDF

Cuestión De Actitud [Xenia] - ESP XViD DVDrip

Language: | Size: 1.58 GB | Seed: 40 | Leech: 1

Description:

Título: Cuestión de actitud Título original: Xenia País: Grecia, Francia, Bélgica Estreno en USA: 09/10/2015 Estreno en España: 03/07/2015 Estreno en Grecia: 02/10/2014 Estreno en VOD: 12/11/2015 Productora: 100% Synthetic Films, Wrong Men, Movie Partners In Motion Film, Entre Chien et Loup Director: Panos H. Koutras Guión: Panagiotis Evangelidis, Panos H. Koutras Reparto: Kostas Nikouli, Nikos Gelia, Yannis Stankoglou, Marissa Triandafyllidou, Aggelos Papadimitriou, Romanna Lobats, Patty Pravo, Kostis Rampavilas, Electra Leda Koutra, Dinos Psychogios, Dimitris Rakos Calificación: No recomendada para menores de 12 años Género: Drama. Comedia | Familia. Adolescencia. Homosexualidad. Road Movie. Comedia dramática SINOPSIS: Tras la muerte de su madre, Dany y su hermano Odysseas, de 16 y 18 años, emprenden la ruta de Atenas a Tesalónica para buscar a su padre, un hombre griego que nunca han visto. Albaneses por parte de madre, los chicos son extranjeros en su propio país y esperan que su padre los reconozca para obtener la nacionalidad griega. Además, Dany y Ody se hicieron la promesa de participar en un concurso de canto popular que podría cambiar su vida. Este viaje pondrá a prueba la fuerza del vínculo que los une, su lado infantil y el gusto por las canciones italianas. Relaccionados

Viaje A Sils Maria - ESP XViD DVDrip

Language: | Size: 1.45 GB | Seed: 40 | Leech: 0

Description:

Descripción: Título: Viaje a Sils Maria Título original: Clouds of Sils Maria País: USA, Francia, Alemania, Bélgica Estreno en USA: 10/04/2015 Estreno en España: 12/06/2015 Lanzamiento en DVD (alquiler): 07/10/2015 Estreno en Francia: 20/08/2014 Estreno en VOD: 07/10/2015 Productora: CG Cinéma, Pallas Film, CAB Productions Director: Olivier Assayas Guión: Olivier Assayas Reparto: Juliette Binoche, Kristen Stewart, Chloë Grace Moretz, Lars Eidinger, Johnny Flynn, Angela Winkler, Hanns Zischler, Nora von Waldstätten, Brady Corbet, Aljoscha Stadelmann, Claire Tran, Peter Farkas, Stuart Manashil, Ben Posener, Ricardia Bramley Calificación: No recomendada para menores de 12 años Género: Drama | Teatro SINOPSIS: A los dieciocho años, Maria Enders (Juliette Binoche) se hizo famosa interpretando en el teatro a Sigrid, una chica ambiciosa y encantadora que ocasiona el suicidio de una mujer madura, Helena. Veinte años más tarde, en la cima de su carrera profesional, le ofrecen interpretar nuevamente la pieza, pero esta vez encarnando a Helena… Relaccionados

Lejos Del Mundanal Ruido - ESP XViD DVDrip

Language: | Size: 1.45 GB | Seed: 40 | Leech: 0

Description:

Descripción: Título: Lejos del mundanal ruido Título original: Far From the Madding Crowd País: Reino Unido, USA Estreno en USA: 01/05/2015 Estreno en España: 12/06/2015 Productora: Fox Searchlight Pictures Director: Thomas Vinterberg Guión: David Nicholls Reparto: Carey Mulligan, Matthias Schoenaerts, Michael Sheen, Tom Sturridge, Juno Temple, Jessica Barden, Eloise Oliver, Jamie Lee-Hill, Hilton McRae, Johnathon Neal, Lilian Price, Bradley Hall, John Neville, Richard Dixon, Helen Evans Calificación: No recomendada para menores de 7 años Género: Romance. Drama | Drama romántico. Drama de época. Vida rural SINOPSIS: Narra la historia de la bella, independiente y obstinada Bathsheba Everdene (Carey Mulligan), que atrae a tres pretendientes muy distintos: Gabriel Oak (Matthias Schoenaerts), una ganadero ovino, cautivado por su atractiva terquedad; Frank Troy (Tom Sturridge), un apuesto y temerario sargento, y William Boldwood (Michael Sheen), un próspero y maduro soltero. Este sempiterno relato de las opciones y las pasiones de Bathsheba, examina la naturaleza de las relaciones y del amor –así como la capacidad humana de superar dificultades por medio de la resistencia y la perseverancia–. Relaccionados

Sopravvissuto - The Martian (2015) DTS AC3 ITA 1080p BluRay x264 Subs

Language: | Size: 12.28 GB | Seed: 40 | Leech: 10

Description:

Titolo originale: The Martian Nazione: U.S.A. Anno: 2015 Genere: Fantascienza Durata: 150' Regia: Ridley Scott Sito ufficiale: www.foxmovies.com/movies/the-martian Cast: Matt Damon, Kate Mara, Jeff Daniels, Jessica Chastain, Kristen Wiig, Michael Peña, Mackenzie Davis, Sean Bean, Sebastian Stan, Donald Glover, Chiwetel Ejiofor, Naomi Scott, Aksel Hennie Produzione: Genre Films, International Traders, Mid Atlantic Films, Scott Free Productions, Twentieth Century Fox Film Corporation Data di uscita: 01 Ottobre 2015 (cinema) Trama: Durante una missione su Marte, l’astronauta Mark Watney (Matt Damon) viene considerato morto dopo una forte tempesta e per questo abbandonato dal suo equipaggio. Ma Watney è sopravvissuto e ora si ritrova solo sul pianeta ostile. Con scarse provviste, Watney deve attingere al suo ingegno, alla sua arguzia e al suo spirito di sopravvivenza per trovare un modo per segnalare alla Terra che è vivo. A milioni di chilometri di distanza, la NASA e un team di scienziati internazionali lavorano instancabilmente per cercare di portare “il marziano" a casa, mentre i suoi compagni cercano di tracciare un’audace, se non impossibile, missione di salvataggio. Mostra/Nascondi Spoiler INFO Parole chiave: fantascienza

The Stanford Prison Experiment (2015) iTA AC3 6 CH BRRip XviD

Language: | Size: 1.61 GB | Seed: 40 | Leech: 4

Description:

The Stanford Prison Experiment USA 2015 Genere: Drammatico durata 80' Regia di Kyle Patrick Alvarez Con Billy Cudrup, Ezra Miller, Michael Angarano, Tye Sheridan, Johnny Simmons, Olivia Thirlby, Ki Hong Lee, Moises Arias Note: Basato sull'esperimento sociale condotto nel 1971 dal dottor Philip Zimbardo. Trama Ventiquattro studenti maschi su settantacinque vengono scelti per un gioco di ruolo che li trasformerà in maniera casuale in guardie e prigionieri all'interno di un carcere finto, situato nel seminterrato dell'edificio di psicologia a Stanford. Parole chiave: drammatico

Hush (2016) 1080p WEBRip X264-DEFLATE[rarbg]

Language: | Size: 2.53 GB | Seed: 40 | Leech: 1

Description:

Movie: Hush Detected quality: 1080p IMDb link: 5022702 IMDb rating: 7.5 (269 votes) Watch on Solarmovie: Hush Genres: Thriller, Horror add Hush to bookmarks Release date: 12 March 2016 Writers: Mike Flanagan, Kate Siegel Director: Mike Flanagan Language: English Subtitles: English, Italian, German, French, Dutch, Spanish (Spain) Cast: John Gallagher Jr., Michael Trucco, Samantha Sloyan, Kate Siegel and others Summary: A deaf woman is stalked by a psychotic killer in her secluded home.

Gundam Breaker 2 PS3 Region Free-P2P [2014, Action (Shooters, MMO FPS, TPS)] EN

Language: | Size: 4.85 GB | Seed: 40 | Leech: 62

Description:

Gundam Breaker 2 PS3 Region Free-P2P Genre: Action (Shooters, MMO FPS, TPS) Platform: PlayStation 2,3 Multiplayer: No Year: 2014 Type of publication: Language of the game: EN Crack: Available Description : Languages: ENG & JAP In Gundam Breaker 2 missions are divided into several modes, normal, defense, survival, team and battle areas. Like the beat em up for life, our protagonist will visit different areas, each more infects enemy robots, which have to spank your arsenal diverse, style cuffs were crying our beloved Mazinger. System requirements: Size: 4.85 GB

StarDrive 2 MacOSX-ACTiVATED [2015, Action-adventure] EN

Language: | Size: 1.11 GB | Seed: 40 | Leech: 41

Description:

StarDrive 2 MacOSX-ACTiVATED Genre: Action-adventure Platform: Mac Multiplayer: No Year: 2015 Type of publication: Language of the game: EN Crack: Available Description : StarDrive 2 is an exciting and evolutionary step forward for the StarDrive franchise. In this eagerly anticipated sequel, the core mechanics have evolved to incorporate a turn-based strategic layer, featuring spectacular realtime battles. As the galactic ruler of your race you will lead your people into a procedurally-generated galaxy, exploring and expanding your space empire to greatness System requirements: Size: 1.11 GB

Daddy's Home (2015) iTA AC3 6 CH 1080p BluRay x264 Sub

Language: | Size: 9.36 GB | Seed: 40 | Leech: 76

Description:

Titolo originale: Daddy's Home Nazione: U.S.A. Anno: 2015 Genere: Commedia Durata: 96' Regia: Sean Anders, John Morris Sito ufficiale: www.daddyshomemovie.com Cast: Linda Cardellini, Mark Wahlberg, Will Ferrell, Alessandra Ambrosio, Thomas Haden Church, Paul Scheer, Sue-Lynn Ansari, JoAnna Wortham, Hannibal Buress, Jamie Denbo Produzione: Gary Sanchez Productions, Good Universe, Paramount Pictures, Red Granite Pictures Data di uscita: 14 Gennaio 2016 (cinema) Trama: Sono un patrigno contro un papà - Will Ferrell contro Mark Wahlberg - i personaggi di questa spensierata commedia natalizia su un tranquillo dirigente radiofonico che si trova a dover affrontare la 'sfida più ardua per un patrigno' quando l'ex di sua moglie, uno sregolato agente segreto a cavallo di una scintillante motocicletta torna in città. E' solo l'incontro tra due padri orgogliosi - quindi cosa potrebbe andare storto? Ma quello che dovrebbe essere un primo tentativo di conoscersi si trasforma in una guerra a tutto campo, con i due avversari che tentano di surclassarsi a vicenda nel ruolo di genitore con conseguenze esilaranti e disastrose. La posta in gioco continua a crescere - da dei cuccioli ad un pony ad un campione della pallacanestro (Kobe Bryant) - ma i due riusciranno a sopravvivere alla rivalità? Il patrigno Brad vuole solo essere lì per la sua nuova famiglia, ma non ha idea di quanta fatica dovrà fare per conquistare i loro cuori quando in città 'arriva papà'. Subs iTA: Forced/Full Parole chiave: commedia itunes

Marseille.1x02.Tradimento.iTA.AAC.NF.WEBRip.x264-ADE.mkv

Language: | Size: 374.47 MB | Seed: 40 | Leech: 31

Description:

SCHEDA Titolo: Marseille Paese: Francia Puntate: 8 Durata: 40-45 min (episodio) Anno: 2016 Genere: drammatico, politico Cast: Robert Taro, interpretato da Gérard Depardieu, doppiato da Stefano Mondini. Lucas Barres, interpretato da Benoît Magimel, doppiato da Alessio Cigliano. Rachel Taro, interpretata da Géraldine Pailhas Vanessa D'Abrantes, interpretata da Nadia Farès Julia Taro, interpretata da Stéphane Caillard Gérard Meylan Selim, interpretato da Nassim Si Ahmed Antoine Coesens Nozha Khouadra Maruschka Detmers Dottor Osmond, interpretato da Hippolyte Girardot Carolina Jurczak [/b] Dopo vent'anni passati come sindaco di Marsiglia, Robert Taro si ritrova a sfidare in un'accesa campagna elettorale il suo ex-protetto, Lucas Barres

Etienne de Crécy 2015 Super Discount 3

Language: | Size: 93.15 MB | Seed: 40 | Leech: 50

Description:

Track List: Night (Cut The Crap) You WTF Hashtag My Ass Smile Sunset Amazing Follow Love Family

Microsoft.Windows.7.Sp1.Thin.PC.32Bit.Preattivato-Ottobre.2016.Multilingua-iCV-CreW

Language: | Size: 2.14 GB | Seed: 40 | Leech: 8

Description:

[color=red][b]Microsoft Windows 7 Sp1 Thin PC 32 Bit Preattivato - Ottobre 2016 Multilingua[/b][/color] Windows Thin PC è un sistema operativo della Microsoft, basato su Windows 7 Service Pack 1, ma ottimizzato per girare su un hardware meno potente e più vecchio. Windows Thin PC è una versione destinata ai thin client e ai PC con hardware datato, consentendone di eseguire le operazioni di base, ma implementando anche le funzionalità più recenti e un livello di sicurezza maggiore. Il software in questione è basato su Windows Embedded Standard 7 SP1. Il vecchio Windows FLP (Windows Thin PC può essere definito un successore di Windows Fundamentals for Legacy PCs) uscito nel 2006 era invece basato su Windows XP. Anche in questo caso, si parla di un prodotto che lavora sia localmente che in remoto. Windows Thin PC ha dei requisiti di sistema ben inferiori a quanto previsto per Windows 7 e in talune situazioni potrebbe offrire la possibilità di recuperare hardware datato ma comunque valido. Tra le tecnologie disponibili in WIndows Thin Client di Microsoft c'è da segnalare RemoteFX che rende disponibile il virtual desktop sul client, oltre a BitLocker e AppLocker per la sicurezza di dati e applicazioni. [url=https://postimg.org/image/ra30u31vb/][img]https://s15.postimg.org/ra30u31vb/Screen_Hunter_3843_Oct_21_00_38.jpg[/img][/url] Windows Thin PC is an operating system of Microsoft, based on Windows 7 Service Pack 1, but optimized to run on a less powerful hardware and older. Windows Thin PC is a version for thin clients and PCs with older hardware, allowing you to perform the basic operations, but also by implementing the latest features and a higher level of security. The software in question is based on Windows Embedded Standard 7 SP1. The old Windows FLP (Windows Thin PC can be called a successor of Windows Fundamentals for Legacy PCs) released in 2006 was instead based on Windows XP. Even in this case, one speaks of a product that works both locally and remotely. Windows Thin PC is of much lower system requirements as provided for Windows 7 and in certain situations may offer a chance to recover dated but still valuable hardware. Among the technologies available in WIndows Thin Client Microsoft RemoteFX it is to point out that provides the virtual desktop on the client, as well as BitLocker and AppLocker for data and application security. [url=https://postimg.org/image/z0fi8fcip/][img]https://s16.postimg.org/z0fi8fcip/2db1l40.png[/img][/url] [b]Requisiti:[/b] - Processore: 800 MHz Pentium - RAM: 512 MB - Spazio su Disco Rigido: 16 Gb - Display:1024 x 768 o superiore [url=https://postimg.org/image/oadbmhss3/][img]https://s21.postimg.org/oadbmhss3/Screen_Hunter_3842_Oct_21_00_30.jpg[/img][/url]

VA 2015 Royal Deep House Vol. 3

Language: | Size: 142.43 MB | Seed: 40 | Leech: 65

Description:

Track List: Invasion Deep Mind My Number I Am You Sincerity Ti Ona No One Ibiza Deep You Can Fly Memory

Hell's Kitchen Italia S03e01-02 [Satrip - H264 - Ita Aac] HDTVRip

Language: | Size: 1.93 GB | Seed: 40 | Leech: 2

Description:

.: Dati Serie :. Nome: Hell's Kitchen Italia Anno 2014 – in corso Genere Reality show Edizioni 3 Produttore Magnolia P Presentatore Carlo Cracco Regia Umberto Spinazzola Rete Sky Uno .: Trama :. Hell's Kitchen Italia è un reality show che consiste in sfide di cucina condotto dallo chef Carlo Cracco. È basato sull'omonima versione statunitense del programma trasmessa su Fox e guidata da Gordon Ramsay, arrivata alla dodicesima stagione negli Stati Uniti..

Melanie C - Version Of Me (2016) (by emi)

Language: | Size: 59.48 MB | Seed: 40 | Leech: 0

Description:

mp3 a 192 kbps audio di qualità a 95 db Tracklist 01 - Dear Life.mp3 (4.8 MB) 02 - Escalator.mp3 (4.7 MB) 03 - Anymore.mp3 (4.3 MB) 04 - Something For The Fire.mp3 (5.3 MB) 05 - Version Of Me.mp3 (5.6 MB) 06 - Numb.mp3 (5.0 MB) 07 - Room For Love.mp3 (4.7 MB) 08 - Unravelling.mp3 (6.5 MB) 09 - Loving You Better.mp3 (6.7 MB) 10 - Our History.mp3 (5.4 MB) 11 - Blame.mp3 (6.4 MB)

L'età d'oro (2016 Ita)[BRRip-H264-AAC 5.1]

Language: | Size: 1.47 GB | Seed: 40 | Leech: 3

Description:

.: SCHEDA :. DATA USCITA: 07 aprile 2016 GENERE: Drammatico ANNO: 2016 REGIA: Emanuela Piovano ATTORI: Laura Morante, Giulio Scarpati, Gabriele Dell'Aiera, Gigio Alberti, Eugenia Costantini, Stefano Fresi, Pietro De Silva , Giselda Volodi, Elena Cotta, Adriano Aprà SCENEGGIATURA: Emanuela Piovano, Francesca Romana Massaro, Gualtiero Rosella, Silvana Silvestri FOTOGRAFIA: Marc Van Put MONTAGGIO: Roberto Perpignani PRODUZIONE: Kitchenfilm DISTRIBUZIONE: Bolero Film PAESE: Italia DURATA: 94 Min .: TRAMA :. Dopo decenni d'incomprensioni e liti con la madre Arabella, dovuti a un modo di vedere e affrontare la vita che da bambino non poteva accettare, Sid è chiamato a tornare alle sue radici. Dalla Torino savoiarda sarà costretto a spostarsi nell'allegra e naïf comunità pugliese in cui si trova Arabella. Ma il vero viaggio all'interno della vita e dei ricordi della madre e degli amici che hanno colorato le giornate della sua infanzia, faranno capire a Sid che l'amore di una mamma può avere mille sfumature e che la stessa Arabella è stata una, dieci, cento donne differenti. Tutte generose, tutte valorose. È stata la regista, la femme fatale, l'amica, la fondatrice dell'arena cinematografica e dei suoi festival, l'anima del paesino nel quale vive da anni. Sid, però, ha conosciuto e capito la vera natura di quell'ammaliante e brillante figura troppo tardi. Eppure Arabella neppure in questo caso si comporterà in maniera banale. Anzi, sarà proprio lei a stuzzicare, rimbrottare e guidare suo figlio alla scoperta di que la figura tanto combattuta e poliedrica.

Swiss.Army.Man.2016.720p.BluRay.x264-FOXM

Language: | Size: 903.16 MB | Seed: 40 | Leech: 10

Description:

------------------------------------------------------------------------------------------------------------------------------------------- http://FOXM.TO ------------------------------------------------------------------------------------------------------------------------------------------- Get all FOXM newest releases first at FOXM website http://foxm.to/film?id=174 Also there you will find a list of upcoming uploads, account registration and an effective movie search. ------------------------------------------------------------------------------------------------------------------------------------------- http://www.imdb.com/title/tt4034354/ IMDB RATING: 7.1 #1 Video FORMAT.......................: MP4 CODEC........................: X264 GENRE........................:Adventure, Comedy, Drama FILE SIZE....................: 903 MB RESOLUTION...................: 1280*720 FRAME RATE...................: 23.976 fps LANGUAGE.....................: English SUBTITLES....................: NONE RUNTIME......................: 1h 37min #2 Audio Format :.....................: AAC Mode : ......................: 16 Channel(s)...................: 5.1 channels Bit rate.....................: 320 kbps Audio sample rate............: 48 kHz Summary: A hopeless man stranded on a deserted island befriends a dead body and together they go on a surreal journey to get home. Screenshots [img]http://foxm.to/images/1479815184image1.jpg[/img] [img]http://foxm.to/images/1479815184image2.jpg[/img] [img]http://foxm.to/images/1479815184image3.jpg[/img] ------------------------------------------------------------------------------------------------------------------------------------------- http://FOXM.TO -------------------------------------------------------------------------------------------------------------------------------------------

The Shallows - Paradise Beach dentro l incubo (2016).H264.Italian.English.Ac3.5.1 iCV-MIRCrew

Language: | Size: 1.31 GB | Seed: 40 | Leech: 283

Description:

The Shallows - Paradise Beach dentro l incubo (2016).H264.Italian.English.Ac3.5.1.sub.ita.eng.iCV-MIRCrew [img]http://i.imgur.com/GDNQx1Z.png[/img] My release is always in double track audio italian and Original audio for select it use VLC or dvd player home not use wmp Paradise Beach Dentro L'incubo - The Shallows (2016) [img]http://extraimage.net/images/2016/12/14/8501945c39d03d0b976cfa3fc5e516b8.png[/img] [URL=http://www.imdb.com/title/tt4052882/][IMG]http://www.userlogos.org/files/logos/Sucka/imdb_new.png[/IMG][/URL] [img]http://s19.postimage.org/bgh0za7kj/banner_scheda.gif[/img] GENERE: Drammatico , Thriller ANNO: 2016 REGIA: Jaume Collet-Serra FOTOGRAFIA: Flavio Martínez Labiano MONTAGGIO: Joel Negron MUSICHE: Marco Beltrami PRODUZIONE: Ombra Films, Sony Pictures Entertainment (SPE), Weimaraner Republic Pictures DISTRIBUZIONE: Warner Bros. PAESE: USA DURATA: 86 Min [img]http://s19.postimage.org/i9hdvjydv/banner_trama.gif[/img] Blake Lively, Óscar JaenadaSCENEGGIATURA: Anthony Jaswinski [img]http://s19.postimage.org/i9hdvjydv/banner_trama.gif[/img] Nancy sta facendo surf da sola di fronte a una spiaggia isolata quando viene attaccata da un grande squalo bianco che le impedisce di tornare a riva. Anche se solo 200 metri la separano dalla salvezza, dovrà mettere in gioco tutta la sua forza di volontà per sopravvivere. [img]http://s19.postimage.org/nwdqt10wj/banner_storyline.gif[/img] A mere 200 yards from shore, surfer Nancy is attacked by a great white shark, with her short journey to safety becoming the ultimate contest of wills. [img]http://i.imgur.com/GgEl7ea.png[/img] [url=https://extraimage.net/image/2NoX][img]http://extraimage.net/images/2016/12/14/dd7f08c1fe8ed3f5019a4a4eca0dc0a0.th.png[/img][/url] [url=https://extraimage.net/image/2NoP][img]http://extraimage.net/images/2016/12/14/bfe90552fcaf1eb6b54187293eee6b96.th.png[/img][/url] [url=https://extraimage.net/image/2Nog][img]http://extraimage.net/images/2016/12/14/22cfbeb4624753f58ad9d201fb631c4b.th.png[/img][/url] [url=https://extraimage.net/image/2No5][img]http://extraimage.net/images/2016/12/14/dc9de89b0c5099140b03f27dd661f309.th.png[/img][/url] [url=https://extraimage.net/image/2NoD][img]http://extraimage.net/images/2016/12/14/b09f05fdd8842bdc6019ce999b32631d.th.png[/img][/url] [img]http://i.imgur.com/cWb6Z.gif[/img] [img]http://s19.postimage.org/f07k2tzo3/banner_dati_file.gif[/img] [spoiler] General Unique ID : 198160835229227235838689456133452172084 (0x9514637DBB83C56C69E6624CABD98B34) Complete name : Paradise Beach Dentro L incubo (2016).H264.ita.eng.sub.ita.eng.iCV-MIRCrew.mkv Format : Matroska Format version : Version 2 File size : 1.31 GiB Duration : 1h 26mn Overall bit rate : 2 170 Kbps Movie name : VISIT www.icv-crew.org Encoded date : UTC 2016-12-10 13:26:57 Writing application : Lavf54.63.100 Writing library : Lavf54.63.100 COPYRIGHT : robbyrs Video ID : 1 Format : AVC Format/Info : Advanced Video Codec Format profile : [email protected] Format settings, CABAC : Yes Format settings, ReFrames : 2 frames Codec ID : V_MPEG4/ISO/AVC Duration : 1h 26mn Bit rate : 1 270 Kbps Width : 720 pixels Height : 304 pixels Display aspect ratio : 2.40:1 Frame rate mode : Variable Frame rate : 23.976 fps Color space : YUV Chroma subsampling : 4:2:0 Bit depth : 8 bits Scan type : Progressive Bits/(Pixel*Frame) : 0.242 Stream size : 759 MiB (57%) Writing library : x264 core 130 r2273 Encoding settings : cabac=1 / ref=2 / deblock=1:0:0 / analyse=0x1:0x131 / me=hex / subme=7 / psy=1 / psy_rd=1.00:0.00 / mixed_ref=0 / me_range=16 / chroma_me=1 / trellis=1 / 8x8dct=0 / cqm=0 / deadzone=21,11 / fast_pskip=1 / chroma_qp_offset=-2 / threads=12 / lookahead_threads=2 / sliced_threads=0 / nr=0 / decimate=1 / interlaced=0 / bluray_compat=0 / constrained_intra=0 / bframes=3 / b_pyramid=0 / b_adapt=1 / b_bias=0 / direct=3 / weightb=1 / open_gop=0 / weightp=2 / keyint=230 / keyint_min=23 / scenecut=40 / intra_refresh=0 / rc_lookahead=40 / rc=2pass / mbtree=1 / bitrate=1270 / ratetol=1.0 / qcomp=0.60 / qpmin=10 / qpmax=69 / qpstep=4 / cplxblur=20.0 / qblur=0.5 / vbv_maxrate=24000 / vbv_bufsize=24000 / nal_hrd=none / ip_ratio=1.40 / aq=1:1.00 Language : English Default : Yes Forced : No DURATION : 01:26:16.088000000 NUMBER_OF_FRAMES : 124102 NUMBER_OF_BYTES : 6246110378 _STATISTICS_WRITING_APP : mkvmerge v8.3.0 ('Over the Horizon') 64bit _STATISTICS_WRITING_DATE_UTC : 2016-12-07 20:03:01 _STATISTICS_TAGS : BPS DURATION NUMBER_OF_FRAMES NUMBER_OF_BYTES Audio #1 ID : 2 Format : AC-3 Format/Info : Audio Coding 3 Mode extension : CM (complete main) Codec ID : A_AC3 Duration : 1h 26mn Bit rate mode : Constant Bit rate : 448 Kbps Channel(s) : 6 channels Channel positions : Front: L C R, Side: L R, LFE Sampling rate : 48.0 KHz Bit depth : 16 bits Compression mode : Lossy Delay relative to video : 1mn 5s Stream size : 276 MiB (21%) Title : AC3 iTA Language : Italian Default : No Forced : No DURATION : 01:26:16.192000000 NUMBER_OF_FRAMES : 161756 NUMBER_OF_BYTES : 414095360 _STATISTICS_WRITING_APP : mkvmerge v8.3.0 ('Over the Horizon') 64bit _STATISTICS_WRITING_DATE_UTC : 2016-12-07 20:03:01 _STATISTICS_TAGS : BPS DURATION NUMBER_OF_FRAMES NUMBER_OF_BYTES Audio #2 ID : 3 Format : AC-3 Format/Info : Audio Coding 3 Mode extension : CM (complete main) Codec ID : A_AC3 Duration : 1h 26mn Bit rate mode : Constant Bit rate : 448 Kbps Channel(s) : 6 channels Channel positions : Front: L C R, Side: L R, LFE Sampling rate : 48.0 KHz Bit depth : 16 bits Compression mode : Lossy Delay relative to video : 1mn 5s Stream size : 276 MiB (21%) Title : AC3 ENG Language : English Default : No Forced : No DURATION : 01:26:16.192000000 NUMBER_OF_FRAMES : 161756 NUMBER_OF_BYTES : 414095360 _STATISTICS_WRITING_APP : mkvmerge v8.3.0 ('Over the Horizon') 64bit _STATISTICS_WRITING_DATE_UTC : 2016-12-07 20:03:01 _STATISTICS_TAGS : BPS DURATION NUMBER_OF_FRAMES NUMBER_OF_BYTES Text #1 ID : 4 Format : UTF-8 Codec ID : S_TEXT/UTF8 Codec ID/Info : UTF-8 Plain Text Title : FORCED iTA Language : Italian Default : Yes Forced : No DURATION : 01:16:38.928000000 NUMBER_OF_FRAMES : 31 NUMBER_OF_BYTES : 686 _STATISTICS_WRITING_APP : mkvmerge v8.3.0 ('Over the Horizon') 64bit _STATISTICS_WRITING_DATE_UTC : 2016-12-07 20:03:01 _STATISTICS_TAGS : BPS DURATION NUMBER_OF_FRAMES NUMBER_OF_BYTES Text #2 ID : 5 Format : UTF-8 Codec ID : S_TEXT/UTF8 Codec ID/Info : UTF-8 Plain Text Title : REGULAR iTA Language : Italian Default : No Forced : No DURATION : 01:18:20.196000000 NUMBER_OF_FRAMES : 455 NUMBER_OF_BYTES : 11346 _STATISTICS_WRITING_APP : mkvmerge v8.3.0 ('Over the Horizon') 64bit _STATISTICS_WRITING_DATE_UTC : 2016-12-07 20:03:01 _STATISTICS_TAGS : BPS DURATION NUMBER_OF_FRAMES NUMBER_OF_BYTES Text #3 ID : 6 Format : UTF-8 Codec ID : S_TEXT/UTF8 Codec ID/Info : UTF-8 Plain Text Title : REGULAR ENG Language : English Default : No Forced : No DURATION : 01:19:46.152000000 NUMBER_OF_FRAMES : 568 NUMBER_OF_BYTES : 12407 _STATISTICS_WRITING_APP : mkvmerge v8.3.0 ('Over the Horizon') 64bit _STATISTICS_WRITING_DATE_UTC : 2016-12-07 20:03:01 _STATISTICS_TAGS : BPS DURATION NUMBER_OF_FRAMES NUMBER_OF_BYTES Text #4 ID : 7 Format : UTF-8 Codec ID : S_TEXT/UTF8 Codec ID/Info : UTF-8 Plain Text Title : NON UDENTI ENG Language : English Default : No Forced : No DURATION : 01:25:34.557000000 NUMBER_OF_FRAMES : 915 NUMBER_OF_BYTES : 17805 _STATISTICS_WRITING_APP : mkvmerge v8.3.0 ('Over the Horizon') 64bit _STATISTICS_WRITING_DATE_UTC : 2016-12-07 20:03:01 _STATISTICS_TAGS : BPS DURATION NUMBER_OF_FRAMES NUMBER_OF_BYTES Menu 00:00:00.000 : :00:00:00.000 00:00:54.333 : :00:00:54.333 00:11:41.500 : :00:11:41.500 00:18:37.458 : :00:18:37.458 00:29:01.417 : :00:29:01.417 00:36:01.500 : :00:36:01.500 00:49:25.667 : :00:49:25.667 00:57:59.750 : :00:57:59.750 01:07:22.958 : :01:07:22.958 01:14:02.542 : :01:14:02.542 01:25:34.333 : :01:25:34.333 [/spoiler] [/color][/b][/center]

Planet Ocean (2012) BDRip ENG-ITA XviD AC3 Subs

Language: | Size: 2.44 GB | Seed: 39 | Leech: 7

Description:

SCHEDA DEL FILM Anno: 2012 Genere: Documentario Regia: Yann Arthus-Bertrand, Michael Pitiot COMMENTO Fotoreporter francese convertito all'ambientalismo, Yann Arthus-Bertrand negli anni si è distinto per l' impatto grafico dei suoi lavori e dei suoi lungometraggi, con installazioni in tutto il mondo che parlano di un pianeta in crescita costante e incontrollata – tutto disponibile in Rete. La sua ultima opera, Planet Ocean, è un documentario di un'ora e mezza realizzato in collaborazione con il regista Michael Pitiot e la partnership di Omega, e atteso proprio al Rio+20 dove è arrivato puntuale a una première gremita di ospiti. Il film tratta dei problemi che affliggono le acque del pianeta – dall'inquinamento alla pesca non sostenibile – tra riprese e soggetti che dimostrano una vitalità vibrante in ogni singola inquadratura. Il tema non è sconosciuto, ma la collaborazione con alcuni tra i migliori operatori subacquei e aerei della scena mondiale lo rende attuale e forte come non mai. Scorci ad alta quota e incursioni sottomarine dominano i 90 minuti della proiezione, con una composizione delle scene sempre sorprendente e una sequenza di informazioni e osservazioni raccolte da oceanografi e biologi, che la voce narrante incatena una con l'altra per tracciare il bilancio della storia del pianeta-oceano e ammonire sul futuro cupo che lo attende. In chiusura, Planet Ocean si rivolge idealmente a quei potenti nelle stanze dei bottoni di Rio+20, con richieste precise che mirano alla salvaguardia delle acque mondiali: la concertazione di politiche globali più efficaci per regolamentare la pesca e incentivare lo sviluppo di mercati locali, un trattato sulla protezione dell'Artico dalla speculazione petrolifera e navale e molto altro. Tutte questioni che la recente bozza di accordo non prende in esame con l’attenzione che ci si aspettava. Nemmeno la proposta di una covenzione per la protezione degli oceani ha avuto esito positivo. Tornando al documentario, gli applausi alla fine della prima sono stati lunghi e convinti: la pellicola verrà diffusa alle ONG in maniera gratuita, ma è già in sè uno strumento potente, con tutto l' appeal necessario per attrarre anche chi non si è mai interessato a queste tematiche: giusto quello che serve per combattere un'indifferenza che non ci possiamo più permettere. Risoluzione: 656 x 368 Parole chiave: documentario

Dr.House S07e07, [Mux - XviD - Ita Mp3]

Language: | Size: 350.38 MB | Seed: 39 | Leech: 56

Description:

La serie trae ispirazione dai gialli del celebre detective Sherlock Holmes: in ogni episodio ha luogo un giallo diverso che il protagonista, attraverso la proprie capacità mediche e deduttive, deve districare basandosi su vari indizi, spesso poco evidenti; infine egli riesce quasi sempre a risolvere il puzzle medico ed a salvare il paziente. I misteri medici sono invece stati ispirati da una rubrica del New York Times dedicata ai casi clinici particolarmente problematici. Dal punto di vista culturale, la serie televisiva – e più in particolare la figura del protagonista – hanno fornito motivi di riflessione filosofica, etica e religiosa relativa al campo della medicina e della deontologia; diversi saggi pubblicati hanno approfondito questo aspetto della serie.

American Dad S03E03-04, [DivX - Ita Mp3]

Language: | Size: 348.96 MB | Seed: 39 | Leech: 99

Description:

Stan prega per un amico e pensa che Dio ne manderà uno; Cosi arriva Brett, che si rivela essere un ateo. Stan cerca di convincere il suo amico che Dio esiste, rendendogli la vita estremamente dura. Nel frattempo, Roger convince Steve che è stato accettato a "Hogwarts". Quando Francine invita i suoi genitori adottivi a fermarsi per un soggiorno, Stan è furioso perchè si rifiutano di assimilare i suoi modi da "uomo di casa". Dopo che tenta invano di farli andare via, Stan è convinto che trovare i genitori biologici di Francine cambierà le cose. Nel frattempo Steve cerca di vivere "all'estremo", al fine di raggiungere la seconda base con una compagna di classe.

Come ti rovino le vacanze (2015) .avi iTA AC3 5.1 BDRip XviD

Language: | Size: 1.37 GB | Seed: 39 | Leech: 14

Description:

Titolo originale: Vacation Nazione: U.S.A. Anno: 2015 Genere: Avventura, Commedia Durata: 99' Regia: John Francis Daley, Jonathan M. Goldstein Sito ufficiale: www.vacationthemovie.com Cast: Ed Helms, Christina Applegate, Chris Hemsworth, Leslie Mann, Beverly D'angelo, Skyler Gisondo, Steele Stebbins, Chevy Chase Produzione: BenderSpink, David Dobkin Productions, New Line Cinema Distribuzione: Warner Bros. Pictures Italia Data di uscita: 12 Agosto 2015 (cinema) Trama: Dopo averci divertito in “Una Notte Da Leoni”, Ed Helms veste i panni di Rusty Griswold, un giovane padre di famiglia che decide di sorprendere sua moglie Debbie (Christina Applegate) e i loro due figli. Organizzerà un’indimenticabile vacanza on the road alla volta di un famoso parco divertimenti. Ma non tutto filerà liscio... Parole chiave: avventura commedia

The Hunger Games: Mockingjay - Part 2 (2015) 1080p BluRay x264 AC3 - ETRG

Language: | Size: 4.03 GB | Seed: 39 | Leech: 16

Description:

The Hunger Games: Mockingjay – Part 2 is a 2015 American dystopian science fiction war film directed by Francis Lawrence, with a screenplay by Peter Craig and Danny Strong. the film features an ensemble cast that includes Jennifer Lawrence, Josh Hutcherson, Liam Hemsworth, Woody Harrelson, Elizabeth Banks, Julianne Moore, Philip Seymour Hoffman (in his final film role), and Donald Sutherland. With the nation of Panem in a full scale war, Katniss confronts President Snow in the final showdown. Teamed with a group of her closest friends – including Gale, Finnick, and Peeta – Katniss goes off on a mission with the unit from District 13 as they risk their lives to stage an assassination attempt on President Snow who has become increasingly obsessed with destroying her. The mortal traps, enemies, and moral choices that await Katniss will challenge her more than any arena she faced in The Hunger Games.
 «  1 2 3 4 5 ... 265 266 267 268 269 270 271 272 273 ... 446 447 448 449 450  »
  Movie/Films     Animation/Cartoons     TV Shows/Series     Music     Games     Applications     Books     Other  

   How works MfT    Rules    Suggest idea    Request torrent    Privacy Policy    DMCA    Contacts    MfT Status    Friends sites    Is this site safe?   

mkv, HD-Rip , BD-Rip , Blu-Ray , HD Film , hd film , hd films , scarica film gratis , hd torrents , hd torrent , hdtorrents, hdrip , bdrip , Bluray ,

Blu-Ray player, scarica film , scarica torrent , torrent film , film ita, bluray, mux, 1080p, 720p, hdtorrents, torrent ita, torrents ita, HD film ita, HD ita, Blu-Ray ita