Support us
Login | Signup

Popular TAGs: 2016 2015 2014 2013 720p 1080p m1080p XviD x264 x265 3D DVDrip BDrip MKV 320kbps

Show only:                                            

Sort by: Date | Name | Seeders | Leechers | Comments

El Último Exorcismo 2 - ESP XViD DVDrip

Language: | Size: 1.1 GB | Seed: 33 | Leech: 1

Description:

Título original The Last Exorcism. Part II (The Last Exorcism 2) Año 2013 Duración 90 min. País [Estados Unidos] Director Ed Gass-Donnelly Guión Damien Chazelle, Ed Gass-Donnelly Música Michael Wandmacher Fotografía Brendan Steacy Reparto Ashley Bell, Spencer Treat Clark, Andrew Sensenig, Judd Lormand, Julia Garner, Muse Watson, E. Roger Mitchell, David Jensen, Raeden Greer, Joe Chrest Productora Arcade Pictures / Strike Entertainment / Studio Canal; Productor: Eli Roth Género Terror | Sobrenatural. Posesiones/Exorcismos. Secuela SINOPSIS A Nell Sweetzer (Ashley Bell) la hallan, aterrorizada y sola, en una zona rural de Luisiana. Instalada en Nueva Orleáns, la chica se percata de que no puede recordar casi nada de lo ocurrido en los últimos meses; solo que es la única superviviente de su familia. Mientras intenta a duras penas rehacer su vida, el maléfico poder que la poseyó le tiene reservado un plan tan aterrador que su primer exorcismo no será más que un pálido ensayo de lo que está por venir. Relaccionados

The Congress (2013) H264 - Ita Eng Aac - Sub Ita

Language: | Size: 2.12 GB | Seed: 33 | Leech: 16

Description:

Titolo originale: The Congress Nazione: U.S.A. Anno: 2013 Genere: Fantascienza, Animazione Durata: 122' Regia: Ari Folman Sito ufficiale: thecongress-movie.com/ Cast: Robin Wright, Harvey Keitel, Paul Giamatti, Kodi Smit-McPhee, Danny Huston, Sarah Sami Gayle, Michael Stahi-David, Michael Landes, Sarah Shani Cast (voci): Jon Hamm Produzione: Bridgit Folman Film Gang, Pandora Filmproduktion, Opus Film, Paul Thiltges Distributions, Entre Chien et Loup, Liverpool Distribuzione: Wider Films Data di uscita: 12 Giugno 2014 (cinema) Trama: Robin Wright, che interpreta se stessa, riceve da un grande Studio l'offerta di vendere la sua identità cinematografica: verrà scansionata e di lei verrà creato un campione così che lo Studio possa utilizzare la sua immagine a piacimento in qualsiasi tipo di film di Hollywood – anche i più commerciali da lei in precedenza spesso rifiutati. In cambio, Robin riceverà una cospicua somma di denaro, ma soprattutto, lo Studio promette di mantenere il suo alias digitale per sempre giovane – per l'eternità – in ogni film. Il contratto ha una validità di vent'anni. È a questo punto che Robin viene catapultata in un mondo animato; tutti i divi che come lei sono fatti scansionare, si riuniscono al Congresso di Futurologia dove viene presentata la formula chimica che dà la possibilità di assumere molteplici identità. Nome The.Congress (2013).mkv Data Sat, 28 Feb 2015 17:32:58 +0100 Dimensione 2,277,821,215 bytes (2172.29959 MiB) Magic Tipo file data Info generiche Durata 02:02:43 (7363.489 s) Contenitore matroska Totale tracce 4 Traccia n. 1 video (V_MPEG4/ISO/AVC) {und} Traccia n. 2 audio (A_AAC) [Surround] {ita} Traccia n. 3 audio (A_AAC) [Surround] {eng} Traccia n. 4 subtitle (S_VOBSUB) {ita} Muxing library Lavf55.12.0 Writing application HandBrake 0.10.0 2014112200 Dati rilevanti Risoluzione 720 x 552 Larghezza multipla di 16 Altezza multipla di 8 DRF medio 20.743615 Deviazione standard 5.647636 Media pesata dev. std. 5.573965 Traccia video Codec ID V_MPEG4/ISO/AVC Risoluzione 720 x 552 Display resolution 1024 x 552 (#undef#) Frame aspect ratio 30:23 = 1.304348 Pixel aspect ratio 64:45 = 1.422222 Display aspect ratio 128:69 = 1.855072 (~1.85:1) Framerate 25 fps Dimensione stream 1,564,002,397 bytes (1491.548917 MiB) Durata 02:02:40 (7360.48 s) Bitrate (bs) 1699.891743 kbps Qf 0.171084 Traccia audio nr. 1 Codec ID A_AAC Freq. campionamento 48000 Hz Canali 6 Dimensione stream 353,379,273 bytes (337.008737 MiB) Tipo di bitstream (bs) AAC LC (Low Complexity) Frames (bs) 345,158 Durata 02:02:43 (7363.370667 s) Chunk-aligned (bs) Sì Bitrate (bs) 383.932076 kbps VBR Freq. campionamento (bs) 48000 Hz Modo (bs) 6: front-center, front-left, front-right, back-left, back-right, LFE-channel Traccia audio nr. 2 Codec ID A_AAC Freq. campionamento 48000 Hz Canali 6 Dimensione stream 350,561,679 bytes (334.32167 MiB) Tipo di bitstream (bs) AAC LC (Low Complexity) Frames (bs) 345,156 Durata 02:02:43 (7363.328 s) Chunk-aligned (bs) Sì Bitrate (bs) 380.873082 kbps VBR Freq. campionamento (bs) 48000 Hz Modo (bs) 6: front-center, front-left, front-right, back-left, back-right, LFE-channel

Total War Attila-CPY [2015, Action (Shooters, MMO FPS, TPS), Strategy (RTS)] EN

Language: | Size: 29.65 GB | Seed: 33 | Leech: 57

Description:

Total War Attila-CPY Genre: Action (Shooters, MMO FPS, TPS), Strategy (RTS) Platform: Windows Multiplayer: No Year: 2015 Type of publication: Language of the game: EN Crack: Description : Against a darkening background of famine, disease and war, a new power is rising in the great steppes of the East. With a million horsemen at his back, the ultimate warrior king approaches, and his sights are set on Rome.. The next instalment in the multi award winning PC series that combines turn-based strategy with real-time tactics, Total War: ATTILA casts players back to 395 AD. A time of apocalyptic turmoil at the very dawn of the Dark Ages. How far will you go to survive? Will you sweep oppression from the world and carve out a barbarian or Eastern kingdom of your own? Or will you brace against the coming storm as the last remnants of the Roman Empire, in the ultimate survival-strategy challenge? The Scourge of God is coming. Your world will burn. Wield the ferocious power of fire in battle to set buildings ablaze and terrify defenders, or wipe entire cities and regions from the face of the campaign map with the new raze mechanic. Playing as the Western Roman Empire you will begin with vast territories under your control, but weakened by political in-fighting and threatened on all sides by enemies, your dominance will quickly become a struggle to survive. With new period-specific technologies, arms and armaments, religion, cultures and social upheaval, Total War: ATTILA delivers an authentic experience of this ominous chapter of our history. Improved core gameplay and UI through the latest optimised and modified Total War game mechanics, including politics, family tree, civic management and technological progression. Instructions: -Burn or mount the image -Install the game -Copy the crack to your game dir -Enjoy Note: The game is updated to the latest patch and includes 4 DLCs: - Celts Culture Pack - Longbeards Culture Pack - Viking Forefathers Culture Pack - Blood & Burning Languages: English, French, Italian, German, Spanish, Czech, Polish, Russian, Turkish System requirements: Size: 29.65 GB

I Am Wrath (2016) iTA AC3 2 CH BDRip XviD Sub

Language: | Size: 1.48 GB | Seed: 33 | Leech: 5

Description:

I Am Wrath USA 2016 Genere: Azione Durata 92' Regia di Chuck Russell Con John Travolta, Amanda Schull, Rebecca De Mornay, Christopher Meloni, Sam Trammell, David Hutchison, Patrick St. Esprit, Luis Da Silva Jr.... Trama Ingegnere disoccupato, Stanley Hill assiste all'omicidio della moglie Vivian in un parcheggio. Devastato dal senso di colpa, Stanley è ossessionato dall'immagine di Vivian che muore tra le sue braccia e, quando il detective Gibson e gli altri poliziotti corrotti si mostrano incapaci e disinteressati a garantirgli giustizia, si rivolge al vecchio amico Dennis, decidendo di prendere la situazione in mano. Ciò porta rapidamente alla luce il passato nascosto che i due amici condividono, rivelandosi molto più pericolosi di quanto si immaginasse. Risoluzione: 720 x 304

Ip Man 3 (2015) FullHD 1080p AC3 iTA DTS AC3 Chi Subs

Language: | Size: 9.36 GB | Seed: 33 | Leech: 82

Description:

Titolo originale: Ip Man 3 Nazione: Hong Kong Anno: 2015 Genere: Azione Durata: 105' Regia: Wilson Yip Cast: Donnie Yen, Mike Tyson, Lynn Hung, Jin Zhang Produzione: Pegasus Motion Pictures, Super Hero Films Data di uscita: 2015 (cinema) Trama Quando una banda di brutali gangster al servizio di un bieco imprenditore mette in atto i propri violenti piani di conquista della città, il maestro Ip è costretto a prendere una posizione e a combattere in nome del bene collettivo. Subs iTA: Forced/Regular Parole chiave: azione netflix

Vermillion Watch [, Adventure] EN

Language: | Size: 879.23 MB | Seed: 33 | Leech: 66

Description:

tle: Vermillion Watch Genre: Adventure Platform: Multiplayer: No Year: Type of publication: Language of the game: EN Crack: Not Required Description : What started as a regular meeting with your uncle and his friend, quickly takes a nightmarish turn when, out of nowhere appeared a large creature, humanoid species, attacks! You will have to dig pretty in their family history to uncover the secret agreement between the forces of good and evil. INSTALL Run Vermillion Watch_Setup.exe Install (Installer is in Russian lang but the game is in English) Play

PAC MAN CHAMPIONSHIP EDITION 2 [2016, Action (Shooters, MMO FPS, TPS)] EN

Language: | Size: 1.39 GB | Seed: 33 | Leech: 58

Description:

Tiitle: PAC MAN CHAMPIONSHIP EDITION 2 Genre: Action (Shooters, MMO FPS, TPS) Platform: Windows Multiplayer: No Year: 2016 Type of publication: Language of the game: EN Crack: Available Description : The much-awaited sequel to Pac-Man Championship Edition! Featuring eye-popping 3D graphics and funky visuals, the latest version of the classic game takes chomping and chasing through mazes to a whole new level! Make up to four ghost trains for maximum chompage! New modes include Score Attack and an Adventure Mode with fast fleeing fruit, big bad bosses, ridiculous remixed rules, and more! - Extract - Burn or mount the .iso - Run setup.exe and install - Copy crack from CODEX dir to installdir - Play System requirements: OS: Windows 7/8/10 (64-bit OS required) Processor: Intel Core i7 4790 3.6 GHz/AMD FX-9590 4.7 GHz or equivalent Memory: 8 GB RAM Graphics: NVIDIA GTX 780 3GB/AMD Radeon R9 290X 4GB or equivalent DirectX: Version 11 Storage: 3 GB available space

Mad Max Fury Road - Black and Chrome Edition (2015).H264.Italian.English.Ac3.5.1 iCV-MIRCrew

Language: | Size: 1.83 GB | Seed: 33 | Leech: 16

Description:

Mad Max Fury Road - Black and Chrome Edition (2015).H264.Italian.English.Ac3.5.1.sub.Ita.ita.eng.iCV-MIRCrew [center] [u]NO FOUND ONLY ORIGINAL RELEASE[/u] My release is always in double track audio italian and Original audio for select it use VLC or dvd player home not use wmp Mad Max Fury Road - Black and Chrome Edition (2015) [img]https://extraimage.net/images/2016/12/13/5b2ed118aff2e0d92e506fa082953dd0.png[/img] [URL=http://www.imdb.com/news/ni60329916/][IMG]http://www.userlogos.org/files/logos/Sucka/imdb_new.png[/IMG][/URL] [img]http://i.imgur.com/fGu1rKv.png[/img] Titolo originale Mad Max: Fury Road Lingua originale inglese Paese di produzione Australia, Stati Uniti Anno 2015 Durata 120 min Rapporto 2,35:1 Genere azione, avventura, fantascienza, thriller Regia George Miller Sceneggiatura George Miller, Brendan McCarthy, Nico Lathouris Produttore Doug Mitchell, George Miller, P.J. Voeten Produttore esecutivo Bruce Berman, Graham Burke, Iain Smith Casa di produzione Kennedy Miller Productions, Village Roadshow Pictures Distribuzione (Italia) Warner Bros. Fotografia John Seale Montaggio Jason Ballantine, Margaret Sixel Musiche Junkie XL Scenografia Colin Gibson Costumi Jenny Beavan Trucco Natasha du Toit, Lian van Wyk [img]http://i.imgur.com/W7kBqiE.png[/img] Tom Hardy: Max Rockatansky Charlize Theron: Imperatrice Furiosa Nicholas Hoult: Nux Hugh Keays-Byrne: Immortan Joe Rosie Huntington-Whiteley: Angharad la splendida Riley Keough: Capable Zoë Kravitz: Toast la sapiente Abbey Lee: Dag Courtney Eaton: Cheedo la fragile Josh Helman: Slit Jon Iles: Ace Nathan Jones: principe Rictus Erectus Megan Gale: Valchiria [img]http://i.imgur.com/bFK3ggF.png[/img] La versione di Mad Max: Fury Road tutti noi abbiamo visto e adorato non è quella che il regista George Miller aveva in mente. Per lui il film sarebbe stato perfetto in bianco e nero. Da tempo si parlave di una release in home video di questa versione, ora sappiamo che sarà disponibile per il mercato home video italiano [img]http://i.imgur.com/48xHWWH.png[/img] here have been rumors of a black-and-white version of director George Miller’s Mad Max: Fury Road since the film’s release in 2015. Springing from the overwhelming response to the film’s colorfully vivid aesthetic, fans were caught a bit off-guard when Miller began suggesting that he preferred to ditch the searing reds, oranges, icy blues, and teals of the theatrical version in favor of a classic black-and-white approach. Why would Miller and movie studio Warner Bros. want to take away one of the reasons that Fury Road stood out by literally making it monochrome? . [img]http://i.imgur.com/K8bfNTy.png[/img] [url=https://extraimage.net/image/2Nzc][img]https://extraimage.net/images/2016/12/13/c91c68a670286561850c1b3774e38ad8.th.png[/img][/url] [url=https://extraimage.net/image/2Nz7][img]https://extraimage.net/images/2016/12/13/0e8246a58208f9710bb45bb101cb006e.th.png[/img][/url] [url=https://extraimage.net/image/2Nz1][img]https://extraimage.net/images/2016/12/13/60b8ca23ea7e866d320f9d64e4a0a86f.th.png[/img][/url] [url=https://extraimage.net/image/2NzE][img]https://extraimage.net/images/2016/12/13/f7ed232fbeb878e9a9edf1c6037ebc54.th.png[/img][/url] [url=https://extraimage.net/image/2NzO][img]https://extraimage.net/images/2016/12/13/9174a1e1016290aaef5051a7edf9dda8.th.png[/img][/url] [img]http://i.imgur.com/aVrMohH.png[/img] [spoiler] General Unique ID : 118441623831353758448550984644285024923 (0x591B06E976927B879286BBEF550DCA9B) Complete name : Mad Max Fury Road (2015).H264.ita.eng.sub.NUita.ita.eng.mkv Format : Matroska Format version : Version 2 File size : 1.80 GiB Duration : 2h 0mn Overall bit rate : 2 142 Kbps Movie name : Visit www.icv-crew.org Encoded date : UTC 2016-01-29 16:34:06 Writing application : Lavf54.63.100 Writing library : Lavf54.63.100 Video ID : 1 Format : AVC Format/Info : Advanced Video Codec Format profile : [email protected] Format settings, CABAC : Yes Format settings, ReFrames : 2 frames Codec ID : V_MPEG4/ISO/AVC Duration : 2h 0mn Bit rate : 1 250 Kbps Width : 720 pixels Height : 300 pixels Display aspect ratio : 2.40:1 Frame rate mode : Variable Frame rate : 23.976 fps Color space : YUV Chroma subsampling : 4:2:0 Bit depth : 8 bits Scan type : Progressive Bits/(Pixel*Frame) : 0.241 Stream size : 1.01 GiB (56%) Writing library : x264 core 130 r2273 Encoding settings : cabac=1 / ref=2 / deblock=1:0:0 / analyse=0x1:0x131 / me=hex / subme=7 / psy=1 / psy_rd=1.00:0.00 / mixed_ref=0 / me_range=16 / chroma_me=1 / trellis=1 / 8x8dct=0 / cqm=0 / deadzone=21,11 / fast_pskip=1 / chroma_qp_offset=-2 / threads=12 / lookahead_threads=2 / sliced_threads=0 / nr=0 / decimate=1 / interlaced=0 / bluray_compat=0 / constrained_intra=0 / bframes=3 / b_pyramid=0 / b_adapt=1 / b_bias=0 / direct=3 / weightb=1 / open_gop=0 / weightp=2 / keyint=230 / keyint_min=23 / scenecut=40 / intra_refresh=0 / rc_lookahead=40 / rc=abr / mbtree=1 / bitrate=1250 / ratetol=1.0 / qcomp=0.60 / qpmin=10 / qpmax=69 / qpstep=4 / vbv_maxrate=24000 / vbv_bufsize=24000 / nal_hrd=none / ip_ratio=1.40 / aq=1:1.00 Default : Yes Forced : No DURATION : 02:00:23.383000000 NUMBER_OF_FRAMES : 173188 NUMBER_OF_BYTES : 6407277150 _STATISTICS_WRITING_APP : mkvmerge v8.2.0 ('World of Adventure') 64bit _STATISTICS_WRITING_DATE_UTC : 2016-01-29 16:34:06 _STATISTICS_TAGS : BPS DURATION NUMBER_OF_FRAMES NUMBER_OF_BYTES Audio #1 ID : 2 Format : AC-3 Format/Info : Audio Coding 3 Mode extension : CM (complete main) Codec ID : A_AC3 Duration : 2h 0mn Bit rate mode : Constant Bit rate : 448 Kbps Channel(s) : 6 channels Channel positions : Front: L C R, Side: L R, LFE Sampling rate : 48.0 KHz Bit depth : 16 bits Compression mode : Lossy Stream size : 386 MiB (21%) Language : Italian Default : Yes Forced : No DURATION : 02:00:21.344000000 NUMBER_OF_FRAMES : 225667 NUMBER_OF_BYTES : 404395264 _STATISTICS_WRITING_APP : mkvmerge v8.2.0 ('World of Adventure') 64bit _STATISTICS_WRITING_DATE_UTC : 2016-01-29 16:34:06 _STATISTICS_TAGS : BPS DURATION NUMBER_OF_FRAMES NUMBER_OF_BYTES Audio #2 ID : 3 Format : AC-3 Format/Info : Audio Coding 3 Mode extension : CM (complete main) Codec ID : A_AC3 Duration : 2h 0mn Bit rate mode : Constant Bit rate : 448 Kbps Channel(s) : 6 channels Channel positions : Front: L C R, Side: L R, LFE Sampling rate : 48.0 KHz Bit depth : 16 bits Compression mode : Lossy Delay relative to video : 1mn 5s Stream size : 386 MiB (21%) Language : English Default : No Forced : No DURATION : 02:00:23.392000000 NUMBER_OF_FRAMES : 225731 NUMBER_OF_BYTES : 577871360 _STATISTICS_WRITING_APP : mkvmerge v8.2.0 ('World of Adventure') 64bit _STATISTICS_WRITING_DATE_UTC : 2016-01-29 16:34:06 _STATISTICS_TAGS : BPS DURATION NUMBER_OF_FRAMES NUMBER_OF_BYTES Text #1 ID : 4 Format : ASS Codec ID : S_TEXT/ASS Codec ID/Info : Advanced Sub Station Alpha Compression mode : Lossless Title : Forced Language : Italian Default : Yes Forced : Yes DURATION : 01:56:32.986000000 NUMBER_OF_FRAMES : 11 NUMBER_OF_BYTES : 380 _STATISTICS_WRITING_APP : mkvmerge v8.2.0 ('World of Adventure') 64bit _STATISTICS_WRITING_DATE_UTC : 2016-01-29 16:34:06 _STATISTICS_TAGS : BPS DURATION NUMBER_OF_FRAMES NUMBER_OF_BYTES Text #2 ID : 5 Format : ASS Codec ID : S_TEXT/ASS Codec ID/Info : Advanced Sub Station Alpha Compression mode : Lossless Language : Italian Default : No Forced : No DURATION : 01:57:13.902000000 NUMBER_OF_FRAMES : 919 NUMBER_OF_BYTES : 21577 _STATISTICS_WRITING_APP : mkvmerge v8.2.0 ('World of Adventure') 64bit _STATISTICS_WRITING_DATE_UTC : 2016-01-29 16:34:06 _STATISTICS_TAGS : BPS DURATION NUMBER_OF_FRAMES NUMBER_OF_BYTES Text #3 ID : 6 Format : ASS Codec ID : S_TEXT/ASS Codec ID/Info : Advanced Sub Station Alpha Compression mode : Lossless Language : English Default : No Forced : No DURATION : 01:51:32.310000000 NUMBER_OF_FRAMES : 909 NUMBER_OF_BYTES : 20368 _STATISTICS_WRITING_APP : mkvmerge v8.2.0 ('World of Adventure') 64bit _STATISTICS_WRITING_DATE_UTC : 2016-01-29 16:34:06 _STATISTICS_TAGS : BPS DURATION NUMBER_OF_FRAMES NUMBER_OF_BYTES Text #4 ID : 7 Format : ASS Codec ID : S_TEXT/ASS Codec ID/Info : Advanced Sub Station Alpha Compression mode : Lossless Title : Non Udenti Language : Italian Default : No Forced : No DURATION : 02:00:00.694000000 NUMBER_OF_FRAMES : 1177 NUMBER_OF_BYTES : 26653 _STATISTICS_WRITING_APP : mkvmerge v8.2.0 ('World of Adventure') 64bit _STATISTICS_WRITING_DATE_UTC : 2016-01-29 16:34:06 _STATISTICS_TAGS : BPS DURATION NUMBER_OF_FRAMES NUMBER_OF_BYTES Text #5 ID : 8 Format : ASS Codec ID : S_TEXT/ASS Codec ID/Info : Advanced Sub Station Alpha Compression mode : Lossless Title : SDH Language : English Default : No Forced : No DURATION : 02:00:00.735000000 NUMBER_OF_FRAMES : 1167 NUMBER_OF_BYTES : 25232 _STATISTICS_WRITING_APP : mkvmerge v8.2.0 ('World of Adventure') 64bit _STATISTICS_WRITING_DATE_UTC : 2016-01-29 16:34:06 _STATISTICS_TAGS : BPS DURATION NUMBER_OF_FRAMES NUMBER_OF_BYTES Menu 00:00:00.000 : :Chapter 1 00:10:42.475 : :Chapter 2 00:19:06.436 : :Chapter 3 00:30:12.310 : :Chapter 4 00:42:55.614 : :Chapter 5 00:49:33.345 : :Chapter 6 00:59:55.174 : :Chapter 7 01:13:02.544 : :Chapter 8 01:22:08.924 : :Chapter 9 01:30:02.730 : :Chapter 10 01:40:39.867 : :Chapter 11 01:49:12.546 : :Chapter 12 01:53:06.279 : :Chapter 13 [/spoiler] [/color][/b][/center]

I.Medici.S01E03.2016.iTA.AAC.HDTV.x264-iCV-CreW

Language: | Size: 655.66 MB | Seed: 33 | Leech: 2

Description:

I Medici - Stagione 1 2016 iTA AAC HDTV x264 iCV-CreW Titolo originale : I Medici Paese : Regno Unito, Italia Anno : 2016 – in produzione Formato : serie TV Genere : drammatico, storico Stagione : 1 Episodi : 8 Durata : 100 min (episodio) Cast: Richard Madden: Cosimo de' Medici Dustin Hoffman: Giovanni di Bicci de' Medici Stuart Martin: Lorenzo de' Medici "il Vecchio" Annabel Scholey: Contessina de' Bardi Lex Shrapnel: Rinaldo degli Albizzi Sarah Felberbaum: Maddalena Alessandro Sperduti: Piero il Gottoso Valentina Bellè: Lucrezia Tornabuoni Guido Caprino: Marco Bello Tatjana Nardone: Emilia Ken Bones: Ugo Bencini Michael Schermi: Riccardo Brando Leon Rustici: Vieri Daniel Caltagirone: Andrea de' Pazzi Frances Barber: Piccarda Bueri Miriam Leone: Bianca .:: TRAMA ::. Firenze 1429. Giovanni de’ Medici, grazie all’accordo stretto con il Papato, ha trasformato la banca di famiglia in una potenza economica straordinaria. Ma Giovanni viene assassinato e i suoi figli, Cosimo e Lorenzo, si trovano ad affrontare molti nemici.

Nitro.Rush.2016.720p.BluRay.x264-FOXM

Language: | Size: 843.18 MB | Seed: 33 | Leech: 8

Description:

Storyline Years ago, Max made a mistake in his life. As he serves prison time, Max learns from the authorities that his son, Theo, now 17, has just been recruited by a criminal drug organization. Desperate to save his son from the bad guys, Max stages a spectacular prison break. Theo rejects Max and has fallen under the control of Daphne, an alluring femme fatale. Quickly understanding he'll be unable to persuade his son to walk away from it all, Max joins the team in order to watch over Theo. His car chasing skills and jumping and punching prowess will prove to be invaluable assets in the eventual capture of this gang by the police. Through the adventure, Theo and Max will be brought together closer than ever... General Size : 843 MB Running Time: 1h 36min Genre: Action | Crime | Drama Director: Alain Desrochers Language: English | French Release Date: 24 November 2016 (South Korea) http://www.imdb.com/title/tt4579914/ Video======= Video Format......: AAC Video Codec.......: x264 Frame Rate........: 23.000 fps Width.............: 1 280 pixels Height............:  534 Audio======= Format..........: AAC Bitrate.........: 224 Kbps Channels........: 6 channels screenshot [img]http://foxm.to/images/1481905995image2.jpg[/img] [img]http://foxm.to/images/1481905995image3.jpg[/img] [/center]

Dove eravamo rimasti (2015) iTA AC3 5.1 BDRip XviD

Language: | Size: 1.37 GB | Seed: 32 | Leech: 13

Description:

Titolo originale: Ricki and the Flash Nazione: U.S.A. Anno: 2015 Genere: Drammatico Durata: 100' Regia: Jonathan Demme Sito ufficiale: www.rickiandtheflashmovie.com Sito italiano: www.warnerbros.it/speciali/doveravamorimasti Cast: Meryl Streep, Sebastian Stan, Kevin Kline, Mamie Gummer, Ben Platt, Rick Springfield, Charlotte Rae, Audra McDonald, Carmen Carrera Produzione: Clinica Estetico, LStar Capital, TriStar Pictures Data di uscita: 10 Settembre 2015 (cinema) Trama: In un film originale con performance dal vivo, la Streep è Ricki Rendazzo, una chitarrista eroina che nell'inseguire il suo sogno di diventare una chitarrista di successo compie tanti sbagli umani nei confronti della sua famiglia. Richiamata a casa per un problema, Ricki ha l'occasione per riscattarsi e cercare di aggiustare tutto. Parole chiave: drammatico

Dove eravamo rimasti (2015) iTA AC3 DTS 5.1 Bluray 1080p x264 Sub Ita Eng

Language: | Size: 8.4 GB | Seed: 32 | Leech: 58

Description:

Titolo originale: Ricki and the Flash Nazione: U.S.A. Anno: 2015 Genere: Drammatico Durata: 100' Regia: Jonathan Demme Sito ufficiale: www.rickiandtheflashmovie.com Sito italiano: www.warnerbros.it/speciali/doveravamorimasti Cast: Meryl Streep, Sebastian Stan, Kevin Kline, Mamie Gummer, Ben Platt, Rick Springfield, Charlotte Rae, Audra McDonald, Carmen Carrera Produzione: Clinica Estetico, LStar Capital, TriStar Pictures Data di uscita: 10 Settembre 2015 (cinema) Trama: In un film originale con performance dal vivo, la Streep è Ricki Rendazzo, una chitarrista eroina che nell'inseguire il suo sogno di diventare una chitarrista di successo compie tanti sbagli umani nei confronti della sua famiglia. Richiamata a casa per un problema, Ricki ha l'occasione per riscattarsi e cercare di aggiustare tutto. Parole chiave: drammatico

Freetown (2015) 1080p BrRip x264 - YIFY

Language: | Size: 1.84 GB | Seed: 32 | Leech: 1

Description:

Monrovia, 1990: An aggressive civil war has escalated, threatening many lives, including a group of native Liberian missionaries and their leader. Now they must be willing to give up all that they have, to make a desperate cross-country trip, with little chance of survival, in order to protect one of their own. FREETOWN is the powerful true story of faith, survival, and freedom.

Manglehorn (2014) 1080p BrRip x264 - YIFY

Language: | Size: 1.44 GB | Seed: 32 | Leech: 5

Description:

Reclusive small town locksmith A.J. Manglehorn (Academy Award winner Al Pacino) has never quite recovered from losing the love of his life, Clara. Fixated on her memory, he feels closer to his beloved cat than the people around him and prefers to find comfort in his work and daily routine. Still, he forges on with his tenuous human connections, maintaining intermittent contact with his son (Chris Messina), taking misplaced pride in a former protégé gone astray (filmmaker Harmony Korine), and establishing a cautious friendship with a kindhearted woman from the local bank (Academy Award winner Holly Hunter). As this solitary man approaches the possibility of new love, he finds himself at a crossroads between staying mired in the past and embracing the present.

Locke - Film (2013) ITALIAN BDRip AC3 x264 720p

Language: | Size: 3.34 GB | Seed: 32 | Leech: 99

Description:

TITOLO ORIGINALE: Locke LINGUA ORIGINALE: Inglese PAESE: Gran Bretagna, USA ANNO: 2013 GENERE: Drammatico, Thriller DURATA: 01:24:49 REGIA: Steven Knight ATTORI: Tom Hardy, Ruth Wilson, Andrew Scott, Ben Daniels, Olivia Colman, Tom Holland, Bill Milner, Alice Lowe, Danny Webb, Lee Ross, Silas Carson DATA USCITA: 30 aprile 2014 PRODUZIONE: IM Global, Shoebox Films DISTRIBUZIONE: Good Films TRAMA: Ivan Locke (Tom Hardy) ha lavorato sodo per costruirsi la sua vita. Stanotte quella vita gli crollerà addosso. Alla vigilia della sfida più grande di tutta la sua carriera, Ivan riceve una telefonata che scatenerà una serie di eventi dagli effetti catastrofici per la sua famiglia, la sua carriera e la sua anima. DATI TECNICI VIDEO: 1280 x 534 (2.40:1), 23.976 fps, AVC ([email protected]), 4897 kbps AUDIO: 48 kHz, AC3 Dolby Digital, 3/2 (L,C,R,l,r) + LFE ch, ~640 kbps SOTTOTITOLI: Inglese VALUTAZIONE: RECENSIONI: Mymovies Parole chiave: dramma thriller

Encuentros Entrelazados - ESP XViD DVDrip

Language: | Size: 1.05 GB | Seed: 32 | Leech: 0

Description:

Título: Encuentros Entrelazados Título original: The Christmas Spirit Año 2013 Duración 85 min. Estados Unidos Director Jack Angelo Guión Jack Angelo, Nicollette Sheridan Reparto Sammi Hanratty, Nicollette Sheridan, Olympia Dukakis, Tristan Lake Leabu, Bart Johnson, Amanda Foreman, Leticia Martinez, Kevin Crowley, William Willet Género Romantica / Fantástica / Comedia Sinopsis Laurel Springs es un pueblo que recibe una suculenta oferta comercial para un nuevo proyecto que podría traer prosperidad económica a sus habitantes. Pero una periodista local está convencida de que hay gato encerrado. En medio del alboroto, una avería en un semáforo provoca un aparatoso accidente entre dos coches. Los conductores, gravemente heridos son Charlotte, la periodista y el forastero enviado para convencer a todos del nuevo proyecto. Ambos entran en estado de coma, pero es en esa dimensión donde conectan sus espíritus para emprender el camino de regreso a la vida. Relaccionados

Las Últimas Supervivientes - ESP XViD DVDrip

Language: | Size: 1.12 GB | Seed: 32 | Leech: 77

Description:

Descripción: Título: Las últimas supervivientes Título original: The Final Girls País: USA Estreno en USA: 09/10/2015 Estreno en España: Lanzamiento en DVD (alquiler): 06/11/2015 Estreno en VOD: 04/11/2015 Productora: Groundswell Productions, Studio Solutions Director: Todd Strauss-Schulson Guión: M.A. Fortin, Joshua John Miller Reparto: Taissa Farmiga, Malin Akerman, Alexander Ludwig, Thomas Middleditch, Nina Dobrev, Alia Shawkat, Adam DeVine, Chloe Bridges, Angela Trimbur, Tory N. Thompson, Lauren Gros, Dan B. Norris, Ashen Bonaventure, Eric Michael Carney, Elise Alexis Covell Calificación: No recomendada para menores de 12 años Género: Comedia. Terror | Comedia de terror. Años 80. Cine dentro del cine SINOPSIS: Gira en torno a un grupo de estudiantes de secundaria que se ven, misteriosamente, transportados al interior de una película de terror de los años 80 tipo Viernes 13 que protagonizó la madre de una de ellas. Relaccionados

El Hijo Bastardo De Dios - ESP XViD DVDrip

Language: | Size: 989.75 MB | Seed: 32 | Leech: 0

Description:

Descripción: Título: El hijo bastardo de Dios Título original: El hijo bastardo de Dios País: España Estreno en USA: Estreno en España: 30/04/2015 Productora: Martín Garrido P.C. Director: Martín Garrido Guión: Martín Garrido Reparto: Marc Alejandre, Karina Amengual, Gon Andequeno, Nacho Artiles, Beatriz Barón, Joan Ferragut, Patricia Galvan, Elisabet Garau, Martín Garrido Barón, Elena Hermida, Marga Horrach, Aida Llop, Sabrina Olmo, Lola Paniza Potrony, Roberto Prisco Calificación: No recomendada para menores de 18 años Género: Thriller SINOPSIS: Andrés Sarmiento es un funcionario de Alaró, un pequeño pueblo del centro de Mallorca. Su discapacidad lo hace inclinarse mucho al andar con su muleta, por lo que se siente marginado e ignorado por sus compañeros de trabajo. Las circunstancias de su vida lo han convertido en un ser solitario e insensible. Para él la vida no tiene sentido. Además de eso, vive en un pequeño piso con su madre paralítica, una mujer de setenta años que ha hecho de la vida de su hijo un infierno. No ha dejado nunca de humillarlo, despreciarlo y de maltratarlo, pero Andrés le responde con frialdad. La lava, la viste y le da la comida como si de una muñeca se tratara, cosa que a la anciana la saca de quicio. Con este panorama, Andrés decide buscar la felicidad y urde un siniestro plan.

Walesa: La Esperanza De Un Pueblo - ESP XViD DVDrip

Language: | Size: 1.46 GB | Seed: 32 | Leech: 0

Description:

Título: Walesa, la esperanza de un pueblo Título original: Walesa. Czlowiek z nadziei (Walesa: Man of Hope) País: Polonia Estreno en USA: Estreno en España: 01/01/2015 Lanzamiento en DVD (alquiler): 20/05/2015 Estreno en DVD (venta): 22/05/2015 Estreno en VOD: 23/04/2015 Productora: Akson Studio Director: Andrzej Wajda Guión: Janusz Glowacki Reparto: Robert Wieckiewicz, Agnieszka Grochowska, Iwona Bielska, Zbigniew Zamachowski, Maria Rosaria Omaggio, Ewa Kolasinska, Miroslaw Baka, Michal Czernecki, Remigiusz Jankowski, Wojciech Kalarus, Piotr Probosz, Marcin Hycnar, Maciej Marczewski, Maciej Konopinski, Cezary Kosinski Calificación: No recomendada para menores de 7 años Género: Drama | Biográfico SINOPSIS: Durante las represiones de las autoridades comunistas contra los trabajadores en Gdansk en 1970, Lech Walesa, un obrero del astillero, decidió no seguir las normas marcadas y empezó una revolución, que no sólo significaría el final de la dictadura en Polonia, sino que además haría tambalear la Unión Soviética. Relaccionados

Hipócrates - ESP XViD DVDrip

Language: | Size: 1.22 GB | Seed: 32 | Leech: 0

Description:

Descripción: Título: Hipócrates Título original: Hippocrate País: Francia Estreno en USA: Estreno en España: 08/05/2015 Lanzamiento en DVD (alquiler): 09/09/2015 Estreno en DVD (venta): 09/09/2015 Estreno en Francia: 03/09/2014 Productora: 31 Juin Films, France 2 Cinéma, France Télévisions Director: Thomas Lilti Guión: Pierre Chosson, Baya Kasmi, Julien Lilti, Thomas Lilti Reparto: Vincent Lacoste, Jacques Gamblin, Reda Kateb, Marianne Denicourt, Félix Moati, Carole Franck, Philippe Rebbot, Julie Brochen, Jeanne Cellard, Thierry Levaret, Rafik Ben Mebarek, Josée Laprun, Zohra Benali, Juliette Aoudia, Luc Leclerc du Sablon Calificación: No recomendada para menores de 12 años Género: Comedia. Drama | Medicina. Comedia dramática SINOPSIS: Benjamin (Vincent Lacoste) hace honor a su nombre: es el más joven entre los médicos de un hospital parisino. Su primera experiencia como interno le lleva al centro clínico dirigido por su padre, el doctor Barois (Jacques Gamblin). Allí coincide con Abdel (Reda Kateb), un facultativo argelino más experimentado que él, en trance de superar las pruebas que le permitan trabajar en Francia. Para Benjamin nada sale según lo esperado. La teoría dista mucho de la complicada práctica diaria. El día a día le lleva a dudar de sus capacidades, de sí mismo; sobre todo ante el ejemplo de Abdel, sumamente solvente, casi

El Mal Del Arriero - ESP XViD DVDrip

Language: | Size: 1.08 GB | Seed: 32 | Leech: 3

Description:

Título original: El mal del arriero Año: 2014 Duración: 124 min. País: España Director: José Camello Manzano Guión: Ana Baliñas (Historia: José Camello Manzano) Musica: Fotografía: Rafael Mellado Reparto: Esteban G. Ballesteros, Antonio Barbero, Francisco Blanco, Juan Carlos Castillejo, Raúl Delgado, Rosário Gonzaga, Isabel Martin, José Vicente Moirón, Gabriel Moreno, Fermín Núñez, Celia Prieto, Denis Rafter, Joserra Rodriguez, Pedro Rodríguez, Carlos Álvarez-Nóvoa Productora: Libre Producciones Género: Thriller SINOPSIS: En un mundo de hombres inseguros, inmaduros e impunes, jugar con los demás es el camino que conduce al entretenimiento? y al crimen. Relaccionados

Batman Vs. Robin - ESP XViD DVDrip

Language: | Size: 874.12 MB | Seed: 32 | Leech: 1

Description:

Título original: Batman vs. Robin Año: 2015 Duración: País: Estados Unidos Director: Jay Oliva Guión: J.M. DeMatteis (Personajes: Bob Kane, Grant Morrison, Scott Snyder) Musica: Frederik Wiedmann Reparto: Animation Productora: DC Entertainment / Warner Bros. Animation / Warner Bros. Home Entertainment Group Género: Animación. Acción | Superhéroes. Cómic. DC Comics SINOPSIS: Tras unos siniestros acontecimientos, Batman descubre la sociedad secreta de los Búhos, que controla Gotham desde las sombras desde hace más de 200 años. Relaccionados Nombre FechaTamaño

Khumba - ESP XViD DVDrip

Language: | Size: 1.05 GB | Seed: 32 | Leech: 0

Description:

Descripción: Título: Khumba Título original: Khumba País: Sudáfrica Estreno en USA: 06/12/2013 Estreno en España: 14/08/2014 Estreno en Sudáfrica: 25/10/2013 Productora: Triggerfish Animation Director: Anthony Silverston Guión: Raffaella Delle Donne, Anthony Silverston Reparto: (Voces de) Jake T. Austin, Steve Buscemi, Loretta Devine, Laurence Fishburne, Richard E. Grant, Anika Noni Rose, AnnaSophia Robb, Catherine Tate, Liam Neeson, Charles Adler, Dee Bradley Baker, Jeff Bennett, Mason Charles, Jennifer Cody, Kathryn Cressida Calificación: Apta para todos los públicos SINOPSIS Khumba es una cebra con solo la mitad de su cuerpo a rayas a la que todos culpan por la falta de lluvias. Debido a la gran presión de la manada Khumba decide embarcarse en una audaz misión para conseguir todas las rayas que le faltan. En su búsqueda del legendario pozo de agua del que todas las cebras obtuvieron sus preciadas líneas, la cebra conoce a una serie de personajes muy extravagantes: un ñu sobreprotector, Mamá V y Bradley, un obsesionado avestruz. Pero antes de que pueda reunirse de nuevo con su manada, Khumba tendrá que enfrentarse cara a cara con el malvado Phango, un leopardo sádico que controla todos los pozos de agua de la zona y aterroriza a todos los animales en el Gran Karoo. A lo largo del viaje y de las nuevas experiencias, Khumba comienza a aprender que la diversidad es esencial para la supervivencia y que la

2 Francos, 40 Pesetas - ESP XViD DVDrip

Language: | Size: 1.07 GB | Seed: 32 | Leech: 0

Description:

Título: 2 francos, 40 pesetas Título original: 2 francos, 40 pesetas! País: España, Suiza Estreno en USA: Estreno en España: 28/03/2014 Lanzamiento en DVD (alquiler): 05/11/2014 Estreno en DVD (venta): 05/11/2014 Productora: GONA Director: Carlos Iglesias Guión: Carlos Iglesias Reparto: Anahí Beholi, Isabel Blanco, Nieve de Medina, Ángela del Salto, Enrique Escudero, Adrián Expósito, Lolita Flores, Andrea Christina Furrer, Iñaki Guevara, Javier Gutiérrez, Roberto Hijón, Carlos Iglesias, Alexandra Nicod Rickenbacher, Marta Puig, Esther Regina Calificación: No recomendada para menores de 7 años Género: Comedia | Secuela. Inmigración. Años 70 SINOPSIS: 1974: Han pasado seis años desde que la familia de Martín volvió de Suiza, suficiente para rehacer su vida en Madrid pero no para olvidar ese país idílico en el que consiguieron despegar. Su hijo Pablo tiene 18 años, pertenece a una generación que representa el cambio, la apertura y la destrucción de las barreras ideológicas que marcaron la vida de sus padres. Será él quien arrastrará a toda la familia de vuelta a Suiza, encontrando en su camino otras formas de vida y descubriendo lo mucho que le queda por saber. Una comedia coral que añade un trasfondo social que incide sobre temas que hoy están más de actualidad que nunca. ¿Dónde queda la identidad de los emigrantes? ¿Qué salida tienen los jóvenes en España? Una aventura para averiguar el valor de las raíces y la constante necesidad de aspirar a algo más fuera de nuestro entorno.

Closed Circuit (2013) BDRip XviD - Ita Ac3 5.1

Language: | Size: 1.37 GB | Seed: 32 | Leech: 2

Description:

Closed Circuit Regno Unito, USA 2013 Genere: Thriller durata 98' Regia di John Crowley Con Eric Bana, Rebecca Hall, Jim Broadbent, Ciarán Hinds, Kenneth Cranham, Anne-Marie Duff, Riz Ahmed, Denis Moschitto, Julia Stiles... Trama Una mattina, in un affollato mercato di Londra, esplode una bomba. Nella spietata caccia all'uomo che ne consegue sopravvive solo uno dei membri della cellula terroristica sospettata dell'attentato: si tratta di Farroukh Erdogan, che viene arrestato e imprigionato. Iniziano così i preparativi di quello che promette di essere il processo del secolo ma c'è un intoppo: il governo decide di classificare come segrete le prove contro Erdogan e né l'imputato né i suoi avvocati possono vederle. Ciò provoca nel procuratore generale la necessità di nominare un avvocato speciale, Claudia Simmons-Howe, che con l'approvazione del governo è l'unico membro della difesa che può vedere e discutere le prove durante un processo a porte chiuse... Parole chiave: thriller

Regressiоn (2015) iTA AC3 6 CH BRRip XviD

Language: | Size: 1.45 GB | Seed: 32 | Leech: 3

Description:

Titolo originale: Regression Nazione: Spagna, U.S.A. Anno: 2015 Genere: Thriller Durata: 106' Regia: Alejandro Amenábar Cast: Emma Watson, Ethan Hawke, Devon Bostick, David Thewlis, Aaron Ashmore, Dale Dickey, Adam Butcher, Aaron Abrams, Kristian Bruun Produzione: Mod Producciones, First Generation Films, Himenóptero, Telefonica Studios Data di uscita: 03 Dicembre 2015 (cinema) Trama: Minnesota, 1990. Il Detective Bruce Kenner (Ethan Hawke) sta indagando sul caso di una giovane di nome Angela (Emma Watson), che accusa il padre, John Gray (David Dencik), di un crimine terribile. Quando John, inaspettatamente e senza averne memoria, ammette la sua colpa, il famoso psicologo Dottor Raines (David Thewlis) viene chiamato per aiutarlo a rivivere i suoi ricordi, ma ciò che verrà scoperto smaschererà un orribile mistero. Parole chiave: thriller

Rogue - Il Solitario (2007) 1080p - H264 - Ita Ac3 Eng Dts Sub Eng Rus

Language: | Size: 9.82 GB | Seed: 32 | Leech: 64

Description:

Titolo originale: War Nazione: U.S.A. Anno: 2007 Genere: Azione Durata: 103' Regia: Philip G. Atwell Sito ufficiale: www.warthefilm.com Cast: Jet Li, Jason Statham, John Lone, Devon Aoki, Luis Guzmàn, Saul Rubinek, Ryo Ishibashi, Sung Kang, Mathew St. Patrick, Nadine Velazquez, Andrea Roth Produzione: Lionsgate Films, Fierce Entertainment, Mosaic Media Group Data di uscita: 18 Luglio 2008 (cinema) Trama: Quando il suo collega viene brutalmente assassinato dall'ignobile killer Rogue (Jet Li), l'agente dell'FBI Jack Crawford (Jason Statham) giura di trovare l'inafferrabile assassino e di vendicare personalmente la morte del suo amico. Ma Rogue è introvabile, almeno fino a quando non ricompare tre anni dopo, per infiammare una sanguinaria guerra per il territorio tra Chang (John Lone), il capo della mafia cinese, e Shiro (Ryo Ishibashi), il boss giapponese della Yakuza. Desideroso di catturare Rogue una volta per tutte, Crawford si getta a capofitto nel conflitto assieme al suo team di specialisti del crimine. Ma la sete di vendetta di Crawford mette in serio pericolo il suo giudizio professionale e in un'escalation di violenza, Crawford finalmente si trova faccia a faccia con il suo nemico, solo allora capirà che nulla riguardo a Rogue o al suo piano è ciò che sembra. Parole chiave: azione

Skyshines Bedlam-CODEX [2015, Action (Shooters, MMO FPS, TPS)] EN

Language: | Size: 2.17 GB | Seed: 32 | Leech: 47

Description:

Skyshines Bedlam-CODEX Genre: Action (Shooters, MMO FPS, TPS) Platform: Windows Multiplayer: No Year: 2015 Type of publication: Language of the game: EN Crack: Available Description : "I havent seen a better looking game this year." - Rock, Paper Shotgun BEDLAM is a strategic rogue-like turn-based RPG. You are the Mechanic, the last known member of a once-thriving guild of brilliant operators of the rolling fortresses called Dozers. You are in charge of commanding your crew in battles, managing your resources, improving your Dozer, interacting with various characters, and protecting your passengers while navigating through the post-apocalyptic wasteland For more info go to: http://store.steampowered.com/app/367600/ Extract Burn or mount the .iso Run setup.exe and install Copy crack from CODEX dir to installdir Play System requirements: Size: 2.17 GB

Everest (2015) [BDrip 1080p - H264 - Ita Eng Ac3 5.1 - Sub Ita NUEng]

Language: | Size: 7.04 GB | Seed: 32 | Leech: 12

Description:

ATA USCITA : 24 settembre 2015 GENERE : Avventura , Drammatico , Thriller ANNO : 2015 REGIA : Baltasar Kormákur ATTORI : Jake Gyllenhaal, Josh Brolin, John Hawkes, Jason Clarke, Robin Wright, Michael Kelly, Sam Worthington, Keira Knightley, Emily Watson SCENEGGIATURA : Mark Medoff, Simon Beaufoy FOTOGRAFIA : Salvatore Totino PRODUZIONE : Working Title Films, Cross Creek Pictures, Universal Pictures, Walden Media DISTRIBUZIONE : Universal Pictures PAESE : USA, Gran Bretagna DURATA : 150 Min FORMATO : 2D, 3D e IMAX 3D Trama Ispirato da una serie di incredibili eventi accaduti durante una pericolosa spedizione volta a raggiungere la vetta della montagna più alta del mondo, EVEREST documenta le avversità del viaggio di due diverse spedizioni sfidate oltre i loro limiti da una delle più feroci tempeste di neve mai affrontate dall'uomo. Il loro coraggio sarà messo a dura prova dal più crudele dei quattro elementi, gli scalatori dovranno fronteggiare ostacoli al limite dell'impossibile come l'ossessione di una vita intera che si trasforma in una lotta mozzafiato per la sopravvivenza. Parole chiave: avventura drammatico thriller

Microsoft.Windows.10.Enterprise.v1607.64bit.Ottobre.2016.Attivo.ITA-iCV-CreW

Language: | Size: 3.85 GB | Seed: 32 | Leech: 1

Description:

[color=red][b]Microsoft Windows 10 Enterprise v1607 64bit - Ottobre 2016 Attivo (ITA)[/b][/color] Sei già un esperto Windows 10 è semplice e divertente. È molto simile a Windows 7, incluso il menu Start, così saprai già come orientarti al meglio. La tua assistente digitale Non dovrai più preoccuparti di avere scaricato le funzionalità o gli aggiornamenti della sicurezza più recenti. Windows distribuisce in modo automatico gli aggiornamenti direttamente nel tuo dispositivo, non appena sono disponibili. Il Web a modo tuo Windows 10 include un browser tutto nuovo progettato per regarlarti un'esperienza senza precedenti, più veloce, intelligente e migliore per tutte le tue attività online. Potrai anche scrivere o digitare direttamente sulle pagine Web dal tuo PC. Più attività contemporaneamente Potrai dedicare più tempo alle tue attività risparmiando quello necessario per sistemare le cose. Windows 10 ti permette di occuparti di quattro attività sul desktop contemporaneamente. Oppure puoi usare l'elenco delle attività per vedere tutte le tue app, i documenti e i file in una singola schermata. Si adatta a te Le tue app e i contenuti vengono visualizzati perfettamente in tutte le modalità e su tutti i dispositivi, anche quando passi da uno all'altro. Le opzioni sullo schermo, come i menu e le barre degli strumenti, si adattano al dispositivo in uso in modo da rendere la navigazione facile e coerente. È la miglior combinazione tra familiarità e flessibilità. [url=https://postimg.org/image/86t4ydn63/][img]https://s17.postimg.org/86t4ydn63/Screen_Hunter_3833_Oct_18_23_20.jpg[/img][/url] [b]Requisiti:[/b] - 1 GHz - RAM: 1 GB (32 bit) o 2 GB (64 bit) - Spazio: 16 GB (32 bit) o 20 GB (64 bit) - Grafica: Microsoft DirectX 9 con driver WDDM [url=https://postimg.org/image/vvn733zpn/][img]https://s17.postimg.org/vvn733zpn/Screen_Hunter_3834_Oct_18_23_25.jpg[/img][/url]

The Rolling Stones - Sucking In The Seventies (1981)[Flac][TNT]

Language: | Size: 271.07 MB | Seed: 32 | Leech: 3

Description:

Artist...............:The Rolling Stones The Album................: Sucking In The Seventies Genre................: Rock Source...............: CD Year.................: 1981 Ripper...............: Exact Audio Copy (Secure mode) & Acer CD-R/RW 4X4X32 Codec................: Free Lossless Audio Codec (FLAC) Version..............: reference libFLAC 1.2.1 20070917 Quality..............: Lossless, (avg. compression: 63 %) Channels.............: Stereo / 44100 HZ / 16 Bit Tags.................: VorbisComment Information..........: TntVillage Ripped by............: leonenero on 16/06/2014 Posted by............: leonenero on 19/06/2014 News Server..........: news.astraweb.com News Group(s)........: alt.binaries.sounds.flac.full_TntVillage Included.............: NFO, M3U, LOG, CUE Covers...............: Front Back CD --------------------------------------------------------------------- Tracklisting --------------------------------------------------------------------- 1. Shattered - 3:46 2. Everything Is Turning To Gold - 4:06 3. Hot Stuff - 3:30 4. Time Waits For No One - 4:25 5. Fool To Cry - 4:07 6. Mannish Boy - 4:38 7. When the Whip Comes Down - 4:35 8. If I Was a Dancer (Dance Pt. 2) - 5:50 9. Crazy Mama - 4:06 10. Beast of Burden - 3:27 Playing Time.........: 42.37 Total Size...........: 270,89 MB Sucking in the Seventies is the fourth official compilation album by The Rolling Stones , released in 1981. As the successor to 1975's Made in the Shade , it covers material from It's Only Rock 'n Roll (1974), Black and Blue (1976), Some Girls (1978) and Emotional Rescue (1980) recording sessions.

Daddy s Home (2015).H264.Italian.English.Ac3.5.1.sub.ita.eng.iCV-MIRCrew

Language: | Size: 1.46 GB | Seed: 32 | Leech: 15

Description:

[img]http://i.imgur.com/GDNQx1Z.png[/img] My release is always in double track audio italian and Original audio for select it use VLC or dvd player home not use wmp Daddy's Home (2015) [img]http://extraimage.net/images/2016/12/24/6b710ce98d4fefbda8978f72693d9760.png[/img] [URL=http://www.imdb.com/title/tt1528854/][IMG]http://www.userlogos.org/files/logos/Sucka/imdb_new.png[/IMG][/URL] [img]http://s19.postimage.org/bgh0za7kj/banner_scheda.gif[/img] DATA USCITA: 14 gennaio 2016 GENERE: Commedia ANNO: 2015 REGIA: Sean Anders, John Morris SCENEGGIATURA: Brian Burns, Sean Anders, John Morris FOTOGRAFIA: Julio Macat MONTAGGIO: Eric Kissack MUSICHE: Michael Andrews PRODUZIONE: Gary Sanchez Productions, Good Universe, Paramount Pictures DISTRIBUZIONE: Universal Pictures PAESE: USA DURATA: 96 Min [img]http://s19.postimage.org/i9hdvjydv/banner_trama.gif[/img] Mark Wahlberg, Will Ferrell, Linda Cardellini, Thomas Haden Church, Paul Scheer, Hannibal Buress [img]http://s19.postimage.org/i9hdvjydv/banner_trama.gif[/img] Un tranquillo radio executive (Will Ferrell) si sforza di essere un buon patrigno per i due figli di sua moglie (Linda Cardellini), ma sorgono delle complicazioni quando il loro vero padre (Mark Wahlberg) ritorna.............. [img]http://s19.postimage.org/nwdqt10wj/banner_storyline.gif[/img] Brad Whitaker is a radio host trying to get his stepchildren to love him and call him Dad. But his plans turn upside down when their biological father, Dusty Mayron, returns......... [img]http://i.imgur.com/GgEl7ea.png[/img] [url=https://extraimage.net/image/2skQ][img]http://extraimage.net/images/2016/12/24/d5b19dcaed9a0162594862dae7bbaa85.th.png[/img][/url] [url=https://extraimage.net/image/2skR][img]http://extraimage.net/images/2016/12/24/7cbc9c52b4ff47a8038a0f152fc33aff.th.png[/img][/url] [url=https://extraimage.net/image/2skm][img]http://extraimage.net/images/2016/12/24/1b9c24e149674cc03af350f2fc8101ec.th.png[/img][/url] [img]http://i.imgur.com/cWb6Z.gif[/img] [img]http://s19.postimage.org/f07k2tzo3/banner_dati_file.gif[/img] [spoiler] General Unique ID : 333909052624668790709515045021178782344 (0xFB348B583D62AEFF9E63DD500065E288) Complete name : Daddy's Home (2015).H264.ita.eng.sub.ita.eng.iCV-MIRCrew.mkv Format : Matroska Format version : Version 2 File size : 1.46 GiB Duration : 1h 36mn Overall bit rate : 2 171 Kbps Movie name : VISIT www.icv-crew.org Encoded date : UTC 2016-12-22 23:10:06 Writing application : Lavf54.63.100 Writing library : Lavf54.63.100 COPYRIGHT : robbyrs Video ID : 1 Format : AVC Format/Info : Advanced Video Codec Format profile : [email protected] Format settings, CABAC : Yes Format settings, ReFrames : 2 frames Codec ID : V_MPEG4/ISO/AVC Duration : 1h 36mn Bit rate : 1 270 Kbps Width : 720 pixels Height : 404 pixels Display aspect ratio : 16:9 Frame rate mode : Variable Frame rate : 23.976 fps Color space : YUV Chroma subsampling : 4:2:0 Bit depth : 8 bits Scan type : Progressive Bits/(Pixel*Frame) : 0.182 Stream size : 846 MiB (57%) Writing library : x264 core 130 r2273 Encoding settings : cabac=1 / ref=2 / deblock=1:0:0 / analyse=0x1:0x131 / me=hex / subme=7 / psy=1 / psy_rd=1.00:0.00 / mixed_ref=0 / me_range=16 / chroma_me=1 / trellis=1 / 8x8dct=0 / cqm=0 / deadzone=21,11 / fast_pskip=1 / chroma_qp_offset=-2 / threads=12 / lookahead_threads=2 / sliced_threads=0 / nr=0 / decimate=1 / interlaced=0 / bluray_compat=0 / constrained_intra=0 / bframes=3 / b_pyramid=0 / b_adapt=1 / b_bias=0 / direct=3 / weightb=1 / open_gop=0 / weightp=2 / keyint=230 / keyint_min=23 / scenecut=40 / intra_refresh=0 / rc_lookahead=40 / rc=2pass / mbtree=1 / bitrate=1270 / ratetol=1.0 / qcomp=0.60 / qpmin=10 / qpmax=69 / qpstep=4 / cplxblur=20.0 / qblur=0.5 / vbv_maxrate=24000 / vbv_bufsize=24000 / nal_hrd=none / ip_ratio=1.40 / aq=1:1.00 Default : Yes Forced : No DURATION : 01:36:01.923000000 NUMBER_OF_FRAMES : 138148 NUMBER_OF_BYTES : 7549862720 _STATISTICS_WRITING_APP : mkvmerge v9.1.0 ('Little Earthquakes') 32bit _STATISTICS_WRITING_DATE_UTC : 2016-05-11 13:12:06 _STATISTICS_TAGS : BPS DURATION NUMBER_OF_FRAMES NUMBER_OF_BYTES Audio #1 ID : 2 Format : AC-3 Format/Info : Audio Coding 3 Mode extension : CM (complete main) Codec ID : A_AC3 Duration : 1h 36mn Bit rate mode : Constant Bit rate : 448 Kbps Channel(s) : 6 channels Channel positions : Front: L C R, Side: L R, LFE Sampling rate : 48.0 KHz Bit depth : 16 bits Compression mode : Lossy Delay relative to video : 1mn 5s Stream size : 308 MiB (21%) Language : Italian Default : Yes Forced : No DURATION : 01:36:01.952000000 NUMBER_OF_FRAMES : 180061 NUMBER_OF_BYTES : 460956160 _STATISTICS_WRITING_APP : mkvmerge v9.1.0 ('Little Earthquakes') 32bit _STATISTICS_WRITING_DATE_UTC : 2016-05-11 13:12:06 _STATISTICS_TAGS : BPS DURATION NUMBER_OF_FRAMES NUMBER_OF_BYTES Audio #2 ID : 3 Format : AC-3 Format/Info : Audio Coding 3 Mode extension : CM (complete main) Codec ID : A_AC3 Duration : 1h 36mn Bit rate mode : Constant Bit rate : 448 Kbps Channel(s) : 6 channels Channel positions : Front: L C R, Side: L R, LFE Sampling rate : 48.0 KHz Bit depth : 16 bits Compression mode : Lossy Delay relative to video : 1mn 5s Stream size : 308 MiB (21%) Language : English Default : No Forced : No DURATION : 01:36:01.931000000 NUMBER_OF_FRAMES : 540181 NUMBER_OF_BYTES : 1086844344 _STATISTICS_WRITING_APP : mkvmerge v9.1.0 ('Little Earthquakes') 32bit _STATISTICS_WRITING_DATE_UTC : 2016-05-11 13:12:06 _STATISTICS_TAGS : BPS DURATION NUMBER_OF_FRAMES NUMBER_OF_BYTES Text #1 ID : 4 Format : UTF-8 Codec ID : S_TEXT/UTF8 Codec ID/Info : UTF-8 Plain Text Title : Sub. Ita. Forced Language : Italian Default : Yes Forced : Yes DURATION : 01:17:05.328000000 NUMBER_OF_FRAMES : 13 NUMBER_OF_BYTES : 367 _STATISTICS_WRITING_APP : mkvmerge v9.1.0 ('Little Earthquakes') 32bit _STATISTICS_WRITING_DATE_UTC : 2016-05-11 13:12:06 _STATISTICS_TAGS : BPS DURATION NUMBER_OF_FRAMES NUMBER_OF_BYTES Text #2 ID : 5 Format : UTF-8 Codec ID : S_TEXT/UTF8 Codec ID/Info : UTF-8 Plain Text Title : Sub. Ita. Language : Italian Default : No Forced : No DURATION : 01:30:27.421000000 NUMBER_OF_FRAMES : 2033 NUMBER_OF_BYTES : 62864 _STATISTICS_WRITING_APP : mkvmerge v9.1.0 ('Little Earthquakes') 32bit _STATISTICS_WRITING_DATE_UTC : 2016-05-11 13:12:06 _STATISTICS_TAGS : BPS DURATION NUMBER_OF_FRAMES NUMBER_OF_BYTES Text #3 ID : 6 Format : UTF-8 Codec ID : S_TEXT/UTF8 Codec ID/Info : UTF-8 Plain Text Title : Sub. Eng. Forced Language : English Default : No Forced : No DURATION : 00:00:03.294000000 NUMBER_OF_FRAMES : 1 NUMBER_OF_BYTES : 56 _STATISTICS_WRITING_APP : mkvmerge v9.1.0 ('Little Earthquakes') 32bit _STATISTICS_WRITING_DATE_UTC : 2016-05-11 13:12:06 _STATISTICS_TAGS : BPS DURATION NUMBER_OF_FRAMES NUMBER_OF_BYTES Text #4 ID : 7 Format : UTF-8 Codec ID : S_TEXT/UTF8 Codec ID/Info : UTF-8 Plain Text Title : Sub. Eng. Language : English Default : No Forced : No DURATION : 01:30:27.421000000 NUMBER_OF_FRAMES : 2015 NUMBER_OF_BYTES : 72433 _STATISTICS_WRITING_APP : mkvmerge v9.1.0 ('Little Earthquakes') 32bit _STATISTICS_WRITING_DATE_UTC : 2016-05-11 13:12:06 _STATISTICS_TAGS : BPS DURATION NUMBER_OF_FRAMES NUMBER_OF_BYTES Menu 00:00:00.000 : :00:00:00.000 00:09:23.730 : :00:09:23.730 00:19:57.071 : :00:19:57.071 00:28:45.015 : :00:28:45.015 00:35:35.050 : :00:35:35.050 00:44:05.768 : :00:44:05.768 00:55:54.726 : :00:55:54.726 01:03:21.047 : :01:03:21.047 01:12:08.199 : :01:12:08.199 01:21:58.205 : :01:21:58.205 01:31:15.261 : :01:31:15.261 [/spoiler] [/color][/b][/center]

In.a.Valley.of.Violence.2016.LIMITED.720p.BluRay.x264-FOXM

Language: | Size: 805.71 MB | Seed: 32 | Leech: 68

Description:

http://FOXM.TO ------------------------------------------------------------------------------------------------------------------------------------------- Get all FOXM newest releases first at FOXM website http://foxm.to/film?id=243 Also there you will find a list of upcoming uploads, account registration and an effective movie search. ------------------------------------------------------------------------------------------------------------------------------------------- http://www.imdb.com/title/tt3608930/ IMDB RATING: 6.1 #1 Video FORMAT.......................: MP4 CODEC........................: X264 GENRE........................: Western FILE SIZE....................: 805 MB RESOLUTION...................: 1280*720 FRAME RATE...................: 23.976 fps LANGUAGE.....................: English SUBTITLES....................: NONE RUNTIME......................: 1h 44min #2 Audio Format :.....................: AAC Mode : ......................: 16 Channel(s)...................: 5.1 channels Bit rate.....................: 320 kbps Audio sample rate............: 48 kHz Summary: A mysterious stranger and a random act of violence drag a town of misfits and nitwits into the bloody crosshairs of revenge. Screenshots [img]http://foxm.to/images/1482033413image1.jpg[/img] [img]http://foxm.to/images/1482033413image2.jpg[/img] [img]http://foxm.to/images/1482033413image3.jpg[/img] ------------------------------------------------------------------------------------------------------------------------------------------- http://FOXM.TO -------------------------------------------------------------------------------------------------------------------------------------------

Boys Don t Cry (1999).H264.Italian.English.Ac3.5.1.sub.ita.eng.iCV-MIRCrew

Language: | Size: 1.53 GB | Seed: 32 | Leech: 14

Description:

Boys Don t Cry (1999).H264.Italian.English.Ac3.5.1.sub.ita.eng.iCV-MIRCrew [center] [color=red][b][img]http://s23.postimg.org/b9yhws27f/0sc_Del1.png[/img] [u]NO FOUND ONLY ORIGINAL RELEASE[/u] [img]http://i.imgur.com/GDNQx1Z.png[/img] My release is always in double track audio italian and Original audio for select it use VLC or dvd player home not use wmp Boys Don't Cry (1999) [img]http://extraimage.net/images/2017/01/15/564b39ce86482c7e103bc1dcd42b6df4.png[/img] [URL=http://www.imdb.com/title/tt0171804/][IMG]http://www.userlogos.org/files/logos/Sucka/imdb_new.png[/IMG][/URL] [img]http://i.imgur.com/fGu1rKv.png[/img] Titolo originale Boys Don't Cry Paese di produzione Stati Uniti d'America Anno 1999 Durata 114 min Rapporto 1,85:1 Genere biografico, drammatico Regia Kimberly Peirce Soggetto Tracy Granger Sceneggiatura Kimberly Peirce, Andy Bienen Produttore Christine Vachon, Eva Kolodner [img]http://i.imgur.com/W7kBqiE.png[/img] Hilary Swank: Brandon Teena Chloë Sevigny: Lana Tisdel Peter Sarsgaard: John Lotter Brendan Sexton III: Tom Nissen Alicia Goranson: Candace Lambert Alison Folland: Kate Jeannetta Arnette: madre di Lana Rob Campbell: Brian Matt McGrath: Lonny [img]http://i.imgur.com/bFK3ggF.png[/img] Alla fine del 1993, Brandon Teena si trasferisce da Lincoln a Falls City, Nebraska, depressa cittadina di provincia ben nota per la sua chiusura mentale e vari episodi di cronaca nera. Brandon è generoso, solare e affascinante, ma nasconde a tutti il segreto di essere una femmina, Teena Brandon, fatto che si rivelerà in modo inequivocabile allorché verrà denudata di forza. Teena si complica pericolosamente la vita mentendo a tutti e di continuo, talora senza necessità. [img]http://i.imgur.com/48xHWWH.png[/img] Female-born Teena Brandon adopts his male identity of Brandon Teena and attempts to find himself and love in Nebraska. [img]http://i.imgur.com/K8bfNTy.png[/img] [img]http://extraimage.net/images/2017/01/15/d88217acb1a881a065a08f4d3a8ae1f1.png[/img] [img]http://extraimage.net/images/2017/01/15/759d500b383f3fea95fbfc01a3866f09.png[/img] [img]http://extraimage.net/images/2017/01/15/348da733cb4abfc315ffe920a08f1d5c.png[/img] [img]http://i.imgur.com/aVrMohH.png[/img] [spoiler] General Unique ID : 150073160553684936336066350226698167736 (0x70E70A148A45F9BCADB64A8CFD5C65B8) Complete name : Boys Don't Cry (1999).H264.ita.eng.sub.ita.eng.iCV-MIRCrew.mkv Format : Matroska Format version : Version 2 File size : 1.53 GiB Duration : 1h 58mn Overall bit rate : 1 848 Kbps Encoded date : UTC 2017-01-11T18:03:36Z Writing application : HandBrake 0.10.5 2016021100 Writing library : Lavf55.12.0 Video ID : 1 Format : AVC Format/Info : Advanced Video Codec Format profile : [email protected] Format settings, CABAC : Yes Format settings, ReFrames : 4 frames Codec ID : V_MPEG4/ISO/AVC Duration : 1h 58mn Bit rate : 1 270 Kbps Width : 688 pixels Height : 372 pixels Display aspect ratio : 16:9 Original display aspect ratio : 1.850 Frame rate mode : Variable Frame rate : 23.976 fps Color space : YUV Chroma subsampling : 4:2:0 Bit depth : 8 bits Scan type : Progressive Bits/(Pixel*Frame) : 0.207 Stream size : 1.02 GiB (67%) Writing library : x264 core 142 r2479 dd79a61 Encoding settings : cabac=1 / ref=1 / deblock=1:0:0 / analyse=0x1:0x111 / me=hex / subme=2 / psy=1 / psy_rd=1.00:0.00 / mixed_ref=0 / me_range=16 / chroma_me=1 / trellis=0 / 8x8dct=0 / cqm=0 / deadzone=21,11 / fast_pskip=1 / chroma_qp_offset=0 / threads=12 / lookahead_threads=2 / sliced_threads=0 / nr=0 / decimate=1 / interlaced=0 / bluray_compat=0 / constrained_intra=0 / bframes=3 / b_pyramid=2 / b_adapt=1 / b_bias=0 / direct=1 / weightb=1 / open_gop=0 / weightp=1 / keyint=240 / keyint_min=24 / scenecut=40 / intra_refresh=0 / rc_lookahead=10 / rc=abr / mbtree=1 / bitrate=1270 / ratetol=1.0 / qcomp=0.60 / qpmin=0 / qpmax=69 / qpstep=4 / vbv_maxrate=20000 / vbv_bufsize=25000 / nal_hrd=none / filler=0 / ip_ratio=1.40 / aq=1:1.00 Default : Yes Forced : No Color primaries : BT.709-5, BT.1361, IEC 61966-2-4, SMPTE RP177 Transfer characteristics : BT.709-5, BT.1361 Matrix coefficients : BT.709-5, BT.1361, IEC 61966-2-4 709, SMPTE RP177 Audio #1 ID : 2 Format : AC-3 Format/Info : Audio Coding 3 Mode extension : CM (complete main) Codec ID : A_AC3 Duration : 1h 58mn Bit rate mode : Constant Bit rate : 384 Kbps Channel(s) : 6 channels Channel positions : Front: L C R, Side: L R, LFE Sampling rate : 48.0 KHz Bit depth : 16 bits Compression mode : Lossy Delay relative to video : 1mn 5s Stream size : 326 MiB (21%) Title : Surround Language : Italian Default : Yes Forced : No Audio #2 ID : 3 Format : AC-3 Format/Info : Audio Coding 3 Mode extension : CM (complete main) Codec ID : A_AC3 Duration : 1h 58mn Bit rate mode : Constant Bit rate : 192 Kbps Channel(s) : 2 channels Channel positions : Front: L R Sampling rate : 48.0 KHz Bit depth : 16 bits Compression mode : Lossy Delay relative to video : 1mn 5s Stream size : 163 MiB (10%) Title : Stereo Language : English Default : No Forced : No Text #1 ID : 4 Format : ASS Codec ID : S_TEXT/ASS Codec ID/Info : Advanced Sub Station Alpha Compression mode : Lossless Language : Italian Default : No Forced : No Text #2 ID : 5 Format : ASS Codec ID : S_TEXT/ASS Codec ID/Info : Advanced Sub Station Alpha Compression mode : Lossless Language : Italian Default : No Forced : No Text #3 ID : 6 Format : ASS Codec ID : S_TEXT/ASS Codec ID/Info : Advanced Sub Station Alpha Compression mode : Lossless Language : English Default : No Forced : No Menu 00:00:00.000 : :00:00:00.000 00:05:25.241 : :00:05:25.158 00:11:20.930 : :00:11:20.763 00:14:44.508 : :00:14:44.425 00:18:11.548 : :00:18:11.465 00:22:19.379 : :00:22:19.255 00:29:05.493 : :00:29:05.410 00:32:27.904 : :00:32:27.821 00:37:29.121 : :00:37:29.038 00:42:29.755 : :00:42:29.630 00:47:02.194 : :00:47:02.111 00:51:19.743 : :00:51:19.660 00:54:28.598 : :00:54:28.515 01:00:32.879 : :01:00:32.796 01:06:00.915 : :01:06:00.832 01:07:50.358 : :01:07:50.275 01:12:42.691 : :01:12:42.608 01:17:01.158 : :01:17:01.075 01:21:01.440 : :01:21:01.273 01:25:02.180 : :01:25:02.097 01:38:26.066 : :01:38:25.983 01:46:40.727 : :01:46:40.644 01:50:32.751 : :01:50:32.668 01:53:38.520 : :01:53:38.437 [/spoiler] [/color][/b][/center]

The First Light (2015) iTA AC3 DVDRip XviD

Language: | Size: 1.37 GB | Seed: 31 | Leech: 27

Description:

Titolo originale: La prima luce Nazione: Italia Anno: 2015 Genere: Drammatico Durata: 108' Regia: Vincenzo Marra Cast: Riccardo Scamarcio, Daniela Ramirez, Gianni Pezzolla, Luis Gnecco, Alejandro Goic, Paulina Urrutia, Maria Eugenia Barrenechea Produzione: Paco Cinematografica, Rai Cinema Data di uscita: Venezia 2015 - Giornate degli autori 24 Settembre 2015 (cinema) Trama: Marco, giovane e cinico avvocato rampante, vive a Bari con la sua compagna Martina e il figlio Mateo di otto anni. Martina, latino americana, si è trasferita in Italia dopo aver conosciuto Marco. La loro storia è ormai alla fine. Lei vuole tornare a vivere nel suo paese con Mateo ma questa scelta escluderebbe Marco e lui non glielo consente, troppo profondo è l'amore e il legame con suo figlio. Dopo un periodo lacerante, Martina scappa insieme a Mateo e si reca nel suo paese facendo perdere ogni traccia. Il tempo per Marco inizia a scorrere più lento, non ha nessuna notizia di suo figlio e dopo un periodo di angoscia e sbandamento decide di andare a cercarlo. Una volta arrivato in Sud America si ritrova in una metropoli di 6 milioni di persone, indifferente e indecifrabile. Dopo lunghe e inconcludenti ricerche Martina e Mateo sembrano davvero essere svaniti nel nulla, ma... Parole chiave: drammatico
 «  1 2 3 4 5 ... 271 272 273 274 275 276 277 278 279 ... 452 453 454 455 456  »
  Movie/Films     Animation/Cartoons     TV Shows/Series     Music     Games     Applications     Books     Other  

   How works MfT    Rules    Suggest idea    Request torrent    Privacy Policy    DMCA    Contacts    MfT Status    Friends sites    Is this site safe?   

mkv, HD-Rip , BD-Rip , Blu-Ray , HD Film , hd film , hd films , scarica film gratis , hd torrents , hd torrent , hdtorrents, hdrip , bdrip , Bluray ,

Blu-Ray player, scarica film , scarica torrent , torrent film , film ita, bluray, mux, 1080p, 720p, hdtorrents, torrent ita, torrents ita, HD film ita, HD ita, Blu-Ray ita