Search Top Tags














The Salvation (2014) BDRip XviD - Ita Ac3 5.1 Sub Ita

Language: | Size: 1.37 GB | Seed: 78 | Leech: 73

Description:

The Salvation (2014) BDRip XviD - Ita Ac3 5.1 Sub Ita

Kung Fu Panda 3 (2016) BluRay m1080p iTA AC3 384 Kbps x264

Language: | Size: 2.14 GB | Seed: 78 | Leech: 23

Description:

Titolo originale: Kung Fu Panda 3 Nazione: U.S.A., Cina Anno: 2016 Genere: Animazione Durata: 95' Regia: Jennifer Yuh Nelson, Alessandro Carloni Sito ufficiale: www.foxmovies.com/movies/kung-fu-panda-3 Sito italiano: www.dreamworks.com/kungfupanda/it Cast (voci originali): Jack Black, Bryan Cranston, Mads Mikkelsen, Rebel Wilson, Angelina Jolie, Dustin Hoffman, Seth Rogen, Jackie Chan, Lucy Liu, J.K. Simmons, David Cross, James Hong, Krasen Belev Cast (voci italiane): Fabio Volo, Paolo Marchese, Roberto Draghetti, Francesco Vairano, Francesca Fiorentini, Angelo Maggi Produzione: DreamWorks Animation, Oriental DreamWorks Data di uscita: 12 Marzo 2016 (anteprima) 17 Marzo 2016 (cinema) Trama: Il padre di Po, scomparso da tempo, riappare improvvisamente, e il duo finalmente riunito si reca in un "paradiso segreto dei panda" dove incontrerà decine di esilaranti nuovi personaggi. Quando però il super-cattivo Kai comincia a espandersi in tutta la Cina sconfiggendo tutti i maestri di kung fu, Po dovrà fare l'impossibile e addestrarsi, in un villaggio pieno di amanti del divertimento, insieme ai fratelli maldestri, per riuscire a diventare la banda più imbattibile di Kung Fu Panda! Parole chiave: itunes

Any DVD Converter Professional 6.0.4 Multilingual Incl Serial Keys + Portable

Language: | Size: 142.69 MB | Seed: 78 | Leech: 55

Description:

Any DVD Converter Professional 6.0.4 Multilingual + Portable Any DVD Converter Professional is an all-in-one DVD ripper and video converter. With this program, you can rip DVD and capture video files from DV. Any DVD Converter customizes the output profile with formats adapted for iPod, iPhone, PSP, Zune, Apple TV and mobile phone. Besides DVD, Any DVD Converter also supports DV video and many types of video as source video, expanding its functionality to the realm of video converter. Any DVD Converter converts DVD to videos ready for use on portable devices like iPod, Zune, PSP, iPhone, xBox 360, Archos, Sony PS3, PDA, Creative Zen, and mobile phones such as Nokia N-series and Blackberry. Any DVD Converter Pro can helps you rip DVD movie to all popular video formats and convert video files between all popular video formats with fast converting speed and excellent video quality. Any DVD Converter is a DVD Ripper, i.e., rip DVD to all popular video formats such as AVI, MPEG, WMV, DivX, RM, MOV, 3GP, etc. It is also a video converter which converts almost all video formats including DivX, XviD, MOV, rm, rmvb, MPEG, VOB, DVD, WMV, AVI to MPEG or MPEG-4 movie formats for iPod, iPhone, Zune, PSP or other portable video device, MP4 player or smart phone. Any DVD Converter Pro. makes batch file conversion simple. Create a batch list of any different formats and convert them all to a single selected format. The converted files will be saved to a pre-selected directory folder and the original files will remain untouched. Any DVD Converter Pro. is a YouTube Video Converter which can download video from YouTube.com and convert YouTube videos to other formats. With the "downloading + converting" one-step solution, Any DVD Converter Pro. easily downloads and converts YouTube videos to play on your iPod, iPhone, PSP, Zune, 3GP mobile phone, Apple TV, etc. You could use Any DVD Converter to download FLV videos from YouTube.com or Google Video to your computer. You are also able to download and convert FLV files on YouTube or Google Video to other videos formats, such as AVI, MPEG, MP4, WMV, 3GP, H.264/MPEG-4 AVC, H.264/PSP AVC, MOV, RM, ASF, FLV, SWF, etc. Any DVD Converter is also the best iPhone converter software to convert all video files such as MOV, MP4, RM, RMVB, DivX, ASF, VOB, 3GP, WMV, MPEG, AVI to iPhone movies. Any DVD Converter helps you watch music video, movies on your iPhone and computer easily with great quality. As iPhone music converter software, Any DVD Converter can convert iPhone music MP3, WAV, M4A from popular music files, such as WMA, MP2, OGG, RA, AC3, APE, CDA. It can also extract audio from movies or music video; convert to iPhone music

La notte del giudizio - Election Year(2016) [BDRip 1080p - H264 - Ita Eng Dts Ac3 - Sub Ita Eng]

Language: | Size: 10.56 GB | Seed: 78 | Leech: 22

Description:

.: SCHEDA :. DATA USCITA: 28 luglio 2016 GENERE: Azione , Horror , Thriller ANNO: 2016 REGIA: James DeMonaco ATTORI: Frank Grillo, Elizabeth Mitchell, Mykelti Williamson, Joseph Julian Soria, Betty Gabriel, Terry Serpico, Edwin Hodge, Kyle Secor, Liza Colón-Zayas, Ethan Phillips, Adam Cantor, Christopher James Baker, Jared Kemp SCENEGGIATURA: James DeMonaco FOTOGRAFIA: Jacques Jouffret MONTAGGIO: Todd E. Miller MUSICHE: Nathan Whitehead PRODUZIONE: Blumhouse Productions, Platinum Dunes, Universal Pictures DISTRIBUZIONE: Universal Pictures PAESE: USA, Francia DURATA: 105 Min .: TRAMA :. La Notte del Giudizio 3 Election Year è il nuovo terrificante capitolo sulle 12 ore di anarchia totale che vengono proclamate ogni anno dai Nuovi Fondatori d'America. Sono passati due anni dagli avvenimenti narrati nel precedente capitolo. Leo Barnes è ora impegnato a guidare la sicurezza della senatrice Charlie Roan. La sua missione è diventata la protezione di questa donna durante la controversa e contestata corsa per la presidenza. Come Leo, la senatrice Roan ha subito delle tremende perdite nella propria vita: oggi è l'unico membro della propria famiglia ad essere sopravvissuta a una Notte del Giudizio di tanti anni fa ed ha dedicato la propria vita e campagna presidenziale per abolire un rituale che colpisce i poveri e gli innocenti. Proprio questa posizione l'ha resa sempre più popolare con il grande pubblico ma l'ha anche trasformata in un obiettivo sensibile per i suoi avversari. Nell'area di Washington D.C. sono pochi i politici a preoccuparsi del destino dei cittadini, a meno che non ci sia l'opportunità di scattare una foto elettorale.

Molly Moon e l incredibile libro dell ipnotismo (2015 Ita)[BRRip-XviD-Ac3 5.1]

Language: | Size: 1.37 GB | Seed: 78 | Leech: 12

Description:

.: SCHEDA :. Uscita 7 dicembre 2016 Regia: Dominic Monaghan, Christopher N. Rowley Sceneggiatura: Tom Butterworth, Chris Hurford Musica: Peter Raeburn Scritto da: Georgia Byng Attori: Raffey Cassidy, Lesley Manville, Emily Watson, Celia Imrie, Anne-Marie Duff, Omid Djalili, Dominic Monaghan, Joan Collins Paese: Regno Unito Anno: 2015 Genere: Fantasy Durata: 98 min .: TRAMA :. L'orfana Molly Moon vive una difficile esistenza nel freddo e disastrato istituto gestito da Miss Anderstone, una donna di immane crudeltà. Un giorno, trovando un libro, Molly si convince di poter imparare l'antica arte dell'ipnosi e di poter migliorare la sua esistenza grazie a questa, ritrovando anche l'amico Rocky andato in adozione. I primi tentativi sul carlino Petula danno segni positivi e Molly si rende conto di poter far cose che non aveva nemmeno mai sognato. Scoprirà però che, nonostante l'ipnosi le faccia ottenere ciò che vuole, non sempre è facile tenere sotto controllo la situazione e che ci si può ritrovare in posti dove non si desidera essere.

The Dressmaker - Il diavolo è tornato (2015).H264.Italian.English.Ac3.5.1.sub.ita.iCV-MIRCrew

Language: | Size: 1.63 GB | Seed: 78 | Leech: 54

Description:

The Dressmaker - Il diavolo è tornato (2015).H264.Italian.English.Ac3.5.1.sub.ita.iCV-MIRCrew [center] [color=red][b][img]http://s23.postimg.org/b9yhws27f/0sc_Del1.png[/img] [u]NO FOUND ONLY ORIGINAL RELEASE[/u] [img]http://i.imgur.com/GDNQx1Z.png[/img] My release is always in double track audio italian and Original audio for select it use VLC or dvd player home not use wmp The Dressmaker - Il diavolo è tornato (2015) [img]http://extraimage.net/images/2017/01/12/2f43600b2e1c6bee52e9e0e9c13976d7.png[/img] [URL=http://www.imdb.com/title/tt2910904/][IMG]http://www.userlogos.org/files/logos/Sucka/imdb_new.png[/IMG][/URL] [img]http://i.imgur.com/fGu1rKv.png[/img] DATA USCITA: 28 aprile 2016 GENERE: Drammatico, Thriller ANNO: 2015 REGIA: Jocelyn Moorhouse SCENEGGIATURA: Jocelyn Moorhouse FOTOGRAFIA: Donald M. McAlpine MONTAGGIO: Jill Bilcock MUSICHE: David Hirschfelder PRODUZIONE: Apollo Media, Film Art Media, Screen Australia DISTRIBUZIONE: Eagle Pictures PAESE: Australia DURATA: 118 Min [img]http://i.imgur.com/W7kBqiE.png[/img] Kate Winslet, Liam Hemsworth, Judy Davis, Hugo Weaving, Sarah Snook, Caroline Goodall, Kerry Fox, Rebecca Gibney, Gyton Grantley [img]http://i.imgur.com/bFK3ggF.png[/img] The Dressmaker è ambientato nel 1951. Tilly Dunnage, affascinante e talentuosa stilista, dopo aver lavorato per anni per i più grandi atelier parigini di haute couture, decide di far ritorno a Dungatar, un piccolo paesino nel sud est dell'Australia..................... [img]http://i.imgur.com/48xHWWH.png[/img] A glamorous woman returns to her small town in rural Australia. With her sewing machine and haute couture style, she transforms the women and exacts sweet revenge on those who did her wrong [img]http://i.imgur.com/K8bfNTy.png[/img] [url=https://extraimage.net/image/2ykZ][img]http://extraimage.net/images/2017/01/12/398fcc2269e6dab09287676c67deca34.th.png[/img][/url] [url=https://extraimage.net/image/2ykJ][img]http://extraimage.net/images/2017/01/12/34b47e906c16767aeff01e5fac313244.th.png[/img][/url] [url=https://extraimage.net/image/2yk4][img]http://extraimage.net/images/2017/01/12/a41d8aaa0b57b45a1c6b9c70c6161e6a.th.png[/img][/url] [img]http://i.imgur.com/aVrMohH.png[/img] [spoiler] General Unique ID : 245172446017854786858711547991139910319 (0xB8727EDB36DD3BB88BF2D4AB4EF182AF) Complete name : The Dressmaker (2015).H264.ita.eng.sub.ita.iCV-MIRCrew.mkv Format : Matroska Format version : Version 2 File size : 1.63 GiB Duration : 1h 53mn Overall bit rate : 2 045 Kbps Movie name : www.icv-crew.org Encoded date : UTC 2017-01-06 21:11:40 Writing application : DVDFab 9.1.5.7 Writing library : libebml v0.7.8 + libmatroska v0.8.1 Video ID : 1 Format : AVC Format/Info : Advanced Video Codec Format profile : [email protected] Format settings, CABAC : Yes Format settings, ReFrames : 2 frames Codec ID : V_MPEG4/ISO/AVC Duration : 1h 53mn Bit rate : 1 236 Kbps Width : 720 pixels Height : 304 pixels Display aspect ratio : 2.35:1 Frame rate : 25.000 fps Color space : YUV Chroma subsampling : 4:2:0 Bit depth : 8 bits Scan type : Progressive Bits/(Pixel*Frame) : 0.226 Stream size : 1 006 MiB (60%) Writing library : x264 core Default : Yes Forced : No Color primaries : BT.601-6 525, BT.1358 525, BT.1700 NTSC, SMPTE 170M Transfer characteristics : BT.709-5, BT.1361 Matrix coefficients : BT.601-6 525, BT.1358 525, BT.1700 NTSC, SMPTE 170M Audio #1 ID : 2 Format : AC-3 Format/Info : Audio Coding 3 Mode extension : CM (complete main) Codec ID : A_AC3 Duration : 1h 53mn Bit rate mode : Constant Bit rate : 384 Kbps Channel(s) : 6 channels Channel positions : Front: L C R, Side: L R, LFE Sampling rate : 48.0 KHz Bit depth : 16 bits Compression mode : Lossy Stream size : 313 MiB (19%) Language : Italian Default : Yes Forced : No Audio #2 ID : 3 Format : AC-3 Format/Info : Audio Coding 3 Mode extension : CM (complete main) Codec ID : A_AC3 Duration : 1h 53mn Bit rate mode : Constant Bit rate : 384 Kbps Channel(s) : 6 channels Channel positions : Front: L C R, Side: L R, LFE Sampling rate : 48.0 KHz Bit depth : 16 bits Compression mode : Lossy Stream size : 313 MiB (19%) Language : English Default : No Forced : No Text ID : 4 Format : VobSub Codec ID : S_VOBSUB Codec ID/Info : The same subtitle format used on DVDs Language : Italian Default : Yes Forced : No Menu 00:00:00.000 : en:(01)00:00:00:000 00:09:49.120 : en:(02)00:09:49:120 00:18:38.960 : en:(03)00:18:38:960 00:26:10.520 : en:(04)00:26:10:520 00:38:39.360 : en:(05)00:38:39:360 00:46:59.280 : en:(06)00:46:59:280 00:57:39.480 : en:(07)00:57:39:480 01:06:19.840 : en:(08)01:06:19:840 01:18:16.680 : en:(09)01:18:16:680 01:24:38.920 : en:(10)01:24:38:920 01:34:26.200 : en:(11)01:34:26:200 01:44:11.640 : en:(12)01:44:11:640 01:53:50.480 : en:(13)01:53:50:480 [/spoiler] [/color][/b][/center]

Forman G. – Laggiù mi hanno detto che c’è il sole

Language: | Size: 1.86 MB | Seed: 77 | Leech: 94

Description:

“Mi rincresce informarvi che mi sono tolta la vita. Era una decisione che meditavo da tempo e di cui mi assumo tutta la responsabilità. So che vi addolorerà, e mi dispiace tanto per questo, ma dovevo porre termine alla mia sofferenza. Voi non c’entrate niente, è stata una mia scelta. Voi non avete nessuna colpa. Questa è la lettera che Cody riceve il giorno in cui Meg, la migliore amica di sempre, si toglie la vita bevendo una bottiglia di candeggina in una squallida stanza di un motel. Cresciute insieme, Meg e Cody erano inseparabili, non esistevano segreti tra loro, o almeno questo era quello che pensava Cody. Quando però va a recuperare le cose dell’amica nella città dove un anno prima si era trasferita per andare al college, scopre che c’è tutta una parte della vita di Meg da cui lei era stata esclusa: i coinquilini, gli amici del college e Ben. Il ragazzo con la chitarra, un sorriso strafottente e tanti, troppi lati oscuri. E poi c’è un file criptato sul computer dell’amica che una volta aperto sconvolgerà Cody: all’improvviso tutto quello che credeva di sapere su Meg sembrerà non avere più senso.”

Revenge S01e10, [Mux - H264 - Ita Mp3]

Language: | Size: 349.61 MB | Seed: 77 | Leech: 88

Description:

Emily Thorne è nuova negli Hamptons. Ha incontrato alcuni dei suoi ricchi vicini, ha fatto un paio di amicizie nuove e, apparentemente, è riuscita ad ambientarsi in città. Tuttavia, c’è qualcosa di strano in una ragazza che vive da sola in una località riservata all’alta borghesia. In realtà, Emily non è nuova del quartiere. Aveva già vissuto in quei posti, finché qualcosa di orribile non è accaduto alla sua famiglia, distruggendo la loro reputazione. Ora Emily è tornata per vendicare i torti subiti. AUTORE flint CATEGORIA Serie TV INFOHASH C0D7DD584B4C73BBF4121EACA07554653ECB068E FILE(1) Files TRAKER Traker Non ci sono commenti

Fight Club (1999) H264 - Ita Ac3 5.1 Eng Ac3 - Sub Ita Eng

Language: | Size: 1.84 GB | Seed: 77 | Leech: 75

Description:

Titolo originale: Fight Club Nazione: Usa Anno: 1999 Genere: Noir Durata: 2h e 20' Regia: David Fincher Sito ufficiale: www.foxmovies.com/fightclub/ Cast: Edward Norton, Brad Pitt, Helena Bonham Carter, Jared Leto. Produzione: New Regency Distribuzione: Medusa Uscita prevista: 29 Novembre 1999 (cinema) Trama: Jack, uno Yuppie in cerca di se stesso, subisce il fascino travolgente e malsano di Tyler Durden, un disturbato gestore di palestre clandestine dove gli atleti si picchiano a sangue per dar sfogo alle proprie repressioni. Width : 720 pixels Height : 300 pixels Parole chiave: noir

I Griffin - Family Guy S11e21, [Mux - H264 - Ita Eng Aac - SoftSub Ita Eng]

Language: | Size: 106.84 MB | Seed: 77 | Leech: 20

Description:

Il programma ruota attorno alle avventure di Peter Griffin e della sua famiglia residenti a Quahog, cittadina immaginaria del Rhode Island. Peter è un operaio incompetente, obeso ed ottuso, ed il suo comportamento è particolarmente mutevole: a volte è un padre assente e dedito all'alcool, che non riesce a farsi rispettare dai propri cari, altre volte invece, seppur per poco, riesce a svolgere degnamente il ruolo di capo famiglia. Sua moglie, Lois Pewterschmidt, è una bella e brava casalinga, insegnante di pianoforte (anche se raramente la si vede praticare quest'attività) che dimostra talvolta velleità artistiche ed esibisce comportamenti disinibiti. La coppia ha tre figli: Meg è la tipica ragazza con problemi adolescenziali, come il non essere accettati o le difficoltà nei rapporti sentimentali; Chris è anche lui obeso, ingenuo e, per quanto tutt'altro che talentuoso, con la passione per il disegno; infine il diabolico Stewie, un neonato intelligentissimo, in grado di costruire fantascientifici strumenti per liberarsi della madre, considerata l'ostacolo alla conquista del mondo. Con la famiglia vive anche un cane antropomorfo, Brian, il miglior amico di Peter, che deve fare i conti con i suoi grossi problemi di dipendenza dall'alcool e, in alcuni casi, dalla droga.

Star Wars: Episodio II - L'Attacco dei Cloni (2002), [BDrip 1080p - H265 - Ita Eng Ac3

Language: | Size: 3.08 GB | Seed: 77 | Leech: 1

Description:

Titolo originale: Star Wars: Episode II - Attack of the Clones Nazionalità: USA Anno: 2002 (Remastered Blu-Ray 2011) Genere: Fantascienza Regia: George Lucas Cast: Ewan McGregor, Natalie Portman, Hayden Christensen, Christopher Lee, Samuel L. Jackson, Frank Oz, Ian McDiarmid, Pernilla August, Rose Byrne, Temuera Morrison, Daniel Logan, Jimmy Smits, Jack Thompson, Leeanna Walsman, Ahmed Best, Oliver Ford Davies, Ron Falk, Jay Laga'aia .: Trama :. Dieci anni dopo l’invasione sul pianeta Naboo, la Repubblica Galattica sta attraversando una nuova crisi. Il senatore Palpatine è divenuto Cancelliere della Repubblica Galattica. L’ex maestro jedi, il Conte Dooku, ora allievo dell’oscuro signore dei Sit Dartk Sidious, è divenuto il capo di un movimento separatista la Confederazione di Sistemi Indipendenti. Tale organizzazione si contrappone alla Repubblica rendendo difficile i tentativi del Consiglio dei Jedi per mantenere la pace nella galassia. La Repubblica inizia a considerare l’idea di creare un’arma in aiuto ai cavalieri, la senatrice Padmè viene quindi invitata a partecipare al voto sulla questione ma subisce un attentato. Il senatore Palpatine, scosso dal fatto, le assegna un cavaliere jedi e il suo apprendista per proteggere la sua incolumità. Obi-Wan Kenobi e Anakin Skywalker assumono questo r AUTORE admin

blackhatdvdxvidwwwdivxtotalcomav.t47922

Language: | Size: 1.45 GB | Seed: 77 | Leech: 0

Description:

Título: Blackhat (Amenaza en la red) Título original: Blackhat País: USA, Hong Kong, China Estreno en USA: 16/01/2015 Estreno en España: 30/01/2015 Productora: Legendary Pictures Director: Michael Mann Guión: Michael Mann, Morgan David Reparto: Chris Hemsworth, Viola Davis, Wei Tang, Leehom Wang, Holt McCallany, John Ortiz, William Mapother, Sara Finley, Jason Butler Harner, Ritchie Coster, Yorick van Wageningen, Tracee Chimo, Spencer Garrett, Archie Kao, Brandon Molale Calificación: No recomendada para menores de 16 años Género: Thriller. Acción | Crimen. Espionaje. Internet / Informática SINOPSIS: En el mundo global de la ciberdelincuencia, Blackhat (Amenaza en la red), de Legendary Pictures, sigue a un convicto liberado y a su equipo de colaboradores estadounidenses y chinos tras la pista de una red de ciberdelincuentes de alto nivel desde Los Ángeles a Yakarta, pasando por Hong Kong. Relaccionados

Les Doy Un Año - ESP XViD DVDrip

Language: | Size: 1.18 GB | Seed: 77 | Leech: 0

Description:

Descripción: Título: Les doy un año Título original: I Give It a Year País: UK Estreno en USA: 09/08/2013 Estreno en España: 12/09/2014 Estreno en Reino Unido: 08/02/2013 Productora: Working Title, StudioCanal Director: Dan Mazer Guión: Dan Mazer Reparto: Rose Byrne, Anna Faris, Rafe Spall, Alex Macqueen, Stephen Merchant, Jane Asher, Terence Harvey, Minnie Driver, Jason Flemyng, Nigel Planer, Maisy Mazer, Matilda Thykier, Clare Higgins, Kevin Moore, Olivia Colman Calificación: No recomendada para menores de 12 años Sinopsis Desde que se conocieron en una fiesta, la ambiciosa Nat (Rose Byrne) y el novelista en ciernes Josh (Rafe Spall) han sido increíblemente felices a pesar de sus diferencias. Josh es más reflexivo, Nat es más activa, pero la chispa entre ellos es innegable. Su boda es un sueño hecho realidad, pero nadie – ni la familia, ni los amigos, ni si quiera el cura que les casa – está convencido de que vayan a durar. La ex novia de Josh, Chloe (Anna Faris), y el atractivo cliente americano de Nat, Guy (Simon Baker), podrían ser alternativas tentadoras. Relaccionados

Chef - ESP XViD DVDrip

Language: | Size: 1.37 GB | Seed: 77 | Leech: 2

Description:

Descripción: Título: #chef Título original: Chef País: USA Estreno en USA: 09/05/2014 Estreno en España: 08/08/2014 Productora: Aldamisa Director: Jon Favreau Guión: Jon Favreau Reparto: Jon Favreau, John Leguizamo, Bobby Cannavale, Emjay Anthony, Scarlett Johansson, Dustin Hoffman, Sofía Vergara, Oliver Platt, Amy Sedaris, Robert Downey Jr., Russell Peters, Chase Grimm, Will Schutze, Gloria Sandoval, Jose C. Hernandez Sinopsis Cuando el chef Carl Casper (Jon Favreau) repentinamente deja su trabajo en un famoso restaurante de Los Ángeles, al enfrentarse a su controlador dueño (Dustin Hoffman) y negarse a renunciar a su integridad creativa, tiene que descubrir cuál es su siguiente paso. Por cosas de la vida se encuentra en Miami y se asocia con su exmujer (Sofía Vergara), su amigo (John Leguizamo) y su hijo (Emjay Anthony) para montar un puesto de comida ambulante. En la carretera, el chef Carl vuelve a sus raíces y recupera su pasión por la cocina y el entusiasmo por la vida y el amor. Relaccionados

Renaissances 2015 TRUEFRENCH BDRip x264-EXT-MZISYS

Language: | Size: 609.77 MB | Seed: 77 | Leech: 6

Description:

Section: Films/Séries/Vidéos Sous-Section: Films Release: Renaissances 2015 TRUEFRENCH BDRip x264-EXT-MZISYS Taille: 609.77 MB Info Hash: 826cdbc53136e2bcc2cdccd3e4988d72f95d2a10 Uploadeur: mzisys2008 Télécharger (Anonyme&Ultra-Rapide)

Pillars of Eternity-FLT [2014, Role-playing (RPG)] EN

Language: | Size: 6.33 GB | Seed: 77 | Leech: 49

Description:

Pillars of Eternity-FLT Genre: Role-playing (RPG) Platform: Windows Multiplayer: No Year: 2014 Type of publication: Language of the game: EN Crack: Available Description : Pillars of Eternity is a role-playing game created by Obsidian Entertainment. The player controls the actions of a hero traversing a vast, fantastical world alongside a team of independent characters. The game was created with the financial support gathered through the Kickstarter platform. The creators of Baldur's Gate, Icewind Dale and Fallout, among others, were involved in the production process Project Eternity is the first completely independent game from Obsidian Entertainment. The developers decided to use the experience gained in Black Isle Studios and create a role-playing game combining the best features of the genre classics such as Baldur's Gate, Icewind Dale Planescape Torment, and Fallout. Among the developers are Tim Cain (Fallout, Arcanum, Temple of Elemental Evil), Josh Sawyer (Icewind Dale and Icewind Dale II, Fallout: New Vegas), Scott Everts (Fallout Planescape: Torment, Icewind Dale, Icewind Dale II, Fallout: New Vegas) Brian Menze (Planescape: Torment), and Dan Spitzley (Planescape: Torment) The plot of Project Eternity is set in a vast fantasy world. The players can visit a number of realms, including Ruins of Eir Glanfath, Free Palatinate of Dyrwood, Pearl Coast, and Lake of the Drow Tombs. The various locations are characterized by considerable diversity, including different kinds of opponents. While traveling, the main character faces many NPCs, some of which may give him a quest or, in some cases, join his party The game is based on the classic role-playing game genre solutions. The creators decided to include real-time combat with the active pause option which allows the players to stop the fight and carefully plan the actions taken by the party members. The game also features a character development system based on the experience acquired during the game, and a considerable assortment of weapons, armor, and items that you can buy find, or acquire Graphics of Pillars of Eternity refers to the classics of the genre. The game offers an isometric view, characteristic of role-playing games from the turn of the century (e.g. the Baldur's Gate and Icewind Dale sagas) Installation Information: * Burn or mount * Install * Play the game NOTE: As usual, block the game exe in your firewall System requirements: OS: Windows Vista 64-bit or newer Processor: Intel Core i3-2100T @ 2.50 GHz / AMD Phenom II X3 B73 Memory: 4 GB RAM Graphics: ATI Radeon HD 4850 or NVIDIA GeForce 9600 GT Hard Drive: 14 GB available space Sound Card: DirectX Compatible Sound Card Size: 6.33 GB

Dark Skies - Oscure Presenze (2013) 720p - H264 - Ita Ac3 5.1

Language: | Size: 1.89 GB | Seed: 77 | Leech: 41

Description:

Titolo originale: Dark Skies Nazione: U.S.A. Anno: 2013 Genere: Horror, Thriller Durata: 97' Regia: Scott Stewart Sito ufficiale: darkskiesfilm.com Cast: Keri Russell, Josh Hamilton, Dakota Goyo, Kadan Rockett, J.K. Simmons, L.J. Benet, Rich Hutchman, Myndy Crist, Annie Thurman, Jake Brennan, Ron Ostrow, Richard Klein, Tom Costello Produzione: Blumhouse, Robotproof Data di uscita: 24 Ottobre 2013 (cinema) Trama: Dal produttore di Paranormal Activity, Insidious e Sinister arriva Dark Skies – Oscure Presenze: un thriller soprannaturale che segue le vicende di una giovane famiglia che vive in periferia. I coniugi Daniel e Lacy Barrett sono testimoni di una fitta serie di eventi, sempre piu inquietanti, che colpisce la loro famiglia sconvolgendo rapidamente la sicurezza e la tranquillitа della loro casa. Quando diventa chiaro che i Barrett sono presi di mira da una forza incredibilmente terrificante e letale, Daniel e Lacy decidono di affrontare la questione in prima persona per proteggere la propria famiglia e risolvere il mistero che si cela dietro all’oscura presenza che li sta perseguitando. Parole chiave: horror thriller

The Hateful Eight (2015) 1080p BDRip [2015, Crime, Drama, Mystery Blu-Ray Disc] EN

Language: | Size: 4.86 GB | Seed: 77 | Leech: 59

Description:

Title: The Hateful Eight (2015) 1080p BDRip Country: USA Region: Hollywood movies Genre: Crime, Drama, Mystery Duration: 02:47:00 Year: 2015 Language: EN Subtitle: English Director: Quentin Tarantino Cast: Samuel L. Jackson, Kurt Russell, Jennifer Jason Leigh Description: In the dead of a Wyoming winter, a bounty hunter and his prisoner find shelter in a cabin currently inhabited by a collection of nefarious characters. Rating: Quality: Blu-Ray Disc Format: MP4 Video codec: 3500 Kbps, 1920*704 (2.727:1), 23.976 fps, x264 Audio codec: 640 Kbps, 48.0 KHz, 6 Channels, AC3

Demolition - Amare E Vivere (2015).H264.Italian.English.Ac3.5.1.sub.ita.eng.iCV-MIRCrew

Language: | Size: 1.44 GB | Seed: 77 | Leech: 30

Description:

Demolition - Amare E Vivere (2015).H264.Italian.English.Ac3.5.1.sub.ita.eng.iCV-MIRCrew [center] [color=red][b][img]http://s23.postimg.org/b9yhws27f/0sc_Del1.png[/img] [u]NO FOUND ONLY ORIGINAL RELEASE[/u] [img]http://i.imgur.com/GDNQx1Z.png[/img] My release is always in double track audio italian and Original audio for select it use VLC or dvd player home not use wmp Demolition - Amare E Vivere (2015) [img]https://extraimage.net/images/2017/01/28/602164ddecb1c0fe81e2bd775834ddcb.png[/img] [URL=http://www.imdb.com/title/tt1172049/][IMG]http://www.userlogos.org/files/logos/Sucka/imdb_new.png[/IMG][/URL] [img]http://i.imgur.com/fGu1rKv.png[/img] Titolo originale Demolition Lingua originale inglese Paese di produzione Stati Uniti d'America Anno 2015 Durata 101 min Colore colore Audio sonoro Genere drammatico, commedia Regia Jean-Marc Vallée Sceneggiatura Bryan Sipe Produttore Lianne Halfon, Russell Smith, Molly Smith, Trent Luckinbill, Sidney Kimmel, Jean-Marc Vallée Produttore esecutivo Thad Luckinbill, Ellen H. Schwartz, Carla Hacken, Bruce Toll, Nathan Ross, John Malkovich, Jason Reitman, Helen Estabrook Casa di produzione Black Label Media, Mr. Mudd, Right of Way Films, Sidney Kimmel Entertainment Distribuzione (Italia) Good Films Fotografia Yves Bélanger Scenografia John Paino Costumi Leah Katznelson [img]http://i.imgur.com/W7kBqiE.png[/img] Jake Gyllenhaal: Davis Mitchell Naomi Watts: Karen Moreno Chris Cooper: Phil Eastwood Judah Lewis: Chris Moreno C.J. Wilson: Carl Polly Draper: Margot Eastwood Heather Lind: Julia Malachy Cleary: padre di Davis Debra Monk: madre di Davis [img]http://i.imgur.com/bFK3ggF.png[/img] La vita di Davis, un investitore di successo, viene sconvolta quando la moglie muore in un incidente stradale. Nonostante il padre lo sproni a continuare a vivere, Davis diventa sempre più depresso. Una sera, scrivendo una lettera di reclamo a una società di distributori automatici [img]http://i.imgur.com/48xHWWH.png[/img] A successful investment banker struggles after losing his wife in a tragic car crash. With the help of a customer service rep and her young son, he starts to rebuild, beginning with the demolition of the life he once knew. [img]http://i.imgur.com/K8bfNTy.png[/img] [url=https://extraimage.net/image/2dw0][img]http://extraimage.net/images/2017/01/28/f425c05e454dfaf0610ecb7495d76ec5.th.png[/img][/url] [url=https://extraimage.net/image/2dwz][img]http://extraimage.net/images/2017/01/28/65f90c57b03d88ed714e4004fb269496.th.png[/img][/url] [url=https://extraimage.net/image/2dwJ][img]http://extraimage.net/images/2017/01/28/731252089615dc60cc99fa6e10161631.th.png[/img][/url] [img]http://i.imgur.com/aVrMohH.png[/img] [spoiler] General Unique ID : 303128872863604957726917366287022494165 (0xE40C7F50BBA198E26C34DEC8F89D11D5) Complete name : Demolition - Amare E Vivere (2016).H264.ita.eng.sub.ita.eng.iCV-MIRCrew.mkv Format : Matroska Format version : Version 2 File size : 1.44 GiB Duration : 1h 40mn Overall bit rate : 2 043 Kbps Movie name : VISIT www.icv-crew.org Encoded date : UTC 2017-01-25 16:44:28 Writing application : Lavf54.63.100 Writing library : Lavf54.63.100 COPYRIGHT : robbyrs Video ID : 1 Format : AVC Format/Info : Advanced Video Codec Format profile : [email protected] Format settings, CABAC : Yes Format settings, ReFrames : 2 frames Codec ID : V_MPEG4/ISO/AVC Duration : 1h 40mn Bit rate : 1 270 Kbps Width : 720 pixels Height : 304 pixels Display aspect ratio : 2.35:1 Original display aspect ratio : 2.35:1 Frame rate mode : Variable Frame rate : 23.976 fps Color space : YUV Chroma subsampling : 4:2:0 Bit depth : 8 bits Scan type : Progressive Bits/(Pixel*Frame) : 0.242 Stream size : 891 MiB (60%) Writing library : x264 core 130 r2273 Encoding settings : cabac=1 / ref=2 / deblock=1:0:0 / analyse=0x1:0x131 / me=hex / subme=7 / psy=1 / psy_rd=1.00:0.00 / mixed_ref=0 / me_range=16 / chroma_me=1 / trellis=1 / 8x8dct=0 / cqm=0 / deadzone=21,11 / fast_pskip=1 / chroma_qp_offset=-2 / threads=12 / lookahead_threads=2 / sliced_threads=0 / nr=0 / decimate=1 / interlaced=0 / bluray_compat=0 / constrained_intra=0 / bframes=3 / b_pyramid=0 / b_adapt=1 / b_bias=0 / direct=3 / weightb=1 / open_gop=0 / weightp=2 / keyint=230 / keyint_min=23 / scenecut=40 / intra_refresh=0 / rc_lookahead=40 / rc=2pass / mbtree=1 / bitrate=1270 / ratetol=1.0 / qcomp=0.60 / qpmin=10 / qpmax=69 / qpstep=4 / cplxblur=20.0 / qblur=0.5 / vbv_maxrate=24000 / vbv_bufsize=24000 / nal_hrd=none / ip_ratio=1.40 / aq=1:1.00 Language : English Default : Yes Forced : No DURATION : 01:40:53.006000000 NUMBER_OF_FRAMES : 145127 NUMBER_OF_BYTES : 7436259859 _STATISTICS_WRITING_APP : mkvmerge v8.7.0 ('All of the above') 64bit _STATISTICS_WRITING_DATE_UTC : 2017-01-24 10:45:03 _STATISTICS_TAGS : BPS DURATION NUMBER_OF_FRAMES NUMBER_OF_BYTES Audio #1 ID : 2 Format : AC-3 Format/Info : Audio Coding 3 Mode extension : CM (complete main) Codec ID : A_AC3 Duration : 1h 40mn Bit rate mode : Constant Bit rate : 384 Kbps Channel(s) : 6 channels Channel positions : Front: L C R, Side: L R, LFE Sampling rate : 48.0 KHz Bit depth : 16 bits Compression mode : Lossy Delay relative to video : 1mn 5s Stream size : 277 MiB (19%) Language : Italian Default : Yes Forced : No DURATION : 01:40:53.056000000 NUMBER_OF_FRAMES : 189158 NUMBER_OF_BYTES : 290546688 _STATISTICS_WRITING_APP : mkvmerge v8.7.0 ('All of the above') 64bit _STATISTICS_WRITING_DATE_UTC : 2017-01-24 10:45:03 _STATISTICS_TAGS : BPS DURATION NUMBER_OF_FRAMES NUMBER_OF_BYTES Audio #2 ID : 3 Format : AC-3 Format/Info : Audio Coding 3 Mode extension : CM (complete main) Codec ID : A_AC3 Duration : 1h 40mn Bit rate mode : Constant Bit rate : 384 Kbps Channel(s) : 6 channels Channel positions : Front: L C R, Side: L R, LFE Sampling rate : 48.0 KHz Bit depth : 16 bits Compression mode : Lossy Delay relative to video : 1mn 5s Stream size : 277 MiB (19%) Language : English Default : No Forced : No DURATION : 01:40:53.088000000 NUMBER_OF_FRAMES : 189159 NUMBER_OF_BYTES : 484247040 _STATISTICS_WRITING_APP : mkvmerge v8.7.0 ('All of the above') 64bit _STATISTICS_WRITING_DATE_UTC : 2017-01-24 10:45:03 _STATISTICS_TAGS : BPS DURATION NUMBER_OF_FRAMES NUMBER_OF_BYTES Text #1 ID : 4 Format : UTF-8 Codec ID : S_TEXT/UTF8 Codec ID/Info : UTF-8 Plain Text Title : FORCED Language : Italian Default : Yes Forced : No DURATION : 00:00:02.409000000 NUMBER_OF_FRAMES : 1 NUMBER_OF_BYTES : 42 _STATISTICS_WRITING_APP : mkvmerge v8.7.0 ('All of the above') 64bit _STATISTICS_WRITING_DATE_UTC : 2017-01-24 10:45:03 _STATISTICS_TAGS : BPS DURATION NUMBER_OF_FRAMES NUMBER_OF_BYTES Text #2 ID : 5 Format : UTF-8 Codec ID : S_TEXT/UTF8 Codec ID/Info : UTF-8 Plain Text Title : REGULAR Language : Italian Default : No Forced : No DURATION : 01:39:28.823000000 NUMBER_OF_FRAMES : 1251 NUMBER_OF_BYTES : 39165 _STATISTICS_WRITING_APP : mkvmerge v8.7.0 ('All of the above') 64bit _STATISTICS_WRITING_DATE_UTC : 2017-01-24 10:45:03 _STATISTICS_TAGS : BPS DURATION NUMBER_OF_FRAMES NUMBER_OF_BYTES Text #3 ID : 6 Format : UTF-8 Codec ID : S_TEXT/UTF8 Codec ID/Info : UTF-8 Plain Text Title : NON UDENTI Language : English Default : No Forced : No DURATION : 01:39:57.492000000 NUMBER_OF_FRAMES : 1440 NUMBER_OF_BYTES : 40094 _STATISTICS_WRITING_APP : mkvmerge v8.7.0 ('All of the above') 64bit _STATISTICS_WRITING_DATE_UTC : 2017-01-24 10:45:03 _STATISTICS_TAGS : BPS DURATION NUMBER_OF_FRAMES NUMBER_OF_BYTES Menu 00:00:00.000 : :00:00:00.000 00:03:09.815 : :00:03:09.815 00:07:28.281 : :00:07:28.281 00:11:11.671 : :00:11:11.671 00:15:55.997 : :00:15:55.997 00:19:23.037 : :00:19:23.037 00:23:14.768 : :00:23:14.768 00:28:21.325 : :00:28:21.325 00:32:39.040 : :00:32:39.040 00:37:16.693 : :00:37:16.693 00:42:31.382 : :00:42:31.382 00:47:09.952 : :00:47:09.952 00:51:39.805 : :00:51:39.805 00:56:23.005 : :00:56:23.005 01:00:27.290 : :01:00:27.290 01:04:41.878 : :01:04:41.878 01:09:10.188 : :01:09:10.188 01:14:08.444 : :01:14:08.444 01:18:14.523 : :01:18:14.523 01:22:22.354 : :01:22:22.354 01:26:28.475 : :01:26:28.475 01:29:15.475 : :01:29:15.475 01:33:43.618 : :01:33:43.618 01:36:41.838 : :01:36:41.838 [/spoiler] [/color][/b][/center]

Gomorra: La Serie (2016) S02e03 720p HDTV - H264 - Ita Ac3

Language: | Size: 1.08 GB | Seed: 76 | Leech: 57

Description:

Titolo originale Gomorra - La serie Paese Italia Anno 2014 – in produzione Formato serie TV Genere drammatico, gangster, noir Stagioni 2 Episodi 24 Durata circa 50 min (episodio) Lingua originale napoletano, italiano Interpreti e personaggi Salvatore Esposito: Genny Savastano Marco D'Amore: Ciro Di Marzio Marco Palvetti: Salvatore Conte Fortunato Cerlino: Pietro Savastano Maria Pia Calzone: Imma Savastano Cristina Donadio: Scianel Antonio Folletto: O' Principe Cristiana Dell'Anna: Patrizia La seconda stagione riprende dal finale della prima: Don Pietro è stato liberato dal furgone della polizia durante il trasferimento e Ciro, dopo aver stretto l'alleanza con Salvatore Conte, mette al sicuro Debora e la figlia Maria Rita dalla vendetta imminente dei Savastano. La donna, tuttavia, nutre crescente angoscia per il destino della giovanissima figlia, al punto tale da tentare di tradire il clan e di consegnare Ciro alla polizia. Sarà proprio Ciro, al culmine di un litigio, ad ucciderla involontariamente e a bruciarne poi il corpo. Intanto Genny, figlio di Don Pietro, è sopravvissuto all'attacco e gradualmente si rimette... @wikipedia 3 Mea Culpa 17 maggio 2016 Lo stato di Torrent: Verificato Trailer Aggiungi commento Torrenti correlati Segnala

Pirati dei Caraibi - Oltre i confini del mare (2011) 1080p - H264 - Ita Ac3 5.1 Eng Ac3 - MultiSub

Language: | Size: 2.4 GB | Seed: 76 | Leech: 85

Description:

Titolo originale: Pirates of the Caribbean: On Stranger Tides Nazione: U.S.A. Anno: 2011 Genere: Azione, Avventura Durata: 141' Regia: Rob Marshall Sito ufficiale: www.disney.co.uk/pirates-of-the-caribbean/index.jsp Sito italiano: www.disney.it/pirati-dei-caraibi Social network: facebook Cast: Johnny Depp, Ian McShane, Penelope Cruz, Stephen Graham, Geoffrey Rush, Gemma Ward, Richard Griffiths, Judi Dench, Keith Richards, Óscar Jaenada, Sam Claflin, Greg Ellis Produzione: Jerry Bruckheimer Films, Walt Disney Pictures Distribuzione: Walt Disney Studios Motion Pictures Italia Data di uscita: Cannes 2011 18 Maggio 2011 (cinema) Trama: Quando Jack (Johnny Depp) Sparrow ritrova una donna che appartiene al suo passato (Penelope Cruz), non sa bene se ha ritrovato l’amore o soltanto un’avventuriera senza scrupoli che intende usarlo per arrivare alla mitica Fontana della Giovinezza. La donna lo costringe ad imbarcarsi a bordo della Queen Anne’s Revenge, la nave del minaccioso pirata Blackbeard (Ian McShane) coinvolgendolo in un’avventura durante la quale non saprà se deve temere di più Blackbeard o la donna del suo passato. Parole chiave: azione avventura

Before Midnight (2013), [H264 - Ita Eng Ac3 5.1 - Sub Ita]

Language: | Size: 1.71 GB | Seed: 76 | Leech: 68

Description:

Titolo originale: Before Midnight Nazione: U.S.A. Anno: 2013 Genere: Drammatico Durata: 108' Regia: Richard Linklater Sito ufficiale: www.sonyclassics.com/beforemidnight Cast: Ethan Hawke, Julie Delpy, Seamus Davey-Fitzpatrick, Ariane Labed, Athina Rachel Tsangari, Xenia Kalogeropoulou, Jennifer Prior, Charlotte Prior, Yannis Papadopoulos, Walter Lassally, Yota Argyropoulou Produzione: Castle Rock Entertainment, Detour Filmproduction, Faliro House Productions, Venture Forth Distribuzione: Good Films Data di uscita: Berlino 2013 31 Ottobre 2013 (cinema) Trama: All’aeroporto di Kalamata, in Grecia, l’americano Jesse (Ethan Hawke) sta salutando il figlio, Hank (Seamus Davey-Fitzpatrick) che si prepara a tornare negli Stati Uniti, dalla madre, dopo aver trascorso "la piu bella estate di sempre" con la nuova famiglia del padre. Il ragazzino neanche adolescente и calmo rispetto al genitore quarantenne: Jesse, infatti, quasi non riesce a stare fermo dall’ansia, man mano che si avvicina il momento di separarsi. La geografia pesa sul suo cuore. Uscito dall’aeroporto, ritrova la sua famiglia: Celine (Julie Delpy) e le loro due gemelle Ella e Nina (Jennifer e Charlotte Prior). In macchina, immersi in un panorama dalla bellezza austera, Jesse e Celine discorrono sulla loro vita tanto lontana da Hank; Jesse propone di lasciare la loro casa a Parigi per trasferirsi negli Stati Uniti, ma Celine ha chiuso la parentesi americana (hanno vissuto a New York per un periodo) e non ha alcun desiderio di tornare. La lunga storia insieme ferve tra di loro. Jesse и un romanziere di successo. Si trova in Grecia insieme alla famiglia come ospite presso il bucolico ritiro di un maturo scrittore espatriato, Patrick (Walter Lassally). Celine, il cui trascorso и stato decisivo per i romanzi semi-autobiografici del marito, e quindi per la sua carriera, sembra forse un po’ stanca di interpretare la seducente musa francese nel mondo fittizio che lui ha creato e descrive. Come regalo di benvenuto, i padroni di casa hanno prenotato per Jesse e Celine una camera in un lussuoso resort sul mare, offrendosi di badare alle gemelle per quella notte. Celine avverte l’attrito tra lei e Jesse e vorrebbe rifiutare, ma gli amici insistono. Si incamminano cosi nella spettacolare campagna, perdendosi nei vicoli, tra i villaggi, inebriandosi della reciproca compagnia e chiacchierano, si punzecchiano, discutono, flirtano. Che cosa puo fare una coppia di lunga data in un’elegante stanza d’albergo se non togliersi di dosso preoccupazioni, responsabilitа, vestiti e fare l’amore? Ma la realtа irrompe: il carico di figli, lavoro, ambizioni, delusioni; il flusso e riflusso della passione; le tensioni legate alla crescita e all’approfondirsi di una relazione. Alla fine, quella che si era prospettata come un notte idilliaca tutta per loro, li mette alla prova in un modo assolutamente inaspettato. 8,0/10 IMDB Risoluzione: 1024 x 576 Parole chiave: dramma

Arance E Martello (2014) XviD - Ita Ac3

Language: | Size: 1.37 GB | Seed: 76 | Leech: 2

Description:

Titolo originale: Arance e martello Nazione: Italia Anno: 2014 Genere: Commedia Durata: 101' Regia: Diego Bianchi Sito ufficiale: Social network: facebook Cast: Diego Bianchi, Giulia Mancini, Lorena Cesarini, Francesca Acquaroli, Luciano Miele, Ludovico Tersigni, Emanuele Grazioli, Antonella Attili, Stefano Altieri, Ilaria Spada, Giorgio Tirabassi Produzione: Fandango, Rai Cinema Distribuzione: Fandango Data di uscita: Venezia 2014 - Settimana Internazionale della Critica 05 Settembre 2014 (cinema) Trama: Arance e martello è un film "storico", in ‘costume’, ambientato nella calda estate del 2011; tre anni fa, nel pieno del potere berlusconiano. La vita di un tranquillo e ordinario mercato rionale è stravolta dalla notizia della sua chiusura da parte del Comune. L’unica realtà politica a cui rivolgersi è una sezione del PD, separata dal mercato e dal mondo da un muro di cemento eretto per permettere i lavori della metropolitana. Da quel momento si vivrà una giornata unica, paradossale, comica e drammatica, nel quale tutto si consuma e tutto diventa paradigma satirico della storia recente del nostro Paese. Risoluzione: 640 x 352 Parole chiave: commedia

Orange Is The New Black S02e09, [H264 - Eng Aac - Sub Ita Eng]

Language: | Size: 485.24 MB | Seed: 76 | Leech: 10

Description:

Piper Chapman è una donna proveniente dal Connecticut, residente a New York, che viene condannata a scontare quindici mesi al Litchfield, un carcere federale femminile, per aver trasportato una valigia piena di soldi della droga per Alex Vause, una trafficante di droga internazionale e un tempo amante di Chapman.

Tigre Y Dragón 2: La Espada Del Destino - ESP XViD DVDrip

Language: | Size: 1.35 GB | Seed: 76 | Leech: 51

Description:

Título original Crouching Tiger, Hidden Dragon: Sword of Destiny Año 2016 Duración 96 min. País China Director Yuen Woo-Ping Guión John Fusco (Libro: Wang Dulu) Música Carlo Siliotto Fotografía Newton Thomas Sigel Reparto Donnie Yen, Michelle Yeoh, Harry Shum Jr., Jason Scott Lee, Eugenia Yuan, Roger Yuan, Darryl Quon Productora Coprodución EEUU-China; The Weinstein Company / Pegasus Taihe Entertainment Género Acción. Aventuras. Drama. Fantástico | Artes marciales. Secuela Sinopsis Evitar que la espada de un gran guerrero caiga en las manos de un tirano, cambiará todo como nunca imaginaron. Relaccionados

B [Bárcenas] - ESP XViD DVDrip

Language: | Size: 778.05 MB | Seed: 76 | Leech: 0

Description:

Título: B Título original: B País: España Estreno en USA: Estreno en España: 18/09/2015 Estreno en VOD: 13/11/2015 Productora: Inicia Films Director: David Ilundain Guión: Jordi Casanovas, David Ilundain Reparto: Pedro Casablanc, Manolo Solo, Enric Benavent, Patxi Freytez, Eduardo Recabarren Calificación: Apta para todos los públicos Género: Drama | Drama judicial. Basado en hechos reales SINOPSIS: El 15 de julio de 2013, el ex-tesorero del Partido Popular, Luis Bárcenas, es trasladado desde la prisión para declarar en la Audiencia Nacional. Hasta este día, había negado toda relación con los llamados papeles de Bárcenas, pero después de 18 días en prisión ha decidido cambiar su declaración. Esta película retrata lo que pasó en esa sala aquel día. Relaccionados

Enterrando A La Ex - ESP XViD DVDrip

Language: | Size: 1.29 GB | Seed: 76 | Leech: 1

Description:

Título: Burying the Ex Título original: Burying the Ex País: Estados Unidos Estreno en USA: 19/06/2015 Estreno en España: Productora: ArtImage Entertainment, Scooty Woop Entertainment, Voltage Pictures Director: Joe Dante Guión: Alan Trezza Reparto: Anton Yelchin, Ashley Greene, Alexandra Daddario, Oliver Cooper, Mindy Robinson Género: Comedia. Terror | Comedia de terror. Zombis. Sobrenatural SINOPSIS: Todos hemos tenido alguna antigua pareja que se resiste a aceptar que la relación ha terminado, pero lo que le ocurre a Max va un paso más allá: justo cuando empieza un romance con la encantadora Olivia, su difunta ex novia Evelyn vuelve de la tumba, dispuesta a pasar lo que le quede de “no vida” junto a él. Relaccionados Nombre FechaTamaño

Je suis a vous tout de suite 2015 FRENCH BDRip XVid avi

Language: | Size: 1.32 GB | Seed: 76 | Leech: 60

Description:

Section: Films/Séries/Vidéos Sous-Section: Films Titre: Je suis à vous tout de suite Titre Original Je suis à vous tout de suite Genre: Drame, Année: 2015 Release: Je suis a vous tout de suite 2015 FRENCH BDRip XVid avi Qualité: BDrip/BRrip [Rip SD (non HD) depuis Bluray ou HDrip] Langue: Français (VFF/Truefrench) Système: TV/PC/Platine/Lecteur Multimédia/etc Type: 2D (Standard) Taille: 1.32 GB Info Hash: d7f5f76b4807b2ee5c957a81f00bcafd21652203 Uploadeur: roukinou40

Zona d'ombra - Una scomoda verità (2015) BluRay m1080p iTA AC3 640 Kbps x264 Sub

Language: | Size: 2.31 GB | Seed: 76 | Leech: 14

Description:

ilm | Dimensione: 2.31 GB | Seeders: 106 | Leechers: 44 | Completato: 589 | Agiorna Titolo originale: Concussion Nazione: U.S.A. Anno: 2015 Genere: Drammatico Durata: 123' Regia: Peter Landesman Sito ufficiale: www.sonypictures.com Sito italiano: www.warnerbros.it/speciali/zonadombra Cast: Will Smith, Gugu Mbatha-Raw, Alec Baldwin, Stephen Moyer, Eddie Marsan, Luke Wilson, David Morse, Albert Brooks, Adewale Akinnuoye-Agbaje Produzione: The Cantillon Company, LStar Capital, Scott Free Productions, The Shuman Company, Village Roadshow Pictures Data di uscita: 21 Aprile 2016 (cinema) Trama: Will Smith nei panni del medico che con la sua scoperta fece tremare una delle organizzazioni più potenti del mondo. Un battaglia indimenticabile tratta da una storia vera. Il film racconta la storia di Bennet Omalu, il neuropatologo che cercò in ogni modo di portare all'attenzione pubblica una sua importante scoperta: una malattia degenerativa del cervello che colpiva i giocatori di football vittime di ripetuti colpi subiti alla testa. Durante la sua ostinata ricerca, il medico tentò di smantellare lo status quo dell'ambiente sportivo che, per interessi politici ed economici, metteva consapevolmente a repentaglio la salute degli atleti. Parole chiave: drammatico

Corel PaintShop Pro X9 19.1.0.29 (x86x64) + Keygen

Language: | Size: 956.86 MB | Seed: 76 | Leech: 41

Description:

Corel PaintShop Pro X9 19.1.0.29 (x86x64) Corel PaintShop Pro X9, a part of the PaintShop family of digital imaging and photography products, is the most complete, easy-to-use software for creating professional digital imaging results. By combining automatic and precision tools with an integrated learning system, Corel PaintShop Pro X9 Crack helps you produce professional results with power and ease. Filled with one-of-a-kind photo tools sure to please even the most discerning photographer, Corel PaintShop Pro X9 Full Version is the ideal choice for people who want extraordinary photos. Features: Powerful picture editing software Creative graphic design Easy quick fixes New from Template Screenshot featuring Smart Capture Gradient Fill tool Text Presets Improved Text tool Real-Time Photo Effects Improved Stylus and Graphics Tablet support Batch Processing with New Batch Smart Photo Fix Scripts Guided Tour Export Edit History Windows Server 2016 Support Camera Raw Support Text Wrapping Magic Move and Magic Fill Precise selections Lens Correction 4K monitor support Layers Text and Shape Cutting Easy built-in learning Graduated filter effect Painting and drawing tools Photo Mapping Share My Trip Social media sharing Photo editing tutorial videos Support for third-party plugins Amazing portrait retouching Minimum System Requirements: - Windows 10, Windows 8/8.1, Windows 7 with the latest service pack (64-bit or 32-bit editions) - Intel/AMD 1.5 GHz or faster processor with SSE2 supported (multi­core processor recommended) - 2 GB RAM or higher (4 GB recommended) - 1 GB of available hard-disk space required (2 GB recommended) - 1280 x 768 resolution with 16-bit color display (1366 x 768 resolution with 24-bit or higher color display recommended) - DirectX 9 or higher compatible video adapter with the latest driver - Internet Explorer version 10 or higher - Internet connection required for online features and tutorial videos