Search Top Tags














Gernika - Guernica - Cronaca di una strage (2016).H264.Italian.Spanish.Ac3.5.1.sub.ita.eng

Language: | Size: 1.58 GB | Seed: 125 | Leech: 51

Description:

Gernika - Guernica - Cronaca di una strage (2016).H264.Italian.Spanish.Ac3.5.1.sub.ita.eng.iCV-MIRCrew [center] [color=red][b][img]http://s23.postimg.org/b9yhws27f/0sc_Del1.png[/img] [u]NO FOUND ONLY ORIGINAL RELEASE[/u] [img]http://i.imgur.com/GDNQx1Z.png[/img] My release is always in double track audio italian and Original audio for select it use VLC or dvd player home not use wmp ENGLISH SUBTITLE INSIDE Guernica - Cronaca di una strage - Gernika (2016) [img]https://extraimage.net/images/2017/01/29/5ef895d3a023dc1db2f0beaf538a5a26.png[/img] [URL=http://www.imdb.com/title/tt2556114/][IMG]http://www.userlogos.org/files/logos/Sucka/imdb_new.png[/IMG][/URL] [img]http://i.imgur.com/fGu1rKv.png[/img] Guernica: cronaca di una strage (Gernika) Spagna, 2016, Drammatico, Politico sociale, 110 min Regia: Koldo Serra Sceneggiatura: José Alba, Carlos Clavijo Cobos Musica: Fernando Velázquez fotografia: Unax Mendia montaggio: José Manuel Jiménez [img]http://i.imgur.com/W7kBqiE.png[/img] James D'Arcy, Burn Gorman, Jack Davenport, María Valverde, Hugo Silva [img]http://i.imgur.com/bFK3ggF.png[/img] Aprile 1937. La legione Condor sorvola la città di Guernica e distrugge tutto ciò che incontra nel bombardamento dettato dalla guerra civile in corso. Nel mezzo del caos generato, mentre la città sta cadendo a pezzi, si incrociano i destini di Henry, un cinico reporter americano, e di Teresa, una dei censori incaricati per filtrare le notizie che escono dal paese. [img]http://i.imgur.com/48xHWWH.png[/img] The fates of Henry - a cynical American correspondent who has lost his soul - and Teresa, one of the Republic's censors and in charge of overseeing the news that journalists can send abroad, cross in Gernika. [img]http://i.imgur.com/K8bfNTy.png[/img] [url=https://extraimage.net/image/2ddI][img]https://extraimage.net/images/2017/01/29/a2b03ef0a937dca2a9a56895872f7767.th.png[/img][/url] [url=https://extraimage.net/image/2ddl][img]https://extraimage.net/images/2017/01/29/29fcb8a2f861f5d929ef7ceb534974c3.th.png[/img][/url] [url=https://extraimage.net/image/2ddd][img]https://extraimage.net/images/2017/01/29/2a37235269032bdf6e5be66ddd516b8b.th.png[/img][/url] [img]http://i.imgur.com/aVrMohH.png[/img] [spoiler] General Unique ID : 272083683154523069337419302403993886725 (0xCCB169496D224A2B9DE815773249E005) Complete name : Guernica - Cronaca di una strage (2016).ita.spa.sub.ita.eng.icv-MIRCrew.mkv Format : Matroska Format version : Version 2 File size : 1.58 GiB Duration : 1h 50mn Overall bit rate : 2 043 Kbps Movie name : VISIT www.icv-crew.org Encoded date : UTC 2017-01-22 16:48:15 Writing application : Lavf54.63.100 Writing library : Lavf54.63.100 COPYRIGHT : robbyrs Video ID : 1 Format : AVC Format/Info : Advanced Video Codec Format profile : [email protected] Format settings, CABAC : Yes Format settings, ReFrames : 2 frames Codec ID : V_MPEG4/ISO/AVC Duration : 1h 50mn Bit rate : 1 270 Kbps Width : 720 pixels Height : 304 pixels Display aspect ratio : 2.40:1 Frame rate mode : Variable Frame rate : 24.000 fps Color space : YUV Chroma subsampling : 4:2:0 Bit depth : 8 bits Scan type : Progressive Bits/(Pixel*Frame) : 0.242 Stream size : 979 MiB (60%) Writing library : x264 core 130 r2273 Encoding settings : cabac=1 / ref=2 / deblock=1:0:0 / analyse=0x1:0x131 / me=hex / subme=7 / psy=1 / psy_rd=1.00:0.00 / mixed_ref=0 / me_range=16 / chroma_me=1 / trellis=1 / 8x8dct=0 / cqm=0 / deadzone=21,11 / fast_pskip=1 / chroma_qp_offset=-2 / threads=12 / lookahead_threads=2 / sliced_threads=0 / nr=0 / decimate=1 / interlaced=0 / bluray_compat=0 / constrained_intra=0 / bframes=3 / b_pyramid=0 / b_adapt=1 / b_bias=0 / direct=3 / weightb=1 / open_gop=0 / weightp=2 / keyint=240 / keyint_min=24 / scenecut=40 / intra_refresh=0 / rc_lookahead=40 / rc=2pass / mbtree=1 / bitrate=1270 / ratetol=1.0 / qcomp=0.60 / qpmin=10 / qpmax=69 / qpstep=4 / cplxblur=20.0 / qblur=0.5 / vbv_maxrate=24000 / vbv_bufsize=24000 / nal_hrd=none / ip_ratio=1.40 / aq=1:1.00 Language : Italian Default : Yes Forced : No DURATION : 01:50:50.292000000 NUMBER_OF_FRAMES : 159607 NUMBER_OF_BYTES : 8034777742 _STATISTICS_WRITING_APP : mkvmerge v8.3.0 ('Over the Horizon') 64bit _STATISTICS_WRITING_DATE_UTC : 2017-01-16 00:13:40 _STATISTICS_TAGS : BPS DURATION NUMBER_OF_FRAMES NUMBER_OF_BYTES Audio #1 ID : 2 Format : AC-3 Format/Info : Audio Coding 3 Mode extension : CM (complete main) Codec ID : A_AC3 Duration : 1h 50mn Bit rate mode : Constant Bit rate : 384 Kbps Channel(s) : 6 channels Channel positions : Front: L C R, Side: L R, LFE Sampling rate : 48.0 KHz Bit depth : 16 bits Compression mode : Lossy Delay relative to video : 1mn 5s Stream size : 304 MiB (19%) Language : Italian Default : Yes Forced : Yes DURATION : 01:50:51.232000000 NUMBER_OF_FRAMES : 207851 NUMBER_OF_BYTES : 319259136 _STATISTICS_WRITING_APP : mkvmerge v8.3.0 ('Over the Horizon') 64bit _STATISTICS_WRITING_DATE_UTC : 2017-01-16 00:13:40 _STATISTICS_TAGS : BPS DURATION NUMBER_OF_FRAMES NUMBER_OF_BYTES Audio #2 ID : 3 Format : AC-3 Format/Info : Audio Coding 3 Mode extension : CM (complete main) Codec ID : A_AC3 Duration : 1h 50mn Bit rate mode : Constant Bit rate : 384 Kbps Channel(s) : 6 channels Channel positions : Front: L C R, Side: L R, LFE Sampling rate : 48.0 KHz Bit depth : 16 bits Compression mode : Lossy Delay relative to video : 1mn 5s Stream size : 304 MiB (19%) Language : Spanish Default : No Forced : No DURATION : 01:50:50.304000000 NUMBER_OF_FRAMES : 207822 NUMBER_OF_BYTES : 532024320 _STATISTICS_WRITING_APP : mkvmerge v8.3.0 ('Over the Horizon') 64bit _STATISTICS_WRITING_DATE_UTC : 2017-01-16 00:13:40 _STATISTICS_TAGS : BPS DURATION NUMBER_OF_FRAMES NUMBER_OF_BYTES Menu 00:00:00.000 : :00:00:00.000 00:06:57.042 : :00:06:57.042 00:15:43.500 : :00:15:43.500 00:24:56.625 : :00:24:56.625 00:31:38.708 : :00:31:38.708 00:43:28.458 : :00:43:28.458 00:51:43.958 : :00:51:43.958 01:00:13.542 : :01:00:13.542 01:10:32.667 : :01:10:32.667 01:19:28.542 : :01:19:28.542 01:25:53.667 : :01:25:53.667 01:33:01.583 : :01:33:01.583 [/spoiler] [/color][/b][/center]

Equity (2016).H264.Italian.English.Ac3.5.1.sub.ita.eng.iCV-MIRCrew

Language: | Size: 1.43 GB | Seed: 125 | Leech: 125

Description:

Equity (2016).H264.Italian.English.Ac3.5.1.sub.ita.eng.iCV-MIRCrew [center] [color=red][b][img]http://s23.postimg.org/b9yhws27f/0sc_Del1.png[/img] [u]NO FOUND ONLY ORIGINAL RELEASE[/u] [img]http://i.imgur.com/GDNQx1Z.png[/img] My release is always in double track audio italian and Original audio for select it use VLC or dvd player home not use wmp Equity (2016) [img]http://extraimage.net/images/2017/01/14/bd363e0b6cea16ccb41b4256cf73c35d.png[/img] [URL=http://www.imdb.com/title/tt3958780/][IMG]http://www.userlogos.org/files/logos/Sucka/imdb_new.png[/IMG][/URL] [img]http://i.imgur.com/fGu1rKv.png[/img] Regia: Meera Menon. Genere: Drammatico durata 100 min. USA 2016 [img]http://i.imgur.com/W7kBqiE.png[/img] Alysia Reiner, Sarah Megan Thomas, Anna Gunn, James Purefoy, Craig Bierko. [img]http://i.imgur.com/bFK3ggF.png[/img] Naomi Bishop è un'esperta bancaria di investimenti e combatte per ottenere una promozione nel competitivo mondo di Wall Street. Dopo la crisi finanziaria globale e il restringimento delle norme di regolamentazione, Naomi verrà minacciata dai rischi di uno scandalo finanziario e dovrà tenere testa ad una complessa rete di corruzione. [img]http://i.imgur.com/48xHWWH.png[/img] Senior investment banker Naomi Bishop is threatened by a financial scandal and must untangle a web of corruption. .............. [img]http://i.imgur.com/K8bfNTy.png[/img] [img]http://extraimage.net/images/2017/01/14/789acdf4fd358ba9a9a4b0cef62e973f.png[/img] [img]http://extraimage.net/images/2017/01/14/507460a5033d1f250a3f6807e1074c24.png[/img] [img]http://extraimage.net/images/2017/01/14/e2902c742bf7ea26fc01a000eb570f19.png[/img] [img]http://i.imgur.com/aVrMohH.png[/img] [spoiler] Generale ID univoco : 133346414964227640766949811215286951793 (0x645195D9DDD4092B4DFD9036EB145F71) Nome completo : Equity (2016).H264.ita.eng.sub.ita.eng.iCV-MIRCrew.mkv Formato : Matroska Versione formato : Version 2 Dimensione : 1,43 GiB Durata : 1o 40min Bitrate totale : 2.045 Kbps Film : VISIT www.icv-crew.org Data codifica : UTC 2017-01-13 14:27:04 / UTC 2017-01-13 14:27:04 Creato con : Lavf54.63.100 Compressore : Lavf54.63.100 / Lavf54.63.100 Copyright : robbyrs Commento : VISIT www.icv-crew.org Video ID : 1 Formato : AVC Formato/Informazioni : Advanced Video Codec Profilo formato : [email protected] Impostazioni formato, CABAC : Si Impostazioni formato, ReFrames : 2 frame ID codec : V_MPEG4/ISO/AVC Durata : 1o 40min Bitrate : 1.280 Kbps Larghezza : 720 pixel Altezza : 390 pixel Rapporto aspetto visualizzazione : 1,85:1 Modalità frame rate : Costante Frame rate : 23,976 fps Spazio colore : YUV Croma subsampling : 4:2:0 Profondità bit : 8 bit Tipo scansione : Progressivo Bit/(pixel*frame) : 0.190 Dimensione della traccia : 887MiB (60%) Compressore : x264 core 130 r2273 Impostazioni compressione : cabac=1 / ref=2 / deblock=1:0:0 / analyse=0x1:0x131 / me=hex / subme=7 / psy=1 / psy_rd=1.00:0.00 / mixed_ref=0 / me_range=16 / chroma_me=1 / trellis=1 / 8x8dct=0 / cqm=0 / deadzone=21,11 / fast_pskip=1 / chroma_qp_offset=-2 / threads=12 / lookahead_threads=2 / sliced_threads=0 / nr=0 / decimate=1 / interlaced=0 / bluray_compat=0 / constrained_intra=0 / bframes=3 / b_pyramid=0 / b_adapt=1 / b_bias=0 / direct=3 / weightb=1 / open_gop=0 / weightp=2 / keyint=230 / keyint_min=23 / scenecut=40 / intra_refresh=0 / rc_lookahead=40 / rc=abr / mbtree=1 / bitrate=1280 / ratetol=1.0 / qcomp=0.60 / qpmin=10 / qpmax=69 / qpstep=4 / vbv_maxrate=24000 / vbv_bufsize=24000 / nal_hrd=none / ip_ratio=1.40 / aq=1:1.00 Lingua : Inglese Default : Si Forced : No Statistics Tags Issue : mkvmerge v8.7.0 ('All of the above') 64bit 2017-01-13 14:27:04 / Lavf54.63.100 2017-01-13 14:27:04 / UTC 2017-01-13 14:27:04 FromStats_BitRate : 8764302 FromStats_Duration : 01:40:20.941000000 FromStats_FrameCount : 144358 FromStats_StreamSize : 6596168335 Audio #1 ID : 2 Formato : AC-3 Formato/Informazioni : Audio Coding 3 Estensione modo : CM (complete main) Impostazioni formato, Endianness : Big ID codec : A_AC3 Durata : 1o 40min Modalità bitrate : Costante Bitrate : 384 Kbps Canali : 6 canali Posizione canali : Front: L C R, Side: L R, LFE Frequenza campionamento : 48,0 KHz Frame rate : 31,250 fps (1536 spf) Profondità bit : 16 bit Modo compressione : Con perdita Ritardo video : -5ms Dimensione della traccia : 276MiB (19%) Lingua : Italiano Default : Si Forced : No Statistics Tags Issue : mkvmerge v8.7.0 ('All of the above') 64bit 2017-01-13 14:27:04 / Lavf54.63.100 2017-01-13 14:27:04 / UTC 2017-01-13 14:27:04 FromStats_BitRate : 384000 FromStats_Duration : 01:40:20.064000000 FromStats_FrameCount : 188127 FromStats_StreamSize : 288963072 Audio #2 ID : 3 Formato : AC-3 Formato/Informazioni : Audio Coding 3 Estensione modo : CM (complete main) Impostazioni formato, Endianness : Big ID codec : A_AC3 Durata : 1o 40min Modalità bitrate : Costante Bitrate : 384 Kbps Canali : 6 canali Posizione canali : Front: L C R, Side: L R, LFE Frequenza campionamento : 48,0 KHz Frame rate : 31,250 fps (1536 spf) Profondità bit : 16 bit Modo compressione : Con perdita Ritardo video : -5ms Dimensione della traccia : 276MiB (19%) Lingua : Inglese Default : No Forced : No Statistics Tags Issue : mkvmerge v8.7.0 ('All of the above') 64bit 2017-01-13 14:27:04 / Lavf54.63.100 2017-01-13 14:27:04 / UTC 2017-01-13 14:27:04 FromStats_BitRate : 640000 FromStats_Duration : 01:40:21.024000000 FromStats_FrameCount : 188157 FromStats_StreamSize : 481681920 Testo #1 ID : 4 Formato : UTF-8 ID codec : S_TEXT/UTF8 ID codec/Informazioni : UTF-8 Plain Text Titolo : FORCED iTA Lingua : Italiano Default : Si Forced : No Statistics Tags Issue : mkvmerge v8.7.0 ('All of the above') 64bit 2017-01-13 14:27:04 / Lavf54.63.100 2017-01-13 14:27:04 / UTC 2017-01-13 14:27:04 FromStats_BitRate : 1 FromStats_Duration : 00:30:48.098000000 FromStats_FrameCount : 7 FromStats_StreamSize : 352 Testo #2 ID : 5 Formato : UTF-8 ID codec : S_TEXT/UTF8 ID codec/Informazioni : UTF-8 Plain Text Titolo : REGULAR iTA Lingua : Italiano Default : No Forced : No Statistics Tags Issue : mkvmerge v8.7.0 ('All of the above') 64bit 2017-01-13 14:27:04 / Lavf54.63.100 2017-01-13 14:27:04 / UTC 2017-01-13 14:27:04 FromStats_BitRate : 68 FromStats_Duration : 01:37:07.953000000 FromStats_FrameCount : 1360 FromStats_StreamSize : 49661 Testo #3 ID : 6 Formato : UTF-8 ID codec : S_TEXT/UTF8 ID codec/Informazioni : UTF-8 Plain Text Titolo : NON UDENTI ENG Lingua : Inglese Default : No Forced : No Statistics Tags Issue : mkvmerge v8.7.0 ('All of the above') 64bit 2017-01-13 14:27:04 / Lavf54.63.100 2017-01-13 14:27:04 / UTC 2017-01-13 14:27:04 FromStats_BitRate : 68 FromStats_Duration : 01:38:02.209000000 FromStats_FrameCount : 1518 FromStats_StreamSize : 50287 Menu 00:00:00.000 : :00:00:00.000 00:00:00.333 : :00:00:00.333 00:13:39.000 : :00:13:39.000 00:28:47.958 : :00:28:47.958 00:45:02.292 : :00:45:02.292 00:57:36.000 : :00:57:36.000 01:13:39.333 : :01:13:39.333 01:17:55.212 : :Chapter 13 01:20:30.200 : :Chapter 14 01:27:18.900 : :Chapter 15 01:34:16.859 : :Chapter 16 [/spoiler] [/color][/b][/center]

The Blacklist S03e21 (2016) DLMux- XviD - Ita Eng Mp3 - Sub Ita Eng

Language: | Size: 440 MB | Seed: 124 | Leech: 47

Description:

Stagione 3/3 Episodi: 23 Italia: 08/01/2016 al (In Corso) Usa: 01/10/2015 al (In Corso) GENERE: Drammatico IDEATORE: Jon Bokenkamp ATTORI: James Spader, Megan Boone, Diego Klattenhoff, Harry J. Lennix, Ryan Eggold, Amir Arison, Mozhan Marnò, Hisham Tawfiq, Parminder K. Nagra ANNO: 2013 PAESE: USA PRODUZIONE: Sony Pictures Television, Universal Television DURATA: 45 Min STATO: In Lavorazione Per decenni, Raymond ‘Red’ Reddington è stato uno dei latitanti più ricercati. Ora ha deciso misteriosamente di consegnarsi all’FBI con un’offerta allettante: aiutarla a catturare la lunga lista di malfattori – politici, mafiosi, spie e terroristi internazionali – con cui ha avuto a che fare nel corso degli anni, a patto di farlo solo con Elizabeth Keen, una profiler appena uscita da Quantico. Quali sono le vere intenzioni di Red? Perché ha scelto Elizabeth, con la quale non ha nessun legame apparente? Anche lei ha qualcosa da nascondere? 21. Susan Hargrave - Susan Hargrave Lo stato di Torrent: Verificato

A Little Chaos (2014) 1080p BluRay x264 AC3 - ETRG

Language: | Size: 4.1 GB | Seed: 124 | Leech: 23

Description:

A Little Chaos is a 2014 British period drama film directed by Alan Rickman. The story was conceived by Allison Deegan and she co-wrote the screenplay along with Alan Rickman and Jeremy Brock. The film stars Kate Winslet, Matthias Schoenaerts, Alan Rickman, Stanley Tucci, Helen McCrory, Steven Waddington, Jennifer Ehle and Rupert Penry-Jones. The film is financed by the Lionsgate UK and produced by BBC Films. It is the second film directed by Rickman, after his 1997 directorial debut The Winter Guest. It is the second collaboration of Rickman and Winslet after their 1995 film Sense and Sensibility. Production took place in London in mid 2013. The film had its world premiere at the 2014 Toronto International Film Festival as the closing night film on 13 September 2014.

Come Ammazzare Il Capo 2 (2014) iTALiAN AC3 HDRip XviD

Language: | Size: 1.37 GB | Seed: 124 | Leech: 98

Description:

Titolo originale: Horrible Bosses 2 Nazione: U.S.A. Anno: 2014 Genere: Commedia Durata: 104' Regia: Sean Anders Sito ufficiale: horriblebosses2.com Social network: facebook Cast: Jennifer Aniston, Jason Sudeikis, Jason Bateman, Charlie Day, Chris Pine, Christoph Waltz, Kevin Spacey, Jamie Foxx, Keeley Hazell Produzione: BenderSpink, New Line Cinema, RatPac Entertainment Distribuzione: Warner Bros. Pictures Italia Data di uscita: 08 Gennaio 2015 (cinema) Trama: Stufi di dover sempre rispondere agli ordini dei piani alti, Nick (Bateman), Dale (Day) e Kurt (Sudeikis), decidono di mettersi in proprio e diventare i capi di loro stessi. Ma un cinico investitore manderà da subito all’aria i loro piani. Senza futuro, disperati e senza alcun possibile ricorso legale, i tre aspiranti imprenditori mettono in atto un piano maldestro: rapire il figlio maggiore dell’investitore e chiedere come riscatto, di riprendere il controllo della loro azienda. risoluzione - 720x304 Parole chiave: commedia

Lolo FRENCH DVDRIP 2015

Language: | Size: 694.92 MB | Seed: 124 | Leech: 1

Description:

En thalasso à Biarritz avec sa meilleure amie, Violette, quadra parisienne travaillant dans la mode, rencontre Jean-René, un modeste informaticien fraîchement divorcé. Après des années de solitude, elle se laisse séduire. Il la rejoint à Paris, tentant de s'adapter au microcosme parisien dans lequel elle évolue. Mais c’est sans compter sur la présence de Lolo, le fils chéri de Violette, prêt à tout pour détruire le couple naissant et conserver sa place de favori.

The Target [El Objetivo] - ESP XViD DVDrip

Language: | Size: 1.21 GB | Seed: 124 | Leech: 69

Description:

Título: The Target (El objetivo) Título original: Pyojeok País: Corea del Sur Estreno en USA: Estreno en España: 06/03/2015 Lanzamiento en DVD (alquiler): 13/05/2015 Estreno en Corea del Sur: 30/04/2014 Productora: Yong Film Director: Chang Guión: Chang Reparto: Jin Guo, Yeo-Jeong Jo, Jin-Wook Lee, Ryu Seung-Ryong, Jun-Sang Yu, Eun-Ji Jo, Kim Sung-Ryoung Calificación: No recomendada para menores de 16 años Género: Acción. Thriller | Remake SINOPSIS: Un ex mercenario es incriminado en el asesinato un reconocido líder corporativo. Lo acompaña un médico corriente desesperado por salvar a su esposa embarazada, que ha sido secuestrada. Juntos se embarcan en una persecución extrema y peligrosa de 36 horas. Relaccionados

Belle e Sebastien (2013) BDRip 1080p - H264 - Ita Fra Ac3 - Sub Ita Eng

Language: | Size: 3.9 GB | Seed: 124 | Leech: 27

Description:

Titolo originale: Belle et Sébastien Nazione: Francia Anno: 2013 Genere: Commedia Durata: 98' Regia: Nicolas Vanier Cast: Tchéky Karyo, Dimitri Storoge, Margaux Châtelier, Félix Bossuet, Jan Oliver Schroeder Produzione: Radar Films, Epithète Films Data di uscita: Roma 2013 30 Gennaio 2014 (cinema) Trama: Durante la Seconda Guerra Mondiale, il piccolo orfano Sebastien trova conforto nell'amicizia con Belle, un grande cane dei Pirenei che abita nei boschi intorno al paese. Sebastien, colpito dalla dolcezza dell'animale, dovrà difenderlo da chi lo ritiene un feroce e pericoloso predatore. Ispirato al classico della letteratura francese e alla serie animata che ha appassionato più di una generazione... preparatevi a riscoprire la grande avventura di Belle & Sebastien, due amici inseparabili. Parole chiave: commedia

Dad's Army (2016), [XviD - Ita Ac3 - SoftSub Ita

Language: | Size: 1.37 GB | Seed: 124 | Leech: 47

Description:

Titolo originale: Dad's Army Nazionalità: Regno Unito Anno: 2016 Genere: commedia, storico, guerra Regia:Oliver Parker Bill Nighy: Sergente Arthur Wilson Catherine Zeta-Jones: Rose Winters Toby Jones: Capitano George Mainwaring Michael Gambon: Charles Godfray Tom Courtenay: Caporale Jones Mark Gatiss: Colonnello Theakes Daniel Mays: Walker Alison Steadman: Sig.ra Fox Bill Paterson: James Frazer Frank Williams: Reverendo Timothy Farthing 1944. La seconda guerra mondiale sta per volgere al termine, le truppe americane stanno per invadere la Francia e liberarla dall' esercito tedesco, ma nella piccola città di Walmington-on-Sea il morale e la guardia sono basse. Una nuova missione attende i soldati: pattugliare una base militare di Dover, la quale sarà fonte di riscatto, almeno fino a quando non arriva Rose Winters, affascinante giornalista che scriverà tutte le gesta dei coraggiosi ufficiali. Winters farà innamorare gli uomini e ingelosire le donne, le quali si trovano sempre più in disparte. Nel frattempo all'MI5 arriverà un segnale radio inviato a Berlino da Walmington-on-Sea. Il nemico è alle spalle. L'esito della guerra è in gioco, il rischio è alto e questi eroi metteranno in gioco tutta la loro abilità.

Broken Brass Ensemble 2015 Brasshopper

Language: | Size: 85.13 MB | Seed: 124 | Leech: 32

Description:

Track List: Head Start Brass Brothers Hoe Het Is (ft. Rico) Got The Funk Baby's Gone (ft. Ruben Hein) Pushin' The Soundsystem Windsurfing Wild Man Blues Voodoo Mama (ft. Benjamin Herman) Bouncing Off The Walls I'll Fly Away (ft. Harmen Ridderbos - Town of Saints)

George Michael - Greatest Hits (2008) (by emi)

Language: | Size: 220.79 MB | Seed: 124 | Leech: 11

Description:

mp3 a 192 kbps audio di qualità a 95 db Tracklist CD 1 01 - Freedom! '90.mp3 (9.0 MB) 02 - Fastlove.mp3 (7.6 MB) 03 - Careless Whisper.mp3 (7.1 MB) 04 - Father Figure.mp3 (7.9 MB) 05 - Spinning The Wheel.mp3 (8.6 MB) 06 - Praying For Time.mp3 (6.6 MB) 07 - Jesus To A Child.mp3 (9.5 MB) 08 - Don't Let The Sun Go Down On Me (Feat. Elton John ).mp3 (8.1 MB) 09 - Cowboys And Angels.mp3 (8.2 MB) 10 - Faith.mp3 (4.6 MB) 11 - Too Funky.mp3 (5.3 MB) 12 - I Want Your Sex, Pt. 2.mp3 (6.5 MB) 13 - One More Try.mp3 (8.2 MB) 14 - Kissing A Fool.mp3 (6.5 MB) 15 - Somebody To Love.mp3 (7.5 MB) CD 2 01 - Older.mp3 (7.7 MB) 02 - As (Feat. Mary J.Blige).mp3 (6.6 MB) 03 - This Is Not Real Love (Feat. Mutya Buena).mp3 (6.9 MB) 04 - Amazing.mp3 (6.2 MB) 05 - Outside.mp3 (6.6 MB) 06 - Flawless (Go To The City).mp3 (6.8 MB) 07 - You Know That I Want To.mp3 (6.4 MB) 08 - Roxanne.mp3 (5.9 MB) 09 - They Won't Go When I Go.mp3 (6.9 MB) 10 - Miss Sarajevo.mp3 (7.0 MB) 11 - You Have Been Loved.mp3 (7.7 MB) 12 - Round Here.mp3 (8.3 MB) 13 - An Easier Affair.mp3 (6.4 MB) 14 - The Strangest Things.mp3 (6.6 MB) 15 - Star People '97.mp3 (7.1 MB) 16 - Last Christmas.mp3 (6.3 MB)

Magic Mike (2012) .mkv FullHD m1080p iTA AC3 5.1 384 x264

Language: | Size: 1.91 GB | Seed: 123 | Leech: 68

Description:

Film | Dimensione: 1.91 GB | Seeders: 10 | Leechers: 6 | Completato: 109 | Agiorna Titolo originale: Magic Mike Nazione: U.S.A. Anno: 2012 Genere: Commedia Durata: 110' Regia: Steven Soderbergh Sito ufficiale: magicmikemovie.warnerbros.com Sito italiano: www.magicmikeilfilm.it Cast: Channing Tatum, Alex Pettyfer, Matt Bomer, Matthew McConaughey, Joe Manganiello, Olivia Munn, Denise Vasi, Mircea Monroe, Riley Keough, Kevin Nash, Wendi McLendon-Covey Produzione: Nick Wechsler Productions Data di uscita: 21 Settembre 2012 (cinema) Trama: Mike (Channing Tatum) è un imprenditore di talento e grande fascino che insegue il Sogno Americano, ma di notte... diventa la star di uno spettacolo tutto al maschile: Magic Mike! Si esibisce tutte le sere in un locale gestito dall’altrettanto affascinante Dallas (Matthew McConaughey) dove avrà modo trasmettere l’arte del ballo, del rimorchio e dei soldi facili ai giovani arrivati, tra cui The Kid (Alex Pettyfer). Lo spettacolo è garantito! Parole chiave: commedia

Poliziotto In Prova 2014 iTALiAN DVD9

Language: | Size: 6.92 GB | Seed: 123 | Leech: 38

Description:

TITOLO ORIGINALE: Ride Along PAESE: USA ANNO: 2014 GENERE: Azione, Commedia DURATA: 99 Min REGIA: Tim Story ATTORI: Ice Cube, Kevin Hart, John Leguizamo, Bruce McGill, Laurence Fishburne DATA USCITA: 22 maggio 2014 TRAMA: Per capire se è degno di sposare sua sorella, James, poliziotto dai metodi rudi, chiede al futuro cognato Ben, guardia giurata, di accompagnarlo per 24 ore durante il suo giro di pattugliamento per le strade di Atlanta. MENU: Si EXTRA: No QUALITA: DVD9 Copia 1:1 SOTTOTITOLI: Si AUDIO: Ita, Eng, Spa, Ger, Fre FORMATO: Iso VALUTAZIONE: Parole chiave: poliziotto in prova azione commedia ice cube kevin hart 2014

Dexter S08e09 La colonna sonora della tua vita BDRip AC3 1080p iTA-ENG mkv

Language: | Size: 1.97 GB | Seed: 123 | Leech: 56

Description:

Dexter è una serie televisiva statunitense prodotta dal 2006 al 2013 e trasmessa in prima visione negli Stati Uniti da Showtime. La storia ruota intorno al personaggio di Dexter Morgan, all'apparenza un tranquillo e metodico tecnico della polizia scientifica di Miami, in realtà un feroce e spietato serial killer, che però agisce seguendo un proprio rigoroso codice: uccidere soltanto criminali che sono sfuggiti alla giustizia. La serie è basata (solo per quanto riguarda la prima stagione) sul romanzo La mano sinistra di Dio di Jeff Lindsay. Esistono anche altri libri sul personaggio, sempre dello stesso autore, che seguono però una diversa continuity rispetto alla serie. L'ottava e ultima stagione della serie televisiva Dexter è stata trasmessa in prima visione assoluta negli Stati Uniti dal canale via cavo Showtime dal 30 giugno al 22 settembre 2013. In Italia, la stagione è andata in onda in prima visione satellitare su Fox Crime, canale a pagamento della piattaforma Sky, dal 13 settembre al 29 novembre 2013; in chiaro, è stata trasmessa da Rai 4 dal 10 settembre al 15 ottobre 2014. Geoff Pierson e Aimee Garcia entrano a far parte del cast principale. nº Titolo originale Titolo italiano Prima TV USA Prima TV Italia 1 A Beautiful Day Una splendida giornata 30 giugno 2013 13 settembre 2013 2 Every Silver Lining... Il rovescio della medaglia 7 luglio 2013 20 settembre 2013 3 What's Eating Dexter Morgan? Sensi di colpa 14 luglio 2013 27 settembre 2013 4 Scar Tissue A metà dell'opera 21 luglio 2013 4 ottobre 2013 5 This Little Piggy Questo porcellino 28 luglio 2013 11 ottobre 2013 6 A Little Reflection Un momento di riflessione 4 agosto 2013 18 ottobre 2013 7 Dress Code Dress code 11 agosto 2013 25 ottobre 2013 8 Are We There Yet? Siamo già arrivati? 18 agosto 2013 1º novembre 2013 9 Make Your Own Kind of Music La colonna sonora della tua vita 25 agosto 2013 8 novembre 2013 10 Goodbye Miami Addio Miami 8 settembre 2013 15 novembre 2013 11 Monkey in a Box Caccia all'uomo 15 settembre 2013 22 novembre 2013 12 Remember the Monsters? Ricorda i mostri 22 settembre 2013 29 novembre 2013

Lorrie Moore - Il folletto distratto e la bambina capricciosa, [Pdf Epub Mobi Azw3 - Ita]

Language: | Size: 10.5 MB | Seed: 123 | Leech: 87

Description:

Autore: Lorrie Moore Titolo: Il folletto distratto e la bambina capricciosa Lingua: Italiano Titolo originale: The Forgotten Helper Traduzione di Marcella Maffi Illustrazioni di T. Lewis Genere: Romanzo per ragazzi Edizione : Sperling & Kupfer 2009 Dimensione del file: 10,5 MB Formato del file: Pdf Epub Mobi Azw3 Babbo Natale ha dimenticato uno dei suoi aiutanti su un tetto della città. Questo è un grosso guaio per Aben, il folletto più abile a confezionare regali ma anche più propenso a combinare guai, tra tutti gli aiutanti di Babbo Natale. Voleva solo dare un'occhiatina giù per la canna fumaria dell'ultima casa, ma quando Aben è tornato sul tetto slitta, renne e il grande vecchio con la barba bianca erano spariti. E lui si sa, torna nelle case solo una volta l'anno. E non è nemmeno detto che ci torni perché Babbo Natale arriva solo se si è stati buoni e ubbidienti. E questo è il secondo grande problema di Aben! Perché il tetto sul quale si trova è quello di Ivy: la bambina più capricciosa della città. Chissà se Babbo Natale tornerà a consegnarle regali! Lorrie Moore, nata Marie Lorena Moore (Glens Falls, 13 gennaio 1957), è una scrittrice statunitense, nota soprattutto per i suoi racconti distinti da uno humor ironico ed intelligente. Marie Lorena Moore ricevette lo pseudonimo "Lorrie" dai suoi genitori. Ha frequentato la St. Lawrence University. A diciannove anni vinse un concorso letterario della rivista Seventeen. Dopo la laurea si trasferì a Manhattan, dove lavorò come assistente legale per due anni. Nel 1980 la Moore si iscrisse al Master of Fine Arts presso la Cornell University. Finiti gli studi alla Cornell uno dei suoi insegnanti l'incoraggiò a contattare l'agente Melanie Jackson. A soli ventisei anni uscì il suo primo libro (Self-Help), composto quasi completamente da racconti tratti dalla sua tesi di laurea. Ha contribuito a The Paris Review e le raccolte di suoi racconti sono Like Life, Self Help, e Birds of America.. Il suo primo racconto pubblicato su The New Yorker, "You're Ugly, Too," è stato più tardi inserito nella lista dei Migliori racconti americani del secolo (The Best American Short Stories of the Century), curato da John Updike. Un altro racconto, People Like That Are the Only People Here è stato ristampato nella collezione annuale The Best American Short Stories. Tratta spesso temi amorosi e ricorrentemente di malattie terminali. Attualmente insegna presso la University of Wisconsin.

Due uomini e mezzo S09e13-14, [XviD - Ita Mp3]

Language: | Size: 349.95 MB | Seed: 123 | Leech: 62

Description:

La sitcom inizia dal trasloco di Alan e suo figlio Jake a casa di Charlie, fratello di Alan, in seguito alla separazione di quest'ultimo da sua moglie Judith. Le storie narrate si incentrano sulle situazioni spesso comiche nate dalle diverse abitudini e stili di vita di Charlie, scapolo di professione, compositore musicale per jingle pubblicitari, donnaiolo di successo, viziato e dalla vita agiata, e di suo fratello Alan, separato e con figlio al seguito, di professione chiropratico, molto più tranquillo, ma maniacalmente preciso. Il loro rapporto è anche scombussolato dalle incursioni della madre dei due, Evelyn, ricca agente immobiliare e donna superficiale con la quale i due figli hanno un rapporto perennemente conflittuale e dalla governante Berta, considerata ormai come una di famiglia, ma con un fare molto rozzo e mascolino.

Jurassic World (2015) 720p BrRip x264 - YIFY

Language: | Size: 870.52 MB | Seed: 123 | Leech: 19

Description:

Steven Spielberg returns to executive produce the long-awaited next installment of his groundbreaking Jurassic Park series, Jurassic World. Colin Trevorrow directs the epic action-adventure based on characters created by Michael Crichton. The screenplay is by Rick Jaffa & Amanda Silver and Trevorrow & Derek Connolly, and the story is by Rick Jaffa & Amanda Silver. Frank Marshall and Patrick Crowley join the team as producers.

McFarland, USA - ESP XViD DVDrip

Language: | Size: 1.4 GB | Seed: 123 | Leech: 17

Description:

Descripción: McFarland, USA Dirección: Niki Caro País: USA Año: (2015) Duración: 128 min. Género: Deportes, Drama Guión: Chris Cleveland, Bettina Gilois y Grant Thompson. Producción: Mark Ciardi,Gordon Gray Música: Antônio Pinto Fecha Estreno: 20-02-2015 Estreno en España: 2015 Reparto: Kevin Costner, Maria Bello, Morgan Saylor, Elsie Fisher, Vincent Martella, Martha Higareda, Daniel Moncada, Mariann Gavelo, Carlos Pratts, Catherine Toribio, Diana Maria Riva, Hector Duran, Connor Weil, Chelsea Rendon, Vanessa Martinez. Sinopsis Basada en una historia real de 1980, McFarland narra las peripecias de un entrenador de atletimo que intenta reconstruir un equipo de la escuela secundaria de una pequeña ciudad de California. Costner tendrá que hacer frente a multitud de obstáculos -físicos y sociales-, pero la capacidad de superación -fuente de inspiración muy recurrente en las películas de Disney- se verá recompensada en la victoria del grupo.

I, Frankenstein 2014 - 3D - ENG

Language: | Size: 1.44 GB | Seed: 123 | Leech: 93

Description:

Genres: Action | Fantasy | Sci-Fi Quality: 3D (Resolution: 1920 x 1080) Size: 1.44 GB Frame Rate: 23.976 fps Runtime: 92 minutes / 01 h 32 m Language: English Released Date: 30 January 2014 MPR: PG-13 IMDB Rating: 5.2 TomatoMeter: 3% Audience Score: 39% Seeds: 6 Peers: 0 Directors: Stuart Beattie Writers: Stuart Beattie, Kevin Grevioux, Mary Shelley Cast: Aaron Eckhart, Yvonne Strahovski, Miranda Otto, Bill Nighy, Jai Courtney, Socratis Otto, Aden Young, Caitlin Stasey, Mahesh Jadu Movie Description: Dr Victor Frankenstein dies frozen to death and the creature buries him at the cemetery of his family. However he is attacked by demons but he kills one of them and Gargoyles save him and take him to a Cathedral where the Gargoyles Order gathers. The Queen of the Gargoyles Leonore keeps Dr. Frankenstein's journal together with the treasures of the Order and gives the name of Adam to the creature. Then she explains to Adam that there is an ancient war between the Gargoyles that are angels and demons under the command of the Prince Naberius. She also invites Adam to join the Gargoyles in the war against demons, but Adam prefers to isolate in a remote place. Two hundred years later, Adam returns and finds a modern society. Soon he learns that Naberius has the intention of creating an army of soulless corpses to be possessed by demons. The scientist Terra is researching a process to create life and Naberius is seeking Dr Frankenstein's journal to help Terra and raise his army. Screenshots

Gomorra: La Serie (2016) S02e10 480p HDTVRip - x264 - Ita Aac Ac3 Sub

Language: | Size: 415.83 MB | Seed: 123 | Leech: 95

Description:

Titolo originale Gomorra - La serie Paese Italia Anno 2014 – in produzione Formato serie TV Genere drammatico, gangster, noir Stagioni 2 Episodi 24 Durata circa 50 min (episodio) Lingua originale napoletano, italiano Interpreti e personaggi Salvatore Esposito: Genny Savastano Marco D'Amore: Ciro Di Marzio Marco Palvetti: Salvatore Conte Fortunato Cerlino: Pietro Savastano Maria Pia Calzone: Imma Savastano Cristina Donadio: Scianel Antonio Folletto: O' Principe Cristiana Dell'Anna: Patrizia Don Pietro ritorna in casa e riceve Patrizia per chiederle cosa stia accadendo dopo l'improvvisa morte di 'O Principe. La donna gli racconta che tra i ragazzi regna il caos perché tutti si accusano a vicenda.... @wikipedia 10. Episodio 10 7 giugno 2016 Parole chiave: drammatico gangster noir

dolphin [2016, Action (Shooters, MMO FPS, TPS)] EN

Language: | Size: 5.87 MB | Seed: 123 | Leech: 82

Description:

Title: dolphin Genre: Action (Shooters, MMO FPS, TPS) Platform: Mac Multiplayer: No Year: 2016 Type of publication: Language of the game: EN Crack: Not Required Description : Dolphin is a Gamecube and Wii emulator . Most games run perfectly or with minor bugs. Games are playable at HD quality, with 1080p and more.Dolphin comes with many features. Some are even not available on the original Wii gaming console. You can save a running game whenever you want and reload a state. Anti-Aliasing and Anisotropic Filtering makes the games more brilliant and realistic. Typically a game looks much better on Dolphin than on the original Wii console. System requirements: Windows XP or higher, or Linux, or MacOSX Intel. Fast CPU with SSE2. GPU with Pixel Shader 2.0 or greater. Some integrated graphics chips work but it depends on the model (and only with DirectX 9). Runtime Library Requirements You will need the libraries listed below to run Dolphin: MS Visual C++ Runtime 2008 SP1 (fixes the "side by side" / "application config" & model errors) Microsoft Visual C++ 2008 SP1 Redistributable Package (x86) Microsoft Visual C++ 2008 SP1 Redistributable Package (x64) DirectX March 2009 Runtime (fixes the plugin loading errors) DirectX End-User Runtime Web Installer Video Card Requirements You must have a video card that supports OpenGL 2.x fully or Direct3D 9.0c. Make sure your graphic drivers are up to date. ATI Drivers NVIDIA Drivers Size: 6.15 MB Uploaded date: 2016-02-23 14:07:59

Ma Loute FRENCH DVDRIP 2016

Language: | Size: 1.37 GB | Seed: 123 | Leech: 0

Description:

Ma.Loute.2016.FRENCH.BDRip.XViD-FUNKKY Eté 1910, Baie de la Slack dans le Nord de la France. De mystérieuses disparitions mettent en émoi la région. L'improbable inspecteur Machin et son sagace Malfoy (mal)mènent l'enquête. Ils se retrouvent bien malgré eux, au cœur d'une étrange et dévorante histoire d'amour entre Ma Loute, fils ainé d'une famille de pêcheurs aux mœurs bien particulières et Billie de la famille Van Peteghem, riches bourgeois lillois décadents.

Project Almanac (2014) 1080p BDRip [2014, Sci-Fi, Thriller Blu-Ray Disc] EN

Language: | Size: 3.88 GB | Seed: 123 | Leech: 63

Description:

Title: Project Almanac (2014) 1080p BDRip Country: USA Region: Hollywood movies Genre: Sci-Fi, Thriller Duration: 01:46:00 Year: 2014 Language: EN Subtitle: English Director: Dean Israelite Cast: Amy Landecker, Sofia Black-D'Elia, Virginia Gardner Description: A group of teens discover secret plans of a time machine, and construct one. However, things start to get out of control. Rating: Quality: Blu-Ray Disc Format: MKV Video codec: 4950 Kbps, 1920*800 (2.40:1), 23.976 fps, x264 Audio codec: 640 Kbps, 48.0 KHz, 6 Channels, AC3

Darius Rucker 2015 Southern Style

Language: | Size: 109.08 MB | Seed: 123 | Leech: 32

Description:

Track List: Homegrown Honey Good For a Good Time Baby I'm Right (feat. Mallary Hope) Southern Style High On Life Perfect You, Me and My Guitar Low Country Need You More Half Full Dixie Cup Lighter Up You Can Have Charleston So I Sang

War Dogs - Trafficanti (2016).H264.Italian.English.Ac3.5.1.sub.ita.eng.iCV-MIRCrew

Language: | Size: 1.73 GB | Seed: 123 | Leech: 34

Description:

War Dogs - Trafficanti (2016).H264.Italian.English.Ac3.5.1.sub.ita.eng.iCV-MIRCrew [img]http://i.imgur.com/GDNQx1Z.png[/img] My release is always in double track audio italian and Original audio for select it use VLC or dvd player home not use wmp Trafficanti - War Dogs (2016) [img]http://extraimage.net/images/2016/12/24/e6a49892d78e70690d0401934ced9141.png[/img] [URL=http://www.imdb.com/title/tt2005151/][IMG]http://www.userlogos.org/files/logos/Sucka/imdb_new.png[/IMG][/URL] [img]http://s19.postimage.org/bgh0za7kj/banner_scheda.gif[/img] DATA USCITA: 15 settembre 2016 GENERE: Commedia , Drammatico , Thriller , Azione ANNO: 2016 REGIA: Todd Phillips SCENEGGIATURA: Stephen Chin, Todd Phillips, Jason Smilovic FOTOGRAFIA: Lawrence Sher MONTAGGIO: Jeff Groth MUSICHE: Cliff Martinez PRODUZIONE: Green Hat Films, Mark Gordon Company DISTRIBUZIONE: Warner Bros. PAESE: USA DURATA: 149 Min [img]http://s19.postimage.org/i9hdvjydv/banner_trama.gif[/img] Jonah Hill, Miles Teller, Ana de Armas, Bradley Cooper, Shaun Toub, Barry Livingston, Brenda Koo, JB Blanc, Said Faraj [img]http://s19.postimage.org/i9hdvjydv/banner_trama.gif[/img] Ispirato ad una storia vera, Trafficanti segue le vicende di due amici di Miami poco più che ventenni durante il periodo della prima Guerra in Iraq, che sfruttando un'iniziativa semisconosciuta del governo, iniziano una piccola attività relativa a contratti dell’esercito U.S.A.. [img]http://s19.postimage.org/nwdqt10wj/banner_storyline.gif[/img] Based on the true story of two young men, David Packouz and Efraim Diveroli, who won a $300 million contract from the Pentagon to arm America's allies in Afghanistan. [img]http://i.imgur.com/GgEl7ea.png[/img] [url=https://extraimage.net/image/2s6D][img]http://extraimage.net/images/2016/12/24/3c067274848ba2218c822e2f9632f852.th.png[/img][/url] [url=https://extraimage.net/image/2s65][img]http://extraimage.net/images/2016/12/24/4a786cd0d5bb982ee53dc134c6ab9aac.th.png[/img][/url] [url=https://extraimage.net/image/2s6H][img]http://extraimage.net/images/2016/12/24/d0e55b3d229412b44ffe2096b03d46c5.th.png[/img][/url] [url=https://extraimage.net/image/2s6k][img]http://extraimage.net/images/2016/12/24/80281ba4d0857fd706a85bb97c58a445.th.png[/img][/url] [img]http://i.imgur.com/cWb6Z.gif[/img] [img]http://s19.postimage.org/f07k2tzo3/banner_dati_file.gif[/img] [spoiler] General Unique ID : 233849275496458849809267407883349582696 (0xAFEDBB7274628E6ABD520C812ED4E368) Complete name : Trafficanti - War Dogs (2016).H264.ita.eng.sub.ita.eng.iCV-MIRCrew.mkv Format : Matroska Format version : Version 2 File size : 1.73 GiB Duration : 1h 54mn Overall bit rate : 2 171 Kbps Movie name : VISIT www.icv-crew.org Encoded date : UTC 2016-12-19 13:25:33 Writing application : Lavf54.63.100 Writing library : Lavf54.63.100 COPYRIGHT : robbyrs Video ID : 1 Format : AVC Format/Info : Advanced Video Codec Format profile : [email protected] Format settings, CABAC : Yes Format settings, ReFrames : 2 frames Codec ID : V_MPEG4/ISO/AVC Duration : 1h 54mn Bit rate : 1 270 Kbps Width : 720 pixels Height : 300 pixels Display aspect ratio : 2.40:1 Frame rate mode : Variable Frame rate : 23.976 fps Color space : YUV Chroma subsampling : 4:2:0 Bit depth : 8 bits Scan type : Progressive Bits/(Pixel*Frame) : 0.245 Stream size : 1 007 MiB (57%) Writing library : x264 core 130 r2273 Encoding settings : cabac=1 / ref=2 / deblock=1:0:0 / analyse=0x1:0x131 / me=hex / subme=7 / psy=1 / psy_rd=1.00:0.00 / mixed_ref=0 / me_range=16 / chroma_me=1 / trellis=1 / 8x8dct=0 / cqm=0 / deadzone=21,11 / fast_pskip=1 / chroma_qp_offset=-2 / threads=12 / lookahead_threads=2 / sliced_threads=0 / nr=0 / decimate=1 / interlaced=0 / bluray_compat=0 / constrained_intra=0 / bframes=3 / b_pyramid=0 / b_adapt=1 / b_bias=0 / direct=3 / weightb=1 / open_gop=0 / weightp=2 / keyint=230 / keyint_min=23 / scenecut=40 / intra_refresh=0 / rc_lookahead=40 / rc=2pass / mbtree=1 / bitrate=1270 / ratetol=1.0 / qcomp=0.60 / qpmin=10 / qpmax=69 / qpstep=4 / cplxblur=20.0 / qblur=0.5 / vbv_maxrate=24000 / vbv_bufsize=24000 / nal_hrd=none / ip_ratio=1.40 / aq=1:1.00 Language : English Default : Yes Forced : No DURATION : 01:54:12.846000000 NUMBER_OF_FRAMES : 164304 NUMBER_OF_BYTES : 7379997396 _STATISTICS_WRITING_APP : mkvmerge v8.7.0 ('All of the above') 64bit _STATISTICS_WRITING_DATE_UTC : 2016-12-13 10:45:55 _STATISTICS_TAGS : BPS DURATION NUMBER_OF_FRAMES NUMBER_OF_BYTES Audio #1 ID : 2 Format : AC-3 Format/Info : Audio Coding 3 Mode extension : CM (complete main) Codec ID : A_AC3 Duration : 1h 54mn Bit rate mode : Constant Bit rate : 448 Kbps Channel(s) : 6 channels Channel positions : Front: L C R, Side: L R, LFE Sampling rate : 48.0 KHz Bit depth : 16 bits Compression mode : Lossy Delay relative to video : 1mn 5s Stream size : 366 MiB (21%) Language : Italian Default : Yes Forced : No DURATION : 01:54:12.896000000 NUMBER_OF_FRAMES : 214153 NUMBER_OF_BYTES : 548231680 _STATISTICS_WRITING_APP : mkvmerge v8.7.0 ('All of the above') 64bit _STATISTICS_WRITING_DATE_UTC : 2016-12-13 10:45:55 _STATISTICS_TAGS : BPS DURATION NUMBER_OF_FRAMES NUMBER_OF_BYTES Audio #2 ID : 3 Format : AC-3 Format/Info : Audio Coding 3 Mode extension : CM (complete main) Codec ID : A_AC3 Duration : 1h 54mn Bit rate mode : Constant Bit rate : 448 Kbps Channel(s) : 6 channels Channel positions : Front: L C R, Side: L R, LFE Sampling rate : 48.0 KHz Bit depth : 16 bits Compression mode : Lossy Delay relative to video : 1mn 5s Stream size : 366 MiB (21%) Language : English Default : No Forced : No DURATION : 01:54:12.897000000 NUMBER_OF_FRAMES : 642459 NUMBER_OF_BYTES : 1292628100 _STATISTICS_WRITING_APP : mkvmerge v8.7.0 ('All of the above') 64bit _STATISTICS_WRITING_DATE_UTC : 2016-12-13 10:45:55 _STATISTICS_TAGS : BPS DURATION NUMBER_OF_FRAMES NUMBER_OF_BYTES Text #1 ID : 4 Format : UTF-8 Codec ID : S_TEXT/UTF8 Codec ID/Info : UTF-8 Plain Text Title : FORCED Language : Italian Default : Yes Forced : No DURATION : 01:53:17.665000000 NUMBER_OF_FRAMES : 33 NUMBER_OF_BYTES : 824 _STATISTICS_WRITING_APP : mkvmerge v8.7.0 ('All of the above') 64bit _STATISTICS_WRITING_DATE_UTC : 2016-12-13 10:45:55 _STATISTICS_TAGS : BPS DURATION NUMBER_OF_FRAMES NUMBER_OF_BYTES Text #2 ID : 5 Format : UTF-8 Codec ID : S_TEXT/UTF8 Codec ID/Info : UTF-8 Plain Text Title : NON UDENTI Language : Italian Default : No Forced : No DURATION : 01:53:19.333000000 NUMBER_OF_FRAMES : 1965 NUMBER_OF_BYTES : 64063 _STATISTICS_WRITING_APP : mkvmerge v8.7.0 ('All of the above') 64bit _STATISTICS_WRITING_DATE_UTC : 2016-12-13 10:45:55 _STATISTICS_TAGS : BPS DURATION NUMBER_OF_FRAMES NUMBER_OF_BYTES Text #3 ID : 6 Format : UTF-8 Codec ID : S_TEXT/UTF8 Codec ID/Info : UTF-8 Plain Text Title : NON UDENTI Language : English Default : No Forced : No DURATION : 01:53:19.334000000 NUMBER_OF_FRAMES : 1936 NUMBER_OF_BYTES : 65455 _STATISTICS_WRITING_APP : mkvmerge v8.7.0 ('All of the above') 64bit _STATISTICS_WRITING_DATE_UTC : 2016-12-13 10:45:55 _STATISTICS_TAGS : BPS DURATION NUMBER_OF_FRAMES NUMBER_OF_BYTES Menu 00:00:00.000 : :00:00:00.000 00:10:13.780 : :00:10:13.780 00:19:00.931 : :00:19:00.931 00:30:21.111 : :00:30:21.111 00:40:02.525 : :00:40:02.525 00:50:56.178 : :00:50:56.178 00:59:34.362 : :00:59:34.362 01:10:59.380 : :01:10:59.380 01:20:08.929 : :01:20:08.929 01:32:06.020 : :01:32:06.020 01:39:36.220 : :01:39:36.220 01:48:19.118 : :01:48:19.118 [/spoiler] [/color][/b][/center]

Gli stagisti (2013) BDRip 720p - H264 - Ita Ac3 5.1

Language: | Size: 2.14 GB | Seed: 122 | Leech: 73

Description:

http://pad.mymovies.it/filmclub/2012/12/060/locandina.jpg

Gomorra: La Serie (2016) S02e05 720p HDTV - H264 - Ita Ac3

Language: | Size: 2.04 GB | Seed: 122 | Leech: 68

Description:

Titolo originale Gomorra - La serie Paese Italia Anno 2014 – in produzione Formato serie TV Genere drammatico, gangster, noir Stagioni 2 Episodi 24 Durata circa 50 min (episodio) Lingua originale napoletano, italiano Interpreti e personaggi Salvatore Esposito: Genny Savastano Marco D'Amore: Ciro Di Marzio Marco Palvetti: Salvatore Conte Fortunato Cerlino: Pietro Savastano Maria Pia Calzone: Imma Savastano Cristina Donadio: Scianel Antonio Folletto: O' Principe Cristiana Dell'Anna: Patrizia La seconda stagione riprende dal finale della prima: Don Pietro è stato liberato dal furgone della polizia durante il trasferimento e Ciro, dopo aver stretto l'alleanza con Salvatore Conte, mette al sicuro Debora e la figlia Maria Rita dalla vendetta imminente dei Savastano. La donna, tuttavia, nutre crescente angoscia per il destino della giovanissima figlia, al punto tale da tentare di tradire il clan e di consegnare Ciro alla polizia. Sarà proprio Ciro, al culmine di un litigio, ad ucciderla involontariamente e a bruciarne poi il corpo. Intanto Genny, figlio di Don Pietro, è sopravvissuto all'attacco e gradualmente si rimette... @wikipedia 5 Occhi negli occhi 24 maggio 2016 Lo stato di Torrent: Verificato Trailer Aggiungi commento Torrenti correlati Segnala

Capitán Diente De Sable Y El Tesoro De Lama Rama - ESP XViD DVDrip

Language: | Size: 1.42 GB | Seed: 122 | Leech: 1

Description:

Descripción: Título: Capitán Diente de Sable y el tesoro de Lama Rama Título original: Kaptein Sabeltann og skatten i Lama Rama País: Noruega Estreno en USA: Estreno en España: 11/09/2015 Estreno en DVD (venta): 15/01/2016 Estreno en Noruega: 26/09/2014 Productora: Norwegian Pirates, Storm Films, Storm Productions Director: John Andreas Andersen, Lisa Marie Gamlem Guión: Terje Formoe, Lars Gudmestad Reparto: Tuva Novotny, Anders Baasmo Christiansen, Fridtjov Såheim, Jon Øigarden, Kyrre Haugen Sydness, Nils Jørgen Kaalstad, Pia Tjelta, Vinjar Pettersen, Robert Skjærstad, Odd Magnus Williamson, Janne Formoe, Andreas Cappelen, Sofie Bjerke, Hami Belal, Dag Håvard Engebråten Calificación: Apta para todos los públicos Genero: Aventuras, Familiar SINOPSIS: El Capitán y su tripulación, dos niños valientes, emprenden la excitante misión de encontrar el legendario tesoro del rey Rufus. Desde que Pinky sufrió un naufragio y fue el único superviviente, sólo tiene dos deseos: saber si su padre sigue vivo y convertirse en un pirata para unirse a la tripulación del famoso capitán Diente de Sable. Tiene 11 años y la oportunidad de su vida: la Dama Negra, el magnífico barco del capitán Diente de Sable, necesita un nuevo marinero de cubierta. Mientras que la ciudad del Puerto de Abra celebra la vuelta a casa del capitán Diente de Sable y la elección del nuevo marinero, Pinky

Turbo Kid - ESP XViD DVDrip

Language: | Size: 1.14 GB | Seed: 122 | Leech: 8

Description:

Descripción: Título: Turbo Kid Título original: Turbo Kid País: Canadá, Nueva Zelanda Duración: 89 min. Estreno en USA: 28/08/2015 Estreno en España: 11/12/2015 Lanzamiento en DVD (alquiler): 17/02/2016 Productora: EMA Films, Epic Pictures Group, Timpson Films Director: Anouk Whissell, Francois Simard, Yoann-Karl Whissell Guión: Anouk Whissell, Francois Simard, Yoann-Karl Whissell Reparto: Munro Chambers, Laurence Leboeuf, Michael Ironside, Aaron Jeffery, Edwin Wright, Romano Orzari, Orphée Ladouceur, Steeve Léonard, Yves Corbeil, Evan Manoukian, Anouk Whissell, François Simard, Tyler Hall, Martin Paquette, Pierre Sigouin Género: Ciencia ficción. Comedia. Acción | Futuro postapocalíptico. Gore. Años 90 SINOPSIS: Es el año 1997. Es el futuro. La tierra ha sido devastada por la lluvia de ácido y el agua se ha convertido en un bien escaso. The Kid, un chico que deambula por este paisaje desértico con su bicicleta BMX, tendrá que luchar contra el poderoso Zeus para rescatar a su amiga Apple, que ha sido secuestrada. Relaccionados

Adultos A La Fuerza - ESP XViD DVDrip

Language: | Size: 949.91 MB | Seed: 122 | Leech: 8

Description:

Descripción: ítulo original: Adult Beginners Año: 2014 Duración: 90 min. País: Estados Unidos Director: Ross Katz Reparto: Rose Byrne, Nick Kroll, Bobby Cannavale, Joel McHale, Caleb Paddock, Matthew Paddock, Caitlin FitzGerald, Paula Garcés, Josh Charles, Jane Krakowski, Bobby Moynihan, Mike Birbiglia, Jason Mantzoukas, David Bernon Género: Comedia. Drama | Familia SINOPSIS: Un joven y narcisista empresario sufre un accidente en la víspera del gran lanzamiento de su empresa. Ante el nuevo desorden de su vida, decide marcharse de Manhattan para trasladarse a las afueras con su hermana embarazada, su marido y su sobrino de tres años para encargarse de cuidarlo. Relaccionados Nombre FechaTamaño