Search Top Tags














La Madre (2013) m720p - H264 - Ita Aac Sub

Language: | Size: 1.61 GB | Seed: 750 | Leech: 17

Description:

Titolo originale: Mama Nazione: Canada, Spagna Anno: 2013 Genere: Horror Durata: 99' Regia: Andrés Muschietti Sito ufficiale: www.mamamovie.com Sito italiano: www.lamadre-ilfilm.it Cast: Jessica Chastain, Nikolaj Coster-Waldau, Megan Charpentier, Isabelle Nélisse, Daniel Kash, Javier Botet, Jane Moffat, Morgan McGarry, Julia Chantrey Produzione: Toma 78, De Milo Data di uscita: 21 Marzo 2013 (cinema) Trama: Le sorelle Victoria e Lilly scompaiono senza lasciare traccia. Da quel momento in poi, per cinque anni, lo zio Lucas (Nikolaj Coster-Waldau) e la sua fidanzata Annabel (Jessica Chastain), le cercano disperatamente. Nel momento però in cui, incredibilmente, le due vengono trovate vive in una baracca fatiscente, la coppia inizia a credere che le bambine non siano le uniche ospiti delle casa. Più Annabel cerca di far condurre alle ragazze una vita normale, più si rende conto che deve esserci una presenza maligna nella loro casa. Si tratta di stress post-traumatico oppure è un fantasma a tormentare le ragazze? Come hanno fatto le due a sopravvivere per tutti questi anni da sole, senza un soldo? Nel tentativo di rispondere a questi inquietanti interrogativi, la nuova madre scoprirà che i sussurri che sente nel buio provengono dalle labbra di una presenza letale. Subs iTA: Forced/Regular Parole chiave: horror

Ocean's Eleven - Fate il Vostro Gioco (2001) BDRip 720p - H265 - Ita Eng Ac3 5.1 - Sub Ita Eng

Language: | Size: 2.84 GB | Seed: 660 | Leech: 17

Description:

Titolo originale: Ocean's eleven Nazione: Usa Anno: 2001 Genere: Azione/Commedia Durata: 116 min. Regia: Steven Soderbergh Sito ufficiale: oceans11.warnerbros.com Cast: George Clooney, Brad Pitt, Julia Roberts, Don Cheadle, Matt Damon, Andy Garcia, Bernie Mac, Casey Affleck, Scott Caan. Produzione: Jerry Weintraub Productions, Village Roadshow Productions. Uscita prevista: 21 Dicembre 2001 (cinema) Trama: Dapper Danny Ocean (George Clooney) è un uomo d'azione. Neanche 24 ore dopo essere uscito dal penitenziario del New Jersey sta già programmendo il piano per rapinare i tre maggiori casinò di Las Vegas, durante un importante incontro pugilistico. Per far questo si avvale della collaborazione di 11 uomini tra cui tre specialisti... Formato: HEVC H265 Parole chiave: azione commedia

Outlander S02e01-05 (2016) DLMux - XviD - Ita Eng Mp3 - Sub Ita Eng

Language: | Size: 3.2 GB | Seed: 826 | Leech: 17

Description:

Stagione 2/2 Episodi: 13 Italia: 09/06/2016 al (In Corso) Usa: 09/04/2016 al 09/07/2016 GENERE: Drammatico IDEATORE: Ronald D. Moore ATTORI: Caitriona Balfe, Sam Heughan, Tobias Menzies, Graham McTavish, Duncan Lacroix, Grant O'Rourke, Stephen Walters, Gary Lewis, Lotte Verbeek, Bill Paterson, Laura Donnelly, Steven Cree, Stanley Weber, Douglas Henshall ANNO: 2014 PAESE: USA PRODUZIONE: Sony Pictures Television DURATA: 60 Min STATO: In Lavorazione Claire Randall, una donna sposata e un’infermiera della Seconda Guerra Mondiale, finisce misteriosamente in un’epoca passata, nel 1743, dove resta coinvolta velocemente in un mondo a lei estraneo ed eventi che mettono in pericolo la sua vita. Quando è costretta a sposare Jamie, un giovane guerriero scozzese galante e romantico, Claire è inebriata da questo nuovo amore passionale, il quale però si contrappone al suo primo matrimonio con Frank. Ed è così che il cuore di Claire si ritrova diviso tra due uomini molto diversi in due vite inconciliabili.

The Witcher 3 Wild Hunt Hearts of Stone 2.0.0.42 [2015, ] EN

Language: | Size: 4.25 GB | Seed: 812 | Leech: 17

Description:

Title: The Witcher 3 Wild Hunt Hearts of Stone 2.0.0.42 Genre: Platform: Windows Multiplayer: No Year: 2015 Type of publication: Language of the game: EN Crack: Description : Professional monster slayer is hired to deal with a ruthless bandit captain who possesses the power of immortality. Step again into the shoes of Geralt of Rivia, a professional monster slayer, this time hired to defeat a ruthless bandit captain, Olgierd von Everec, a man who possesses the power of immortality. This expansion to “The Witcher 3: Wild Hunt” packs over 10 hours of new adventures, introducing new characters, powerful monsters, unique romance and a brand new storyline shaped by your choices System requirements: OS: 64-bit Windows 7 or 64-bit Windows 8 (8.1) Processor: Intel CPU Core i5-2500K 3.3 GHz or AMD CPU Phenom II X4 940 Memory: 6 GB RAM Graphics: Nvidia GPU GeForce GTX 660 / AMD GPU Radeon HD 7870 Hard Drive: 35 GB of available space DirectX: 11 Size: 4.29GB Uploaded date: 2016-01-13 15:14:15 Views: 1052 Downloads: 98

Le confessioni (2016) BluRay m1080p iTA AC3 640 Kbps x264

Language: | Size: 3.2 GB | Seed: 894 | Leech: 17

Description:

Titolo originale: Le confessioni Nazione: Italia, Francia Anno: 2016 Genere: Drammatico Durata: 100' Regia: Roberto Andò Cast: Toni Servillo, Connie Nielsen, Pierfrancesco Favino, Julian Ovenden, Marie-Josée Croze, Daniel Auteuil, Moritz Bleibtreu, Lambert Wilson, Lambert Wilson, Michael Epp, Togo Igawa Produzione: Bibi Film TV Data di uscita: 21 Aprile 2016 (cinema) Trama: Germania. In un albergo di lusso sta per riunirsi un G8 dei ministri dell'economia pronto ad adottare una manovra segreta che avrà conseguenze molto pesanti per alcuni paesi. Con gli uomini di governo, ci sono anche il direttore del Fondo Monetario Internazionale, Daniel Roché, e tre ospiti: una celebre scrittrice di libri per bambini, una rock star, e un monaco italiano, Roberto Salus. Accade però un fatto tragico e inatteso e la riunione deve essere sospesa. In un clima di dubbio e di paura, i ministri e il monaco ingaggiano una sfida sempre più serrata intorno al segreto. I ministri sospettano infatti che Salus, attraverso la confessione di uno di loro, sia riuscito a sapere della terribile manovra che stanno per varare, e lo sollecitano in tutti i modi a dire quello che sa... Parole chiave: drammatico

Vice Principals S01E07 VOSTFR HDTV

Language: | Size: 231.1 MB | Seed: 342 | Leech: 17

Description:

Vice Principals S01E07 VOSTFR HDTV

NCIS S13E21 FRENCH HDTV

Language: | Size: 350.5 MB | Seed: 2373 | Leech: 17

Description:

NCIS S13E21 FRENCH HDTV

Kingsglaive: Final Fantasy XV FRENCH DVDRIP 2016

Language: | Size: 1.37 GB | Seed: 414 | Leech: 17

Description:

Kingsglaive.Final.Fantasy.XV.2016.FRENCH.BDRip.XviD-EXTREME "Film en images de synthèse réalisé par Square Enix, Kingsglaive fait partie d'un arc narratif autour de Final Fantasy XV, qui inclu également une série animée du nom de Brotherhood. Les événements décrits dans le film ""Kingsglaive"" se déroulent avant ceux du jeux Final Fantasy XV."

The.Conjuring.2.2016.720p.BluRay.x264.Hindi dabas

Language: | Size: 1.1 GB | Seed: 0 | Leech: 17

Description:

Format : Matroska Format version : Version 4 / Version 2 File size : 1.10 GiB Duration : 2 h 13 min Overall bit rate : 1 173 kb/s Movie name : The.Conjuring.2.2016.720p.BluRay.x264.Hindi.Eng.Tamil.Telugu.AC3-ETRG Encoded date : UTC 2016-09-28 03:11:00 Writing application : mkvmerge v9.4.2 ('So High') 32bit Writing library : libebml v1.3.4 + libmatroska v1.4.5 Video ID : 1 Format : AVC Format/Info : Advanced Video Codec Format profile : [email protected] Format settings, CABAC : Yes Format settings, ReFrames : 5 frames Codec ID : V_MPEG4/ISO/AVC Duration : 2 h 13 min Bit rate : 949 kb/s Width : 1 280 pixels Height : 536 pixels Display aspect ratio : 2.40:1 Frame rate mode : Constant Frame rate : 23.976 (24000/1001) FPS Color space : YUV Chroma subsampling : 4:2:0 Bit depth : 8 bits Scan type : Progressive Bits/(Pixel*Frame) : 0.058 Stream size : 907 MiB (81%) Title : The.Conjuring.2.2016. Writing library : x264 core 148 r2638 7599210 Encoding settings : cabac=1 / ref=5 / deblock=1:-1:-1 / analyse=0x3:0x113 / me=umh / subme=9 / psy=1 / psy_rd=1.00:0.15 / mixed_ref=1 / me_range=24 / chroma_me=1 / trellis=2 / 8x8dct=1 / cqm=0 / deadzone=21,11 / fast_pskip=0 / chroma_qp_offset=-3 / threads=17 / lookahead_threads=1 / sliced_threads=0 / nr=0 / decimate=1 / interlaced=0 / bluray_compat=0 / constrained_intra=0 / bframes=3 / b_pyramid=2 / b_adapt=2 / b_bias=0 / direct=3 / weightb=1 / open_gop=0 / weightp=2 / keyint=240 / keyint_min=23 / scenecut=40 / intra_refresh=0 / rc_lookahead=60 / rc=2pass / mbtree=1 / bitrate=949 / ratetol=1.0 / qcomp=0.60 / qpmin=0 / qpmax=69 / qpstep=4 / cplxblur=20.0 / qblur=0.5 / vbv_maxrate=31250 / vbv_bufsize=31250 / nal_hrd=none / filler=0 / ip_ratio=1.40 / aq=1:1.00 Language : English Default : Yes Forced : No Color range : Limited Color primaries : BT.709 Matrix coefficients : BT.709 Audio ID : 2 Format : AC-3 Format/Info : Audio Coding 3 Mode extension : CM (complete main) Format settings, Endianness : Big Codec ID : A_AC3 Duration : 2 h 13 min Bit rate mode : Constant Bit rate : 224 kb/s Channel(s) : 2 channels Channel positions : Front: L R Sampling rate : 48.0 kHz Frame rate : 31.250 FPS (1536 spf) Compression mode : Lossy Delay relative to video : 928 ms Stream size : 214 MiB (19%) Title : Hindi Org DABAS Language : Hindi Default : Yes Forced : No

Door To Door [2016, Adventure] EN

Language: | Size: 2.54 GB | Seed: 344 | Leech: 17

Description:

tle: Door To Door Genre: Adventure Platform: Windows Multiplayer: No Year: 2016 Type of publication: Language of the game: EN Crack: Available Description : Door to Door drops the player into the Lounge District of the Ministry of Order, an over-glorified bureaucratic metropolis full of Jazz and light. They will assume the role of an Agent named "Bixby", a detective whom works within the ministry in a department known as "Correction Pending". Bixby will be offered several cases involving a leisurely stroll through the dark but colorful and satirical setting the Ministry of Order offers. - Extract - Burn or mount the .iso - Run setup.exe and install - Copy crack from CODEX dir to installdir - Play System requirements:

Devoured Time [2016, Action-adventure] EN

Language: | Size: 1.53 GB | Seed: 175 | Leech: 17

Description:

Title: Devoured Time Genre: Action-adventure Platform: Windows Multiplayer: No Year: 2016 Type of publication: Language of the game: EN Crack: Not Available Description : Devoured Time is an RPG that takes place in world ravaged by creatures from strange rifts. You choose from a male or female who's recently arrived from a teleportation platform with no memory of who you are or where you came from. To learn who you are you must first figure out a way to return to where you came from. INSTALL NOTES 1. Unpack the release 2. Mount or burn image 3. Install 4. Play the game 5. Support the companies, which software you actually enjoy! GREETINGS

Tank Defense Division [2016, Action (Shooters, MMO FPS, TPS)] EN

Language: | Size: 1.22 GB | Seed: 814 | Leech: 17

Description:

TiTitle: Tank Defense Division Genre: Action (Shooters, MMO FPS, TPS) Platform: Windows Multiplayer: No Year: 2016 Type of publication: Language of the game: EN Crack: Available Description : Tank Defense Divisionis an arcade-like strategy game in which the player is a part of theFallhearth Federation's Tank Defense Division. The player's responsible for testing out prototype tanks against foreign enemies to show their viability on the battlefield. The game comes with both single player campaigns and co-op. Along with a diverse selection of Levels, Enemies, and Game modes to Explore, Battle, Build upon, and Share. 1. Extract release 2. Mount ISO 3. Install the game 4. Copy crack from the PLAZA folder 5. Play! System requirements: RECOMMENDED: OS: Windows 10 Processor: Dual Core Intel or AMD CPU Memory: 4 GB RAM Graphics: Discrete Graphics card with Direct X 11 support. DirectX: Version 11

Cell (2016) 1080p BDRip [2016, Horror, Sci-Fi, Thriller Blu-Ray Disc] EN

Language: | Size: 5.82 GB | Seed: 869 | Leech: 17

Description:

Title: Cell (2016) 1080p BDRip Country: USA Region: Hollywood movies Genre: Horror, Sci-Fi, Thriller Duration: 01:37:00 Year: 2016 Language: EN Subtitle: English Director: Tod Williams Cast: John Cusack, Samuel L. Jackson, Isabelle Fuhrman Description: When a mysterious cell phone signal causes apocalyptic chaos, an artist is determined to reunite with his young son in New England. Rating: Quality: Blu-Ray Disc Format: MKV Video codec: 8112 Kbps, 1920*800 (2.40:1), 23.976 fps, x264 Audio codec: 448 Kbps, 48.0 KHz, 6 Channels, AC3

Paranormal Activity Ghost Dimension (2015) EXTENDED 1080p BDRip [2015, Horror Blu-Ray Disc] EN

Language: | Size: 3.99 GB | Seed: 335 | Leech: 17

Description:

Title: Paranormal Activity Ghost Dimension (2015) EXTENDED 1080p BDRip Country: USA Region: Hollywood movies Genre: Horror Duration: 01:37:00 Year: 2015 Language: EN Subtitle: English Director: Gregory Plotkin Cast: Chris J. Murray, Brit Shaw, Ivy George Description: Using a special camera that can see spirits, a family must protect their daughter from an evil entity with a sinister plan. Rating: Quality: Blu-Ray Disc Format: MP4 Video codec: 5223 Kbps, 1920*1080 (16:9), 23.976 fps, x264 Audio codec: 640 Kbps, 48.0 KHz, 6 Channels, AC3

uTorrent Pro 3.4.9 Build 42606 Stable + Portable

Language: | Size: 67.83 MB | Seed: 29 | Leech: 17

Description:

uTorrent is an efficient BitTorrent client for Windows. Most of the features present in other BitTorrent clients are present in uTorrent, including bandwidth prioritization, scheduling, RSS auto-downloading, and Mainline DHT. Additionally, uTorrent supports the protocol encryption joint specification and peer exchange. Unlike many torrent clients, it does not hog valuable system resources–typically using less than 6MB of memory, allowing you to use the computer as if it weren’t there at all. µTorrent PRO features: Stream Instantly Watch or preview torrents as they download, without waiting for the completed file. Convert, download and play in…

The Hunger Games - Il Canto della Rivolta Parte I (2014) [DVD9 - Ita Eng 5.1 - N.U. Ita Eng subs]

Language: | Size: 6.67 GB | Seed: 12 | Leech: 17

Description:

Titolo originale: The Hunger Games: Mockingjay - Part 1 Nazione: Usa Anno: 2014 Genere: Azione, Fantascienza, Thriller Durata: 117' Regia: Francis Lawrence Sito Italiano: http://www.thehungergamesexclusive.com/intl/it/issue2/1 Cast: Jennifer Lawrence, Josh Hutcherson, Liam Hemsworth, Woody Harrelson, Elizabeth Banks. Produzione: Lions Gate Entertainment, Color Force Distribuzione: Universal Picturers Data di uscita: Giovedì 20 Novembre 2014 Trama: Katniss Everdeen si trova nel Distretto 13 in stato confusionale, dopo aver distrutto l'arena dei 75° Hunger Games. Appena la ragazza inizia a riprendersi viene nominata da Plutarch Heavensbee e dalla presidentessa Alma Coin come immagine simbolo della ribellione, ma la ragazza, ormai nota a tutti come la "ghiandaia imitatrice", rifiuta l'offerta poiché ancora molto turbata dagli ultimi avvenimenti, dove si era resa conto infine che tutta l'edizione speciale dei precedenti Hunger Games era in realtà parzialmente controllata dai ribelli, tra i quali lo stesso Plutarch Heavensbee. Alma Coin, presidente del distretto 13, decide di lasciare tempo a Katniss per riflettere sulla proposta di rappresentare i ribelli; su consiglio di Plutarch la spedisce nel distretto 12, dove la ragazza rimane scioccata dalla visione della devastazione lasciata dopo l'attacco di Capitol City. Qui si reca anche nella sua casa, nel villaggio dei vincitori, lasciata integra per simboleggiare la forza di Capitol City (che non crolla mai, come detto dal presidente Snow). Dopo aver recuperato alcuni oggetti e Ranuncolo, il gatto della sorella, Katniss torna al 13, dove la sera stessa viene trasmesso uno speciale di Capitol City, in cui appare Peeta Mellark davanti alle telecamere. Katniss rimane sorpresa nel vederlo ancora vivo, ma quando il ragazzo chiede un "cessate il fuoco" durante l'intervista con Caesar Flickerman, la popolazione del 13 lo considera una marionetta nelle mani di Snow.

Bulletboys 2015 Elefante

Language: | Size: 92.94 MB | Seed: 881 | Leech: 17

Description:

Track List: Rollover Tsunami Symphony The Villain Kin Folk Saving You from Me As Dumb As Superhuman Girl Drop Your Weapon Bitch Is Back Elefante'

Solarstone Pure Trance Radio 061 ( Ark Angel ) 320 Kbps hi-dbx (09.11.2016)( T ita eng state of trance )

Language: | Size: 137.33 MB | Seed: 821 | Leech: 17

Description:

Genre: Trance Artist: Solarstone Duration: 59:57 Bitrate: 320kpbs 44100kHz Size: 137.33 MB Post Date: 10-November-2016 Rec Date: 09-November-2016 Description: Solarstone presents the next release of legendary mix-show Pure Trance Radio 061 , recorded 09 November 2016. Download this episode can be in the best quality 320kpbs 44100kHz. All the time 59:57 beautiful and powerful sound in a Trance. Size 137.33 MB MP3 file. .

Game Therapy (2015) [XviD - Ita Ac3]azione, fantascienza, fantastico -

Language: | Size: 1.37 GB | Seed: 145 | Leech: 17

Description:

DATA USCITA : 22 ottobre 2015 GENERE : Azione , Fantasy , Commedia ANNO : 2015 REGIA : Ryan Travis ATTORI : FaviJ, Federico Clapis, Leonardo Decarli, Zoda SCENEGGIATURA : Adam Lawson, Giacomo Berdini, Marco Cohen FOTOGRAFIA : Mike Ozier MONTAGGIO : Tommaso Gallone PRODUZIONE : Indiana Production, Webstar Channel e Pulse film DISTRIBUZIONE : Lucky Red PAESE : Italia DURATA : 97 Min Trama Francesco (Favij) sta per finire la scuola, è un ragazzo intelligente e ironico, ma la sua intelligenza e ironia si esprimono al meglio nel mondo dei videogame, in cui si rifugia per sfuggire alla realtà, che trova noiosa, limitata e pericolosamente imprevedibile. Le ore passate chiuso in camera sua al computer preoccupano i suoi genitori, che lo trascinano periodicamente da diversi psico-specialisti. Il desiderio di Francesco è di approdare su una sua personale Isola che non c'è, dove tutto quello che ha sempre sognato è possibile...ora quel desiderio sembra avverarsi. Dopo anni di lavoro è infatti riuscito entrare nel mondo virtuale, dove le obsolete leggi della fisica e della società sono superate, un universo di videogiochi, ovvero la GL (Game life) come la chiama lui. In questo mondo tutto è possibile, e Francesco ne è il deus ex machina. Finalmente ha davanti a se un mondo in cui si sente libero. Giovanni (Federico Clapis) pluri bocciato è ancora alle superiori, bloccato dall'idea di dover fare delle scelte: l'università o il lavoro, uscire di casa o restarci ancora... insomma crescere. Sua madre lo tiene sotto controllo con l’aiuto di diversi specialisti nel tentativo di aiutarlo…Francesco svela la sua invenzione a Giovanni: ha lui la terapia perfetta per risolvere i loro problemi: la Game Therapy, ovvero l’ingresso nella realtà virtuale, arena in cui sconfiggere le loro difficoltà. Peccato che la parola risolvere abbia per i due amici un significato "leggermente" diverso.

Eye in the Sky - Il diritto di uccidere (2015).H264.Italian.English.Ac3.5.1.sub.ita.forced.eng.iCV-MIRCrew

Language: | Size: 1.56 GB | Seed: 45 | Leech: 17

Description:

[img]http://i.imgur.com/GDNQx1Z.png[/img] My release is always in double track audio italian and Original audio for select it use VLC or dvd player home not use wmp Il diritto di uccidere - Eye in the Sky (2015) [img]http://extraimage.net/images/2016/12/31/9ea041acc761dd1557b5036687d084b5.png[/img] [URL=http://www.imdb.com/title/tt2057392/][IMG]http://www.userlogos.org/files/logos/Sucka/imdb_new.png[/IMG][/URL] [img]http://i.imgur.com/fGu1rKv.png[/img] Riconoscimenti 2016 - National Board of Review of Motion Pictures Migliori dieci film indipendenti 2017 - Satellite Awards Titolo originale Eye in the Sky Lingua originale inglese, somalo Paese di produzione Regno Unito Anno 2015 Durata 102 min Genere drammatico, guerra Regia Gavin Hood Sceneggiatura Guy Hibbert Produttore Ged Doherty, Colin Firth, David Lancaster Produttore esecutivo Benedict Carver, Xavier Marchand, Anne Sheehan Casa di produzione eOne Films, Moonlighting Films, Entertainment One Features, Raindog Films Distribuzione (Italia) Teodora Film Fotografia Haris Zambarloukos Montaggio Megan Gill Musiche Paul Hepker, Mark Kilian Scenografia Johnny Breedt Costumi Ruy Filipe [img]http://i.imgur.com/W7kBqiE.png[/img] Helen Mirren: colonnello Katherine Powell Aaron Paul: tenente Steve Watts Alan Rickman: generale Frank Benson Phoebe Fox: Carrie Gershon Barkhad Abdi: Jama Farah Jeremy Northam: Brian Woodale Babou Ceesay: sergente Mushtaq Saddiq Iain Glen: James Willett Jessica Jones: Kate Barnes Monica Dolan: Angela Northman Armaan Haggio: Musa Mo'allim Aisha Takow: Alia Richard McCabe: George Matherson Michael O'Keefe: Ken Stanitzke Carl Beukes: sergente Mike Gleeson Gavin Hood: colonnello Ed Walsh Laila Robins: Jillian Goodman [img]http://i.imgur.com/bFK3ggF.png[/img] Protagonista è il colonnello inglese Katherine Powell, che dirige a distanza un'operazione contro una cellula terroristica a Nairobi. Il suo "occhio" sul campo è un drone pilotato in Nevada dal giovane ufficiale Steve Watts, ma quando diventa inevitabile sferrare un attacco entrambi realizzano che anche una bambina innocente finirebbe tra le vittime........... [img]http://i.imgur.com/48xHWWH.png[/img] Col. Katherine Powell, a military officer in command of an operation to capture terrorists in Kenya, sees her mission escalate when a girl enters the kill zone triggering an international dispute over the implications of modern warfare. ............ [img]http://i.imgur.com/K8bfNTy.png[/img] [url=https://extraimage.net/image/21gU][img]http://extraimage.net/images/2016/12/31/3b5e07a2291385610b309795b31cf549.th.png[/img][/url] [url=https://extraimage.net/image/21gM][img]http://extraimage.net/images/2016/12/31/953492330f3782fe6f9a4e855d17c396.th.png[/img][/url] [url=https://extraimage.net/image/21gz][img]http://extraimage.net/images/2016/12/31/0ebe41179c83cd1c242108b270b386d8.th.png[/img][/url] [url=https://extraimage.net/image/21g0][img]http://extraimage.net/images/2016/12/31/631d32c776b2d08ab445749c9afa706e.th.png[/img][/url] [img]http://i.imgur.com/aVrMohH.png[/img] [spoiler] General Unique ID : 162251054422184025186880131994273635927 (0x7A106A9AA1FCCFCBC89D5BC6BE6ADE57) Complete name : Il diritto di uccidere - Eye in the Sky (2015).ita.eng.sub.ita.forced.ita.eng.iCV-MIRCrew.mkv Format : Matroska Format version : Version 2 File size : 1.56 GiB Duration : 1h 42mn Overall bit rate : 2 171 Kbps Movie name : VISIT www.icv-crew.org Encoded date : UTC 2016-12-16 18:48:29 Writing application : Lavf54.63.100 Writing library : Lavf54.63.100 COPYRIGHT : robbyrs Video ID : 1 Format : AVC Format/Info : Advanced Video Codec Format profile : [email protected] Format settings, CABAC : Yes Format settings, ReFrames : 2 frames Codec ID : V_MPEG4/ISO/AVC Duration : 1h 42mn Bit rate : 1 270 Kbps Width : 720 pixels Height : 304 pixels Display aspect ratio : 2.40:1 Frame rate mode : Variable Frame rate : 23.976 fps Color space : YUV Chroma subsampling : 4:2:0 Bit depth : 8 bits Scan type : Progressive Bits/(Pixel*Frame) : 0.242 Stream size : 905 MiB (57%) Writing library : x264 core 130 r2273 Encoding settings : cabac=1 / ref=2 / deblock=1:0:0 / analyse=0x1:0x131 / me=hex / subme=7 / psy=1 / psy_rd=1.00:0.00 / mixed_ref=0 / me_range=16 / chroma_me=1 / trellis=1 / 8x8dct=0 / cqm=0 / deadzone=21,11 / fast_pskip=1 / chroma_qp_offset=-2 / threads=12 / lookahead_threads=2 / sliced_threads=0 / nr=0 / decimate=1 / interlaced=0 / bluray_compat=0 / constrained_intra=0 / bframes=3 / b_pyramid=0 / b_adapt=1 / b_bias=0 / direct=3 / weightb=1 / open_gop=0 / weightp=2 / keyint=230 / keyint_min=23 / scenecut=40 / intra_refresh=0 / rc_lookahead=40 / rc=2pass / mbtree=1 / bitrate=1270 / ratetol=1.0 / qcomp=0.60 / qpmin=10 / qpmax=69 / qpstep=4 / cplxblur=20.0 / qblur=0.5 / vbv_maxrate=24000 / vbv_bufsize=24000 / nal_hrd=none / ip_ratio=1.40 / aq=1:1.00 Language : English Default : Yes Forced : No DURATION : 01:42:45.086000000 NUMBER_OF_FRAMES : 147814 NUMBER_OF_BYTES : 7046376575 _STATISTICS_WRITING_APP : mkvmerge v8.7.0 ('All of the above') 64bit _STATISTICS_WRITING_DATE_UTC : 2016-12-15 14:13:38 _STATISTICS_TAGS : BPS DURATION NUMBER_OF_FRAMES NUMBER_OF_BYTES Audio #1 ID : 2 Format : AC-3 Format/Info : Audio Coding 3 Mode extension : CM (complete main) Codec ID : A_AC3 Duration : 1h 42mn Bit rate mode : Constant Bit rate : 448 Kbps Channel(s) : 6 channels Channel positions : Front: L C R, Side: L R, LFE Sampling rate : 48.0 KHz Bit depth : 16 bits Compression mode : Lossy Delay relative to video : 1mn 5s Stream size : 329 MiB (21%) Language : Italian Default : Yes Forced : No DURATION : 01:42:45.120000000 NUMBER_OF_FRAMES : 192660 NUMBER_OF_BYTES : 345246720 _STATISTICS_WRITING_APP : mkvmerge v8.7.0 ('All of the above') 64bit _STATISTICS_WRITING_DATE_UTC : 2016-12-15 14:13:38 _STATISTICS_TAGS : BPS DURATION NUMBER_OF_FRAMES NUMBER_OF_BYTES Audio #2 ID : 3 Format : AC-3 Format/Info : Audio Coding 3 Mode extension : CM (complete main) Codec ID : A_AC3 Duration : 1h 42mn Bit rate mode : Constant Bit rate : 448 Kbps Channel(s) : 6 channels Channel positions : Front: L C R, Side: L R, LFE Sampling rate : 48.0 KHz Bit depth : 16 bits Compression mode : Lossy Delay relative to video : 1mn 5s Stream size : 329 MiB (21%) Language : English Default : No Forced : No DURATION : 01:42:45.120000000 NUMBER_OF_FRAMES : 192660 NUMBER_OF_BYTES : 493209600 _STATISTICS_WRITING_APP : mkvmerge v8.7.0 ('All of the above') 64bit _STATISTICS_WRITING_DATE_UTC : 2016-12-15 14:13:38 _STATISTICS_TAGS : BPS DURATION NUMBER_OF_FRAMES NUMBER_OF_BYTES Text #1 ID : 4 Format : UTF-8 Codec ID : S_TEXT/UTF8 Codec ID/Info : UTF-8 Plain Text Title : Forced Language : Italian Default : Yes Forced : No DURATION : 01:28:27.895000000 NUMBER_OF_FRAMES : 96 NUMBER_OF_BYTES : 3569 _STATISTICS_WRITING_APP : mkvmerge v8.7.0 ('All of the above') 64bit _STATISTICS_WRITING_DATE_UTC : 2016-12-15 14:13:38 _STATISTICS_TAGS : BPS DURATION NUMBER_OF_FRAMES NUMBER_OF_BYTES Text #2 ID : 5 Format : UTF-8 Codec ID : S_TEXT/UTF8 Codec ID/Info : UTF-8 Plain Text Title : Regular Language : Italian Default : No Forced : No DURATION : 01:31:06.349000000 NUMBER_OF_FRAMES : 756 NUMBER_OF_BYTES : 41382 _STATISTICS_WRITING_APP : mkvmerge v8.7.0 ('All of the above') 64bit _STATISTICS_WRITING_DATE_UTC : 2016-12-15 14:13:38 _STATISTICS_TAGS : BPS DURATION NUMBER_OF_FRAMES NUMBER_OF_BYTES Menu 00:00:00.000 : :00:00:00.000 00:07:05.342 : :00:07:05.342 00:14:28.201 : :00:14:28.201 00:20:13.838 : :00:20:13.838 00:29:27.099 : :00:29:27.099 00:39:02.590 : :00:39:02.590 00:50:56.804 : :00:50:56.804 00:59:52.756 : :00:59:52.756 01:08:53.129 : :01:08:53.129 01:16:19.950 : :01:16:19.950 01:25:27.706 : :01:25:27.706 01:35:23.259 : :01:35:23.259 [/spoiler] [/color][/b][/center]

xXx.2002.iTALiAN.AC3.BRRip.XviD-T4P3

Language: | Size: 1.56 GB | Seed: 56 | Leech: 17

Description:

xXx Titolo originale: XXX Nazione: Usa/Repubblica Ceca Anno: 2002 Genere: Drammatico/Azione Durata: Regia: Rob Cohen Cast: Vin Diesel, Samuel L. Jackson, Marton Csokas, Asia Argento Produzione: Neal H. Moritz Distribuzione: Columbia Tristar Uscita prevista: 31 Ottobre 2002 (cinema) Trama: Xander Cage, atleta di sports estremi, viene reclutato dal governo per una speciale missione.

Stefon Harris David Sanchez and Christian Scott Ninety Miles *2011* [Flac] [TntVillage]

Language: | Size: 319.33 MB | Seed: 18 | Leech: 17

Description:

[img]http://i.imgur.com/y17GzcI.jpg[/img] Artist...............: Stefon Harris, David Sanchez, Christian Scott Album................: Ninety Miles Genre................: Latin Jazz Source...............: CD Year.................: 2011 Ripper...............: EAC (Secure mode) / LAME 3.92 & Asus CD-S520 Codec................: Free Lossless Audio Codec (FLAC) Version..............: reference libFLAC 1.3.1 20141125 Quality..............: Lossless, (avg. compression: 59 %) Channels.............: Stereo / 44100 HZ / 16 Bit Tags.................: VorbisComment Information..........: TntVillage Ripped by............: Leonenero on 30/01/2017 Posted by............: Leonenero on 31/01/2017 News Server..........: news.astraweb.com News Group(s)........: Flac Included.............: NFO, M3U, LOG, CUE Covers...............: Front Back CD --------------------------------------------------------------------- Tracklisting --------------------------------------------------------------------- 1. Stefon Harris, David Sanchez, Christian Scott - Nengueleru [05:04] 2. Stefon Harris, David Sanchez, Christian Scott - E'cha [04:17] 3. Stefon Harris, David Sanchez, Christian Scott - City Sunrise [06:47] 4. Stefon Harris, David Sanchez, Christian Scott - The Forgotten Ones [03:53] 5. Stefon Harris, David Sanchez, Christian Scott - Black Action Figure [06:21] 6. Stefon Harris, David Sanchez, Christian Scott - Congo [06:30] 7. Stefon Harris, David Sanchez, Christian Scott - And This Too Shall Pass [09:28] 8. Stefon Harris, David Sanchez, Christian Scott - Brown Belle Blues [05:00] 9. Stefon Harris, David Sanchez, Christian Scott - La Fiesta Va [05:46] Playing Time.........: 53:08 Total Size...........: 318,74 MB I like this album which features three American soloists with two different Cuban rhythm sections, one with electric bass and the other with acoustic bass. Five of the nine tunes are composed by the Americans while the two Cuban pianists -- Rember Duharte and Harold Lopez-Nussa -- contribute two songs apiece. Duharte solos on exactly one tune and Loppez-Nussa on two tunes. Scott, from his blues phrasing to his pentatonic conception, owes more to Indianapolis native Freddie Hubbard than he does to the city of New Orleans. Afro-Cuban rhythms have been part of jazz since the bebop era in a more explicit way than they were at the turn-of-the-century when Jelly Roll Morton described the influence of habanera rhythms in tunes like "La Paloma" as the "Spanish tinge." There more Latin American jazz in NYC than anywhere else in the country. I love the feel of the rhythm sections, especially the bass lines. Particularly impressive is the stop-time figure during the vibes solo on the second tune, "E'cha." Although the three jazz stars are listed alphabetically, New Yorker Harris is driving the convertible presumably because it's his record date, however Sanchez -- born and raised in Puerto Rico -- is the only native Spanish speaker of the three.

Ultimate Spider-Man 2012 Animated Complete Series SE4 Burntodisc

Language: | Size: 15.4 GB | Seed: 5 | Leech: 17

Description:

COMPLETE 4 SEASONS: 8 DISCS SEASON 4:2 DISCS EPISODES: 26 SIZE: DVD9 VIDEO CODEC: MPEG2 RESOLUTION: 720x480 ASPECT RATIO: NTSC 16:9 FRAMERATE: 29.97fps AUDIO: English 192kb/s SUBTITLES: None MENU: Yes CHAPTERS: Yes DISC COVER: Yes [url]http://www.imdb.com/title/tt1722512/episodes[/url] [url]https://en.wikipedia.org/wiki/List_of_Ultimate_Spider-Man_episodes[/url]

Looper - In Fuga dal Passato (2012) BDRip m1080p - H264 - Ita Eng Ac3 - Sub Ita Eng

Language: | Size: 2.79 GB | Seed: 747 | Leech: 18

Description:

ilm | Dimensione: 2.79 GB | Seeders: 37 | Leechers: 54 | Completato: 259 | Agiorna Titolo originale: Looper Nazione: U.S.A. Anno: 2012 Genere: Azione, Fantascienza Durata: 118' Regia: Rian Johnson Sito ufficiale: www.loopermovie.com Cast: Joseph Gordon-Levitt, Bruce Willis, Emily Blunt, Paul Dano, Noah Segan, Piper Perabo, Jeff Daniels, Pierce Gagnon, Qing Xu, Tracie Thoms, Frank Brennan, Garret Dillahunt Produzione: DMG Entertainment, Endgame Entertainment, Ram Bergman Productions Data di uscita: 31 Gennaio 2013 (cinema) Trama: Nel futuristico action thriller Looper è possibile viaggiare nel tempo, tuttavia si tratta di un'attività illegale, possibile solo attraverso il mercato nero. Quando la mafia vuole sbarazzarsi di qualcuno, lo rispedisce 30 anni indietro nel tempo, dove un "looper", e cioè un sicario come Joe (Joseph Gordon-Levitt), lo attende per farlo fuori. Joe sta diventando ricco e fa la bella vita... ma un giorno la mafia decide di "chiudere il cerchio" inviando nel passato il futuro Joe (Bruce Willis) affinché venga assassinato. Parole chiave: azione fantascienza

No Blood No Tears (2002) DVDRip XviD - Ita Ac3

Language: | Size: 1.37 GB | Seed: 672 | Leech: 18

Description:

http://pad.mymovies.it/filmclub/2013/04/066/locandina.jpg

Il Trono Di Spade S06e03 DLMux - XviD - Ita Eng Mp3 - Sub Ita Eng

Language: | Size: 558.55 MB | Seed: 655 | Leech: 18

Description:

Stagione 6/6 Episodi: 10 Italia: 02/05/2016 al (In Corso) Usa: 24/04/2016 al (In Corso) GENERE: Fantasy IDEATORE: David Benioff, D.B. Weiss ATTORI: Peter Dinklage, Lena Headey, Emilia Clarke, Kit Harington, Sophie Turner, Maisie Williams, Nikolaj Coster-Waldau, Iain Glen, Alfie Allen, Aidan Gillen, Isaac Hempstead-Wright, John Bradley, Conleth Hill, Jerome Flynn, Natalie Dormer, Liam Cunningham, Carice van Houten, Gwendoline Christie, Dean-Charles Chapman, Hannah Murray, Michael McElhatton, Kristofer Hivju, Iwan Rheon, Tom Wlaschiha, Nathalie Emmanuel, Michiel Huisman, Indira Varma, Diana Rigg, Jonathan Pryce, Sibel Kekilli, Sean Bean, Stephen Dillane, Charles Dance, Rory McCann, Jack Gleeson, Rose Leslie, Michelle Fairley, Richard Madden, James Cosmo, Joe Dempsie, Oona Chaplin, Mark Addy, Harry Lloyd, Jason Momoa ANNO: 2011 PAESE: USA PRODUZIONE: Home Box Office (HBO) DURATA: 60 Min STATO: In Lavorazione Sette nobili famiglie lottano per il controllo della mitologica terra di Westeros. Robert Baratheon, re di Westeros, chiede al suo vecchio amico Eddard Stark di servirlo come suo principale consigliere. Eddard accetta, ma ha dei sospetti. Mentre la famiglia del re, i Lannister, cova un complotto per assumere il controllo del trono, dall'altra parte del mare, i Targaryen si preparano per un ritorno al potere. Il coflitto tra queste due famiglie e altre porteranno alla guerra, mentre a nord un'antica minaccia si risveglia. 3. Giuramento infranto - Oathbreaker Prima TV Italia 16 maggio 2016

Tomorrowland - Il mondo di domani (2015) .mkv iTA AC3 DTS Bluray 1080p x264

Language: | Size: 11 GB | Seed: 740 | Leech: 18

Description:

Titolo originale: Tomorrowland Nazione: U.S.A. Anno: 2015 Genere: Fantascienza Durata: 130' Regia: Brad Bird Sito ufficiale: www.movies.disney.com/tomorrowland Sito italiano: www.tomorrowlandilmondodidomani.it Social network: facebook, twitter Cast: George Clooney, Hugh Laurie, Britt Robertson, Judy Greer, Kathryn Hahn, Tim McGraw, Lochlyn Munro, Thomas Robinson, Raffey Cassidy, Keegan-Michael Key Produzione: Walt Disney Pictures, Babieka Distribuzione: Walt Disney Data di uscita: 21 Maggio 2015 (cinema) Trama: Il film racconta la storia di Frank (George Clooney), un ex enfant prodige ormai disilluso, e Casey (Britt Robertson), un’adolescente ottimista e intelligente che trabocca di curiosità scientifica. Legati da un destino comune, i due intraprendono una pericolosa missione insieme, per svelare i segreti di una misteriosa dimensione spazio-temporale nota come “Tomorrowland”. Le loro imprese cambieranno sia il mondo che la propria vita, per sempre. Fonte Video: Bluray Fonte Audio: iTunes Tracce Audio: DTS/AC3 iTA | DTS ENG Sub Forced: / Parole chiave: fantascienza

The Transporter (2002) [BDrip 1080p - H265 - Ita Eng Ac3 - Sub Ita] Azione

Language: | Size: 4.18 GB | Seed: 421 | Leech: 18

Description:

Titolo originale: The transporter Nazione: Francia Anno: 2002 Genere: Azione Durata: Regia: Cory Yuen Sito ufficiale: www.transportermovie.com Cast: Jason Statham, Shu Qi, Tcheky Karyo Produzione: Luc Besson, Steve Chasman, David Lai

The Lazarus Effect (2015) .mkv iTA-ENG Bluray 1080p x264

Language: | Size: 6.1 GB | Seed: 218 | Leech: 18

Description:

Titolo originale: The Lazarus Effect Nazione: U.S.A. Anno: 2015 Genere: Horror, Thriller Durata: 79' Regia: David Gelb Sito italiano: www.leganerd.com/thelazaruseffect Social network: facebook Cast: Mark Duplass, Olivia Wilde, Sarah Bolger, Evan Peters, Donald Glover, Scott Sheldon, Emily Kelavos Produzione: Blumhouse Productions, Lionsgate, Mosaic Media Group Data di uscita: 21 Maggio 2015 (cinema) Trama: Un gruppo di ricercatori, capeggiati da Frank e Zoe fanno un'incredibile scoperta: trovano il modo di riportare in vita i defunti. Dopo aver completato con successo, ma senza autorizzazione, un esperimento su un animale appena morto, il rettore della loro Università viene a sapere dei loro esperimenti sotterranei, il progetto viene improvvisamente sospeso. Tutto il team decide comunque di riprodurre il loro esperimento ma, a causa di un incidente, Zoe, viene orribilmente uccisa. Frank, pervaso dal terrore e dal dolore, li convince a fare qualcosa di impensabile: tentare di resuscitare la loro prima cavia umana. Inizialmente, la procedura si rivela un successo, ma la squadra presto si rende conto che qualcosa non va in Zoe. L'utilizzo su un essere umano porterà a pericolosi e inimmaginabili conseguenze per tutti. Il terrore dilaga in questo horror che vede protagonista la bellissima Olivia Wilde. Fonte Video: Bluray Fonte Audio: Bluray Tracce Audio: DTS/AC3 iTA | DTS ENG Sub Forced: / Parole chiave: horror thriller

Paris, Texas (1984) 720p - H264 - Ita Eng Ac3 - Multisub

Language: | Size: 5.68 GB | Seed: 200 | Leech: 18

Description:

Titolo originale: Paris, Texas Nazione: GB/Francia/Germania Anno: 1984 Genere: Drammatico Durata: 150' Regia: Wim Wenders Sito ufficiale: Cast: Nastassja Kinski, Harry Dean Stanton, Hunter Carson, Dean Stockwell, Aurore Clément, Bernhard Wicki Produzione: Don Guest per la Road Movies Distribuzione: Nexo Digital Uscita prevista: 25 Febbraio 2015 (cinema) Trama: Travis ha perso la memoria e il fratello cerca di aiutarlo ricordandogli la vita che ha condotto quattro anni prima che abbandonasse sua moglie e suo figlio. Una volta guarito cerca di riaprire i contatti con le varie persone appartenute al suo passato. Parole chiave: drammatico