Search Top Tags














MasterChef Italia S06e05-06 Versione 720p [SATRip - 720p - H264 - Ita Aac] HDTVRip

Language: | Size: 3.13 GB | Seed: 872 | Leech: 274

Description:

: Scheda della serie :. Anno: 2011-in corso Genere: Talent Show Regia: Umberto Spinazzola Cast: Bruno Barbieri; Carlo Cracco; Joe Bastianich; Antonino Cannavacciuolo .: Descrizione :. Dopo un anno di famelica attesa prende il via la sesta stagione di MasterChef Italia. I fornelli della cucina più famosa della TV stanno per riaccendersi. Inizia la nuova stagione MasterChef con i giudici riconfermati Bruno Barbieri, Joe Bastianich, Antonino Cannavacciuolo e Carlo Cracco.

Various Artists - NRJ Winter Hits 2017 (2017) (by emi)

Language: | Size: 262.15 MB | Seed: 443 | Leech: 271

Description:

mp3 a 192 kbps audio di qualità a 95 db Tracklist CD 1 01 - Maître Gims – Tout Donner (Pilule Violette).mp3 (4.8 MB) 02 - Rag'n'Bone Man - Human.mp3 (4.7 MB) 03 - DJ Snake (feat. Justin Bieber) - Let Me Love You.mp3 (4.9 MB) 04 - Sia - The Greatest.mp3 (5.0 MB) 05 - Black M - French kiss.mp3 (5.2 MB) 06 - NEIKED (feat. Dyo) - Sexual.mp3 (4.5 MB) 07 - Vianney - Je m'en Vais.mp3 (4.6 MB) 08 - Olly Murs - You Don't Know Love.mp3 (4.7 MB) 09 - LP - Tightrope.mp3 (5.2 MB) 10 - Don Diablo - Cutting Shapes.mp3 (4.3 MB) 11 - Little Mix - Shout Out To My Ex.mp3 (5.8 MB) 12 - Hardwell (feat. Jay Sean) - Thinking About You.mp3 (4.6 MB) 13 - Starley - Call On Me.mp3 (3.9 MB) 14 - Alan Walker - Alone.mp3 (3.8 MB) 15 - Julian Perretta - Karma.mp3 (4.7 MB) 16 - Lost Frequencies - What Is Love 2016.mp3 (4.5 MB) 17 - Shawn Mendes - Mercy.mp3 (5.0 MB) 18 - MHD - A kele n'ta.mp3 (4.9 MB) CD 2 01 - Calvin Harris - My Way.mp3 (5.2 MB) 02 - Soprano (feat. Marina Kaye) - Mon Everest.mp3 (6.3 MB) 03 - James Arthur - Say You Won't Let Go.mp3 (5.0 MB) 04 - JUL - Tchikita.mp3 (4.6 MB) 05 - Ariana Grande (feat. Nicki Minaj) - Side To Side.mp3 (5.3 MB) 06 - Coldplay - Everglow.mp3 (6.7 MB) 07 - RIDSA - Porto Rico.mp3 (5.0 MB) 08 - Fifth Harmony - That's My Girl.mp3 (4.9 MB) 09 - Vitaa - Dans Ma Tête.mp3 (4.8 MB) 10 - Sound Of Legend - Sweet (La La La).mp3 (4.3 MB) 11 - The Chainsmokers (feat. Phoebe Ryan) - All We Know.mp3 (4.6 MB) 12 - Léa Paci - Pour Aller Où.mp3 (5.0 MB) 13 - Jonas Blue (feat. RAYE) - By Your Side.mp3 (4.7 MB) 14 - Dimitri Vegas & Like Mike vs. Diplo (feat. Deb's Daughter) - Hey Baby.mp3 (4.6 MB) 15 - Frenship & Emily Warren - Capsize.mp3 (5.5 MB) 16 - Legend B vs. Julien Creance - Lost in Love 2K16 (Julien Creance Mix).mp3 (4.1 MB) 17 - Willy William - Rien Que Toi.mp3 (4.6 MB) 18 - Imany - Silver Lining (Clap Your Hands).mp3 (5.7 MB) CD 3 01 - Feder (feat. Alex Mono) - Lordly.mp3 (4.7 MB) 02 - Amir - On Dirait.mp3 (4.7 MB) 03 - Maroon 5 - Don't Wanna Know.mp3 (5.1 MB) 04 - Kendji Girac - Sonrisa.mp3 (4.8 MB) 05 - Mike Perry (feat. Casso) - Inside The Lines.mp3 (4.8 MB) 06 - Major Lazer & Showtek - Believer.mp3 (5.3 MB) 07 - Victoria - Face A face (Extrait Du Spectacle 'Les 3 Mousquetaires').mp3 (5.4 MB) 08 - Martin Garrix & Bebe Rexha - In The Name Of Love.mp3 (4.7 MB) 09 - Gavin James - Nervous.mp3 (5.1 MB) 10 - Stream - Living On Video_01.mp3 (4.0 MB) 11 - Claudio Capeo - Ca va ça va.mp3 (4.6 MB) 12 - Galantis & Hook N Sling - Love On Me.mp3 (4.9 MB) 13 - Måns Zelmerlöw - Rien Que Nous Deux (Hanging On To Nothing).mp3 (4.7 MB) 14 - Kygo (feat. Julia Michaels) - Carry Me.mp3 (5.5 MB) 15 - Mahmut Orhan (feat. Sena Sener) - Feel.mp3 (4.1 MB) 16 - Filatov & Karas - Satelitte.mp3 (4.7 MB) 17 - Eva Simons & Sidney Samson - Escape From Love.mp3 (4.3 MB) 18 - TAL - Le Temps Qu'il Faut.mp3 (4.5 MB)

Masterminds.I.Geni.Della.Truffa.2016.iTALiAN.AC3.DVDRip.XviD-T4P3

Language: | Size: 1.37 GB | Seed: 145 | Leech: 270

Description:

Masterminds - I geni della truffa Titolo originale: Masterminds Nazione: U.S.A. Anno: 2016 Genere: Azione, Commedia Durata: 94' Regia: Jared Hess Cast: Owen Wilson, Zach Galifianakis, Kristen Wiig, Jason Sudeikis, Ken Marino, Mary Elizabeth Ellis, Kate McKinnon, Devin Ratray, Leslie Jones Produzione: Michaels-Goldwyn, Relativity Media Distribuzione: Key Films Data di uscita: 09 Novembre 2016 (cinema) Trama: Tutti i giorni David guida un blindato porta valori carico dei risparmi di sconosciuti. Il suo unico brivido di eccitazione è provocato da Kelly Campbell, la collega che lo convincerà a compiere la rapina del secolo! Insieme ad un gruppo di criminali senza cervello, guidati da Steve Chambers, David riesce incredibilmente a portare a buon fine un colpo da 17 milioni di dollari per poi commettere l’errore di consegnarli ai compagni di viaggio che stupidamente, non solo sperpereranno tutto il bottino, ma lasceranno in giro prove schiaccianti. In fuga dalle autorità, David dovrà nascondersi dal sicario Mike McKinney e tentare di prendersi la sua rivincita.

Popstar Never Stop Never Stopping (2016).H264.Italian.English.Ac3.5.1.sub.ita.eng.iCV-MIRCrew

Language: | Size: 1.23 GB | Seed: 353 | Leech: 265

Description:

Titolo originale: Popstar: Never Stop Never Stopping Conosciuto anche come: Conner4Real Nazione: U.S.A. Anno: 2016 Genere: Commedia, Musicale Durata: 86' Regia: Akiva Schaffer, Jorma Taccone Sito ufficiale: www.popstarmovie.com Cast: Imogen Poots, Andy Samberg, Martin Sheen, Bill Hader, Sarah Silverman, Will Arnett, Maya Rudolph, Joan Cusack, Jorma Taccone, Adam Levine, Snoop Dogg Produzione: Apatow Productions, TheLonely Island, Party Over Here, Universal Pictures Distribuzione: Data di uscita: 2016 (cinema) Trama: Quando diventa chiaro che il suo album da solista è un grande fallimento, un ex membro di una boy band fa di tutto per non perdere la fama raggiunta in passato...

Il Traditore Tipo (2016).H264.Italian.English.Ac3.sub.ita.eng.iCV-MIRCrew

Language: | Size: 1.62 GB | Seed: 484 | Leech: 265

Description:

DATA USCITA: 05 maggio 2016 GENERE: Thriller ANNO: 2016 REGIA: Susanna White SCENEGGIATURA: Hossein Amini MONTAGGIO: Tariq Anwar PRODUZIONE: Ink Factory, The, Potboiler Productions DISTRIBUZIONE: Videa PAESE: Gran Bretagna DURATA: 107 Min Ewan McGregor, Stellan Skarsgård, Naomie Harris, Damian Lewis, Jeremy Northam, Alec Utgoff, Pawel Szajda, Khalid Abdalla, Velibor Topic, Marek Oravec, Christian Brassington Durante una vacanza a Marrakech, una coppia inglese, Perry e Gail, fa amicizia con un appariscente e carismatico uomo d'affari russo di nome Dima, che si rivela essere un boss del riciclaggio di denaro appartenente alla mafia russa. Perry e Gail accettano di aiutare Dima a fornire informazioni confidenziali ai servizi segreti inglesi

Perfetti Sconosciuti (2016).H264 Italian.Ac3.5.1.sub.ita.iCV-MIRCrew

Language: | Size: 1.15 GB | Seed: 289 | Leech: 264

Description:

[img]http://i.imgur.com/GDNQx1Z.png[/img] My release is always in double track audio italian and Original audio for select it use VLC or dvd player home not use wmp Perfetti Sconosciuti (2016) [img]http://extraimage.net/images/2016/12/21/ae5ec9b03681f185b189f42fdb795715.png[/img] [URL=http://www.imdb.com/title/tt4901306/][IMG]http://www.userlogos.org/files/logos/Sucka/imdb_new.png[/IMG][/URL] [img]http://s19.postimage.org/bgh0za7kj/banner_scheda.gif[/img] DATA USCITA: 11 febbraio 2016 GENERE: Commedia ANNO: 2016 REGIA: Paolo Genovese SCENEGGIATURA: Filippo Bologna, Paolo Costella, Paolo Genovese, Paola Mammini, Rolando Ravello FOTOGRAFIA: Consuelo Catucci, Fabrizio Lucci MUSICHE: Maurizio Filardo PRODUZIONE: Lotus Production DISTRIBUZIONE: Medusa Film PAESE: Italia DURATA: 97 Min [img]http://s19.postimage.org/i9hdvjydv/banner_trama.gif[/img] Kasia Smutniak, Marco Giallini, Valerio Mastandrea, Anna Foglietta, Giuseppe Battiston, Edoardo Leo, Alba Rohrwacher [img]http://s19.postimage.org/i9hdvjydv/banner_trama.gif[/img] Ognuno di noi ha tre vite: una pubblica, una privata e una segreta. Un tempo quella segreta era ben protetta nell'archivio nella nostra memoria, oggi nelle nostre sim. Cosa succederebbe se quella minuscola schedina si mettesse a parlare? Perfetti sconosciuti è un film dove tutto è il contrario di tutto, dove ognuno può raccontare la sua esperienza, può fissare dei confini tra cose giuste e sbagliate, corrette e scorrette, disdicevoli o no, parlando di vite segrete [img]http://s19.postimage.org/nwdqt10wj/banner_storyline.gif[/img] Seven long-time friends get together for a dinner. When they decide to share with each other the content of every text message, email and phone call they receive, many secrets start to unveil and the equilibrium trembles. [img]http://i.imgur.com/GgEl7ea.png[/img] [url=https://extraimage.net/image/2nFd][img]http://extraimage.net/images/2016/12/21/cc0edbf4fcb4ffab4862628b615039c7.th.png[/img][/url] [url=https://extraimage.net/image/2nFh][img]http://extraimage.net/images/2016/12/21/ca3831b6331b41be2dd36f4157e7f934.th.png[/img][/url] [img]http://i.imgur.com/cWb6Z.gif[/img] [img]http://s19.postimage.org/f07k2tzo3/banner_dati_file.gif[/img] [spoiler] GGenerale ID univoco : 255061655679605316465588445827895659214 (0xBFE3168962A55B219F9A3CBB4C6C0ACE) Nome completo : Perfetti Sconosciuti (2016).ita.eng.sub.ita.iCV-MIRCrew.mkv Formato : Matroska Versione formato : Version 2 Dimensione : 1,15 GiB Durata : 1o 36min Bitrate totale : 1.719 Kbps Film : VISIT www.icv-crew.org Data codifica : UTC 2016-12-21 20:38:53 / UTC 2016-12-14 18:00:16 Creato con : mkvmerge v5.4.0 ('Piper') built on Mar 10 2012 13:34:39 Compressore : libebml v1.2.3 + libmatroska v1.3.0 / Lavf54.63.100 Copyright : robbyrs Video ID : 1 Formato : AVC Formato/Informazioni : Advanced Video Codec Profilo formato : [email protected] Impostazioni formato, CABAC : Si Impostazioni formato, ReFrames : 2 frame Modo muxing : Header stripping ID codec : V_MPEG4/ISO/AVC Durata : 1o 36min Bitrate : 1.270 Kbps Larghezza : 720 pixel Altezza : 304 pixel Rapporto aspetto visualizzazione : 2,40:1 Modalità frame rate : Costante Frame rate : 23,976 (24000/1001) fps Spazio colore : YUV Croma subsampling : 4:2:0 Profondità bit : 8 bit Tipo scansione : Progressivo Bit/(pixel*frame) : 0.242 Dimensione della traccia : 850MiB (72%) Compressore : x264 core 130 r2273 Impostazioni compressione : cabac=1 / ref=2 / deblock=1:0:0 / analyse=0x1:0x131 / me=hex / subme=7 / psy=1 / psy_rd=1.00:0.00 / mixed_ref=0 / me_range=16 / chroma_me=1 / trellis=1 / 8x8dct=0 / cqm=0 / deadzone=21,11 / fast_pskip=1 / chroma_qp_offset=-2 / threads=12 / lookahead_threads=2 / sliced_threads=0 / nr=0 / decimate=1 / interlaced=0 / bluray_compat=0 / constrained_intra=0 / bframes=3 / b_pyramid=0 / b_adapt=1 / b_bias=0 / direct=3 / weightb=1 / open_gop=0 / weightp=2 / keyint=230 / keyint_min=23 / scenecut=40 / intra_refresh=0 / rc_lookahead=40 / rc=2pass / mbtree=1 / bitrate=1270 / ratetol=1.0 / qcomp=0.60 / qpmin=10 / qpmax=69 / qpstep=4 / cplxblur=20.0 / qblur=0.5 / vbv_maxrate=24000 / vbv_bufsize=24000 / nal_hrd=none / ip_ratio=1.40 / aq=1:1.00 Default : Si Forced : No Statistics Tags Issue : mkvmerge v7.2.0 ('On Every Street') 64bit built on Sep 13 2014 15:52:10 2016-06-11 01:24:13 / mkvmerge v5.4.0 ('Piper') built on Mar 10 2012 13:34:39 2016-12-21 20:38:53 / UTC 2016-12-14 18:00:16 FromStats_BitRate : 11099351 FromStats_Duration : 01:36:03.800000000 FromStats_FrameCount : 138193 FromStats_StreamSize : 7996805523 Audio ID : 2 Formato : AC-3 Formato/Informazioni : Audio Coding 3 Estensione modo : CM (complete main) Impostazioni formato, Endianness : Big Modo muxing : Header stripping ID codec : A_AC3 Durata : 1o 36min Modalità bitrate : Costante Bitrate : 448 Kbps Canali : 6 canali Posizione canali : Front: L C R, Side: L R, LFE Frequenza campionamento : 48,0 KHz Frame rate : 31,250 fps (1536 spf) Modo compressione : Con perdita Ritardo video : -5ms Dimensione della traccia : 308MiB (26%) Titolo : AC3 iTA Lingua : Italiano Default : Si Forced : Si Statistics Tags Issue : mkvmerge v7.2.0 ('On Every Street') 64bit built on Sep 13 2014 15:52:10 2016-06-11 01:24:13 / mkvmerge v5.4.0 ('Piper') built on Mar 10 2012 13:34:39 2016-12-21 20:38:53 / UTC 2016-12-14 18:00:16 FromStats_BitRate : 640000 FromStats_Duration : 01:36:03.840000000 FromStats_FrameCount : 180120 FromStats_StreamSize : 461107200 Testo ID : 3 Formato : UTF-8 ID codec : S_TEXT/UTF8 ID codec/Informazioni : UTF-8 Plain Text Titolo : REGULAR iTA Lingua : Italiano Default : Si Forced : No Statistics Tags Issue : mkvmerge v7.2.0 ('On Every Street') 64bit built on Sep 13 2014 15:52:10 2016-06-11 01:24:13 / mkvmerge v5.4.0 ('Piper') built on Mar 10 2012 13:34:39 2016-12-21 20:38:53 / UTC 2016-12-14 18:00:16 FromStats_BitRate : 79 FromStats_Duration : 01:29:41.376000000 FromStats_FrameCount : 1320 FromStats_StreamSize : 53455 [/spoiler] [/color][/b][/center]

Blindspot S01E07 FRENCH HDTV

Language: | Size: 340.56 MB | Seed: 2164 | Leech: 246

Description:

Blindspot S01E07 FRENCH HDTV

American Pastoral (2016).H264.Italian.English.Ac3.5.1.sub.ita.eng.iCV-MIRCrew

Language: | Size: 1.65 GB | Seed: 283 | Leech: 243

Description:

American Pastoral (2016).H264.Italian.English.Ac3.5.1.sub.ita.eng.iCV-MIRCrew [center] [color=red][b][img]http://s23.postimg.org/b9yhws27f/0sc_Del1.png[/img] [u]NO FOUND ONLY ORIGINAL RELEASE[/u] [img]http://i.imgur.com/GDNQx1Z.png[/img] My release is always in double track audio italian and Original audio for select it use VLC or dvd player home not use wmp American Pastoral (2016) [img]https://extraimage.net/images/2017/02/18/59d0aebc15e0c522997c80e4eb656da3.png[/img] [URL=http://www.imdb.com/title/tt0376479/][IMG]http://www.userlogos.org/files/logos/Sucka/imdb_new.png[/IMG][/URL] [img]http://i.imgur.com/fGu1rKv.png[/img] DATA USCITA: 20 ottobre 2016 GENERE: Drammatico ANNO: 2016 REGIA: Ewan McGregor SCENEGGIATURA: John Romano FOTOGRAFIA: Martin Ruhe MONTAGGIO: Melissa Kent MUSICHE: Alexandre Desplat PRODUZIONE: Lakeshore Entertainment DISTRIBUZIONE: Eagle Pictures PAESE: USA DURATA: 108 Min [img]http://i.imgur.com/W7kBqiE.png[/img] Ewan McGregor, Dakota Fanning, Jennifer Connelly, Uzo Aduba, Molly Parker, Rupert Evans, David Strathairn, Valorie Curry, Peter Riegert, Mark Hildreth [img]http://i.imgur.com/bFK3ggF.png[/img] Tratto dal libro capolavoro di Philip Roth vincitore del Premio Pulitzer, American Pastoral è la storia di Seymour Levov detto "lo Svedese", un uomo che dalla vita ha avuto tutto: bellezza, carriera, soldi, una moglie ex Miss New Jersey e una bambina a lungo desiderata, ma il cui mondo pian piano va in pezzi quando la figlia ormai adolescente compie un attacco terroristico che provoca una vittima. [img]http://i.imgur.com/48xHWWH.png[/img] An All-American college star and his beauty queen wife watch their seemingly perfect life fall apart, as their daughter joins the turmoil of '60s America. [img]http://i.imgur.com/K8bfNTy.png[/img] [url=https://extraimage.net/image/2K2Y][img]https://extraimage.net/images/2017/02/18/a528ea950a49ecaa54f8a5b3006b905d.th.png[/img][/url] [url=https://extraimage.net/image/2K2C][img]https://extraimage.net/images/2017/02/18/c62dda9a79d92663cdef9ca38872abb5.th.png[/img][/url] [url=https://extraimage.net/image/2K2p][img]https://extraimage.net/images/2017/02/18/8f027579db93fda5402dc9d47e689b79.th.png[/img][/url] [img]http://i.imgur.com/aVrMohH.png[/img] [spoiler] General Unique ID : 96775692770109054989759546975931929077 (0x48CE5209A1DE6B760A2F46984AB911F5) Complete name : American Pastoral (2016).H264.ita.eng.sub.ita.eng.iCV-MIRCrew.mkv Format : Matroska Format version : Version 2 File size : 1.65 GiB Duration : 1h 48mn Overall bit rate : 2 173 Kbps Movie name : VISIT www.icv-crew.org Encoded date : UTC 2017-02-12 19:29:01 Writing application : Lavf54.63.100 Writing library : Lavf54.63.100 COPYRIGHT : robbyrs Video ID : 1 Format : AVC Format/Info : Advanced Video Codec Format profile : [email protected] Format settings, CABAC : Yes Format settings, ReFrames : 2 frames Codec ID : V_MPEG4/ISO/AVC Duration : 1h 48mn Bit rate : 1 280 Kbps Width : 720 pixels Height : 304 pixels Display aspect ratio : 2.35:1 Frame rate mode : Variable Frame rate : 24.000 fps Color space : YUV Chroma subsampling : 4:2:0 Bit depth : 8 bits Scan type : Progressive Bits/(Pixel*Frame) : 0.244 Stream size : 959 MiB (57%) Writing library : x264 core 130 r2273 Encoding settings : cabac=1 / ref=2 / deblock=1:0:0 / analyse=0x1:0x131 / me=hex / subme=7 / psy=1 / psy_rd=1.00:0.00 / mixed_ref=0 / me_range=16 / chroma_me=1 / trellis=1 / 8x8dct=0 / cqm=0 / deadzone=21,11 / fast_pskip=1 / chroma_qp_offset=-2 / threads=12 / lookahead_threads=2 / sliced_threads=0 / nr=0 / decimate=1 / interlaced=0 / bluray_compat=0 / constrained_intra=0 / bframes=3 / b_pyramid=0 / b_adapt=1 / b_bias=0 / direct=3 / weightb=1 / open_gop=0 / weightp=2 / keyint=240 / keyint_min=24 / scenecut=40 / intra_refresh=0 / rc_lookahead=40 / rc=2pass / mbtree=1 / bitrate=1280 / ratetol=1.0 / qcomp=0.60 / qpmin=10 / qpmax=69 / qpstep=4 / cplxblur=20.0 / qblur=0.5 / vbv_maxrate=24000 / vbv_bufsize=24000 / nal_hrd=none / ip_ratio=1.40 / aq=1:1.00 Language : Italian Default : Yes Forced : No DURATION : 01:48:10.327000000 NUMBER_OF_FRAMES : 155768 NUMBER_OF_BYTES : 9478078336 _STATISTICS_WRITING_APP : mkvmerge v8.7.0 ('All of the above') 64bit _STATISTICS_WRITING_DATE_UTC : 2017-02-11 15:06:43 _STATISTICS_TAGS : BPS DURATION NUMBER_OF_FRAMES NUMBER_OF_BYTES Audio #1 ID : 2 Format : AC-3 Format/Info : Audio Coding 3 Mode extension : CM (complete main) Codec ID : A_AC3 Duration : 1h 48mn Bit rate mode : Constant Bit rate : 448 Kbps Channel(s) : 6 channels Channel positions : Front: L C R, Side: L R, LFE Sampling rate : 48.0 KHz Bit depth : 16 bits Compression mode : Lossy Delay relative to video : 1mn 5s Stream size : 348 MiB (21%) Title : AC3 ITA Language : Italian Default : No Forced : No DURATION : 01:48:42.976000000 NUMBER_OF_FRAMES : 203843 NUMBER_OF_BYTES : 521838080 _STATISTICS_WRITING_APP : mkvmerge v8.7.0 ('All of the above') 64bit _STATISTICS_WRITING_DATE_UTC : 2017-02-11 15:06:43 _STATISTICS_TAGS : BPS DURATION NUMBER_OF_FRAMES NUMBER_OF_BYTES Audio #2 ID : 3 Format : AC-3 Format/Info : Audio Coding 3 Mode extension : CM (complete main) Codec ID : A_AC3 Duration : 1h 48mn Bit rate mode : Constant Bit rate : 448 Kbps Channel(s) : 6 channels Channel positions : Front: L C R, Side: L R, LFE Sampling rate : 48.0 KHz Bit depth : 16 bits Compression mode : Lossy Delay relative to video : 1mn 5s Stream size : 348 MiB (21%) Title : AC3 ENG Language : English Default : No Forced : No DURATION : 01:48:16.896000000 NUMBER_OF_FRAMES : 203028 NUMBER_OF_BYTES : 519751680 _STATISTICS_WRITING_APP : mkvmerge v8.7.0 ('All of the above') 64bit _STATISTICS_WRITING_DATE_UTC : 2017-02-11 15:06:43 _STATISTICS_TAGS : BPS DURATION NUMBER_OF_FRAMES NUMBER_OF_BYTES Text #1 ID : 4 Format : UTF-8 Codec ID : S_TEXT/UTF8 Codec ID/Info : UTF-8 Plain Text Title : Forced Language : Italian Default : Yes Forced : No DURATION : 01:04:08.937000000 NUMBER_OF_FRAMES : 16 NUMBER_OF_BYTES : 509 _STATISTICS_WRITING_APP : mkvmerge v8.7.0 ('All of the above') 64bit _STATISTICS_WRITING_DATE_UTC : 2017-02-11 15:06:43 _STATISTICS_TAGS : BPS DURATION NUMBER_OF_FRAMES NUMBER_OF_BYTES Text #2 ID : 5 Format : UTF-8 Codec ID : S_TEXT/UTF8 Codec ID/Info : UTF-8 Plain Text Title : Regular Language : Italian Default : No Forced : No DURATION : 01:39:35.416000000 NUMBER_OF_FRAMES : 1343 NUMBER_OF_BYTES : 46692 _STATISTICS_WRITING_APP : mkvmerge v8.7.0 ('All of the above') 64bit _STATISTICS_WRITING_DATE_UTC : 2017-02-11 15:06:43 _STATISTICS_TAGS : BPS DURATION NUMBER_OF_FRAMES NUMBER_OF_BYTES Text #3 ID : 6 Format : UTF-8 Codec ID : S_TEXT/UTF8 Codec ID/Info : UTF-8 Plain Text Title : Regular Language : English Default : No Forced : No DURATION : 01:42:12.742000000 NUMBER_OF_FRAMES : 1442 NUMBER_OF_BYTES : 53682 _STATISTICS_WRITING_APP : mkvmerge v8.7.0 ('All of the above') 64bit _STATISTICS_WRITING_DATE_UTC : 2017-02-11 15:06:43 _STATISTICS_TAGS : BPS DURATION NUMBER_OF_FRAMES NUMBER_OF_BYTES Menu 00:00:00.000 : :00:00:00.000 00:07:28.708 : :00:07:28.708 00:11:13.249 : :00:11:13.249 00:19:18.249 : :00:19:18.249 00:25:57.374 : :00:25:57.374 00:32:13.666 : :00:32:13.666 00:38:49.833 : :00:38:49.833 00:45:39.249 : :00:45:39.249 00:52:48.041 : :00:52:48.041 00:58:01.249 : :00:58:01.249 01:04:57.166 : :01:04:57.166 01:11:57.124 : :01:11:57.124 01:17:30.541 : :01:17:30.541 01:25:35.875 : :01:25:35.875 01:32:33.416 : :01:32:33.416 01:38:56.666 : :01:38:56.666 [/spoiler] [/color][/b][/center]

Various Artists - Now That's What I Call Music! 95 (2016) (by emi)

Language: | Size: 229.45 MB | Seed: 706 | Leech: 237

Description:

mp3 a 192 kbps audio di qualità a 95 db Tracklist CD 1 01 - James Arthur - Say You Won't Let Go.mp3 (5.1 MB) 02 - Little Mix - Shout Out To My Ex.mp3 (5.9 MB) 03 - Clean Bandit (ft. Sean Paul & Anne-Marie) - Rockabye.mp3 (6.0 MB) 04 - The Chainsmokers (feat. Halsey) - Closer.mp3 (5.9 MB) 05 - Major Lazer (feat. Justin Bieber & M0) - Cold Water .mp3 (4.5 MB) 06 - Ariana Grande (feat. Nicki Minaj) - Side To Side.mp3 (5.4 MB) 07 - Sia - The Greatest.mp3 (5.0 MB) 08 - Calvin Harris - My Way.mp3 (5.3 MB) 09 - Hailee Steinfeld, Grey (feat. Zedd) - Starving .mp3 (4.4 MB) 10 - M.O - Who Do You Think Of.mp3 (5.4 MB) 11 - NEIKED (feat. Dyo) - Sexual.mp3 (4.6 MB) 12 - Anne-Marie - Alarm.mp3 (5.7 MB) 13 - Olly Murs - You Don't Know Love.mp3 (4.8 MB) 14 - M0 - Final Song.mp3 (6.0 MB) 15 - Maroon 5 - Don't Wanna Know.mp3 (5.2 MB) CD 2 01 - JP Cooper - September Song.mp3 (5.3 MB) 02 - Shawn Mendes - Mercy.mp3 (5.0 MB) 03 - Ellie Goulding - Still Falling For You.mp3 (5.8 MB) 04 - Emeli Sande - Hurts.mp3 (4.8 MB) 05 - Michael Buble - I Believe In You.mp3 (4.8 MB) 06 - Craig David - All We Needed.mp3 (5.2 MB) 07 - Drake (feat. Kyla & Wizki) - One Dance.mp3 (3.3 MB) 08 - DJ Snake (feat. Justin Bieber) - Let Me Love You.mp3 (5.0 MB) 09 - Fifth Harmony - That's My Girl.mp3 (5.4 MB) 10 - Sigma (feat. Birdy) - Find Me.mp3 (5.0 MB) 11 - Martin Garrix & Bebe Rexha - In The Name Of Love.mp3 (4.8 MB) 12 - Nevada (feat. Mark Morrison And Fetty Wap) - The Mack.mp3 (4.1 MB) 13 - Tieks (feat. Dan Harkna) - Sunshine.mp3 (6.1 MB) 14 - Zara Larsson - Ain't My Fault.mp3 (5.4 MB) 15 - Bob Marley (feat. LVNDSCAPE & Bolier) - Is This Love.mp3 (4.8 MB) CD 3 01 - Cash Cash & Digital Farm Animals (feat. Nelly) - Millionaire.mp3 (4.7 MB) 02 - Snakehips (feat. ZAYN) - Cruel.mp3 (6.2 MB) 03 - Matoma & Becky Hill - False Alarm.mp3 (5.3 MB) 04 - Galantis & Hook N Sling - Love On Me.mp3 (5.0 MB) 05 - Charli XCX (feat. Lil Yachty) - After The Afterparty.mp3 (5.3 MB) 06 - Dua Lipa - Blow Your Mind.mp3 (4.3 MB) 07 - Louisa Johnson - So Good.mp3 (4.6 MB) 08 - James TW - When You Love Someone.mp3 (5.5 MB) 09 - Wilkinson (feat. Karen Harding) - Sweet Lies.mp3 (5.5 MB) 10 - Craig David & Sigala - Ain't Giving Up.mp3 (3.9 MB) 11 - Charlie Puth - Dangerously.mp3 (4.8 MB) 12 - Offaiah - Trouble.mp3 (5.2 MB) 13 - Christine And The Queens - Tilted.mp3 (5.6 MB) 14 - Lady Gaga - Perfect Illusion.mp3 (4.4 MB) 15 - Niall Horan - This Town.mp3 (5.3 MB)

Inferno (2016).H264.Italian.English.Ac3.5.1.sub.ita.eng.iCV-MIRCrew

Language: | Size: 1.74 GB | Seed: 737 | Leech: 237

Description:

Inferno (2016).H264.Italian.English.Ac3.5.1.sub.ita.eng.iCV-MIRCrew [center] [color=red][b][img]http://s23.postimg.org/b9yhws27f/0sc_Del1.png[/img] [u]NO FOUND ONLY ORIGINAL RELEASE[/u] [img]http://i.imgur.com/GDNQx1Z.png[/img] My release is always in double track audio italian and Original audio for select it use VLC or dvd player home not use wmp Inferno (2016) [img]https://extraimage.net/images/2017/02/02/47ba31bc0885d25ad145502696efdcde.png[/img] [URL=http://www.imdb.com/title/tt3062096/][IMG]http://www.userlogos.org/files/logos/Sucka/imdb_new.png[/IMG][/URL] [img]http://i.imgur.com/fGu1rKv.png[/img] DATA USCITA: 13 ottobre 2016 GENERE: Thriller, Azione ANNO: 2016 REGIA: Ron Howard SCENEGGIATURA: David Koepp FOTOGRAFIA: Salvatore Totino MONTAGGIO: Tom Elkins MUSICHE: Hans Zimmer PRODUZIONE: Imagine Entertainment DISTRIBUZIONE: Warner Bros. Italia PAESE: USA DURATA: 121 Min [img]http://i.imgur.com/W7kBqiE.png[/img] Tom Hanks, Felicity Jones, Ben Foster, Omar Sy, Irrfan Khan, Sidse Babett Knudsen, Fausto Maria Sciarappa, Ana Ularu [img]http://i.imgur.com/bFK3ggF.png[/img] Le avventure del simbolista di Harvard non sono finite. Robert Langdon si risveglia in un ospedale di Firenze, vittima di una profonda amnesia, dopo che alcuni uomini misteriosi hanno tentato di ucciderlo e sembrano voler portare a termine il lavoro. Si affida al medico Sienna Brooks per recuperare i suoi ricordi e svelare ancora una volta i misteri che si annidano intorno all'opera immortale di Dante............ [img]http://i.imgur.com/48xHWWH.png[/img] Academy Award® winner Ron Howard returns to direct the latest bestseller in Dan Brown's (Da Vinci Code) billion-dollar Robert Langdon series, Inferno, which finds the famous symbologist (again played by Tom Hanks) on a trail of clues tied to the great Dante himself. When Langdon wakes up in an Italian hospital with amnesia, he teams up with Sienna Brooks (Felicity Jones), a doctor he hopes will help him recover his memories [img]http://i.imgur.com/K8bfNTy.png[/img] [url=https://extraimage.net/image/2bqP][img]https://extraimage.net/images/2017/02/02/fc8b41dc416d88f275d546c1462c24af.th.png[/img][/url] [url=https://extraimage.net/image/2bqG][img]https://extraimage.net/images/2017/02/02/c215e0eddddab76712f786b990d99d13.th.png[/img][/url] [url=https://extraimage.net/image/2bqX][img]https://extraimage.net/images/2017/02/02/c5bc0888b2ab28a814052f85a216f310.th.png[/img][/url] [url=https://extraimage.net/image/2bqg][img]https://extraimage.net/images/2017/02/02/f4e4da47584d35e9c92162fea1445cd9.th.png[/img][/url] [img]http://i.imgur.com/aVrMohH.png[/img] [spoiler] General ID univoco : 175153057339444333458146063469130337433 (0x83C54075D72124BED5742E9C4B34CC99) Nome completo : Inferno (2016).H264.ita.eng.sub.ita.eng.iCV-MIRCrew.mkv Formato : Matroska Versione formato : Version 2 Dimensione : 1,74 GiB Durata : 2o 1min Bitrate totale : 2.053 Kbps Film : VISIT www.icv-crew.org Data codifica : UTC 2017-02-02 14:37:08 / UTC 2017-02-02 14:37:08 Creato con : Lavf54.63.100 Compressore : Lavf54.63.100 / Lavf54.63.100 Copyright : robbyrs Video ID : 1 Formato : AVC Formato/Informazioni : Advanced Video Codec Profilo formato : [email protected] Impostazioni formato, CABAC : Si Impostazioni formato, ReFrames : 2 frame ID codec : V_MPEG4/ISO/AVC Durata : 2o 1min Bitrate : 1.280 Kbps Larghezza : 720 pixel Altezza : 384 pixel Rapporto aspetto visualizzazione : 1,85:1 Rapporto aspetto originale : 1,85:1 Modalità frame rate : Costante Frame rate : 23,976 (24000/1001) fps Spazio colore : YUV Croma subsampling : 4:2:0 Profondità bit : 8 bit Tipo scansione : Progressivo Bit/(pixel*frame) : 0.193 Dimensione della traccia : 1,06 GiB (61%) Compressore : x264 core 130 r2273 Impostazioni compressione : cabac=1 / ref=2 / deblock=1:0:0 / analyse=0x1:0x131 / me=hex / subme=7 / psy=1 / psy_rd=1.00:0.00 / mixed_ref=0 / me_range=16 / chroma_me=1 / trellis=1 / 8x8dct=0 / cqm=0 / deadzone=21,11 / fast_pskip=1 / chroma_qp_offset=-2 / threads=12 / lookahead_threads=2 / sliced_threads=0 / nr=0 / decimate=1 / interlaced=0 / bluray_compat=0 / constrained_intra=0 / bframes=3 / b_pyramid=0 / b_adapt=1 / b_bias=0 / direct=3 / weightb=1 / open_gop=0 / weightp=2 / keyint=230 / keyint_min=23 / scenecut=40 / intra_refresh=0 / rc_lookahead=40 / rc=2pass / mbtree=1 / bitrate=1280 / ratetol=1.0 / qcomp=0.60 / qpmin=10 / qpmax=69 / qpstep=4 / cplxblur=20.0 / qblur=0.5 / vbv_maxrate=24000 / vbv_bufsize=24000 / nal_hrd=none / ip_ratio=1.40 / aq=1:1.00 Lingua : Inglese Default : Si Forced : No Statistics Tags Issue : mkvmerge v8.7.0 ('All of the above') 64bit 2017-02-01 13:59:51 / Lavf54.63.100 2017-02-02 14:37:08 / UTC 2017-02-02 14:37:08 FromStats_BitRate : 9581905 FromStats_Duration : 02:01:35.247000000 FromStats_FrameCount : 174911 FromStats_StreamSize : 8737796191 Audio #1 ID : 2 Formato : AC-3 Formato/Informazioni : Audio Coding 3 Estensione modo : CM (complete main) Impostazioni formato, Endianness : Big ID codec : A_AC3 Durata : 2o 1min Modalità bitrate : Costante Bitrate : 384 Kbps Canali : 6 canali Posizione canali : Front: L C R, Side: L R, LFE Frequenza campionamento : 48,0 KHz Frame rate : 31,250 fps (1536 spf) Profondità bit : 16 bit Modo compressione : Con perdita Ritardo video : -5ms Dimensione della traccia : 334MiB (19%) Lingua : Italiano Default : Si Forced : No Statistics Tags Issue : mkvmerge v8.7.0 ('All of the above') 64bit 2017-02-01 13:59:51 / Lavf54.63.100 2017-02-02 14:37:08 / UTC 2017-02-02 14:37:08 FromStats_BitRate : 384000 FromStats_Duration : 02:01:34.304000000 FromStats_FrameCount : 227947 FromStats_StreamSize : 350126592 Audio #2 ID : 3 Formato : AC-3 Formato/Informazioni : Audio Coding 3 Estensione modo : CM (complete main) Impostazioni formato, Endianness : Big ID codec : A_AC3 Durata : 2o 1min Modalità bitrate : Costante Bitrate : 384 Kbps Canali : 6 canali Posizione canali : Front: L C R, Side: L R, LFE Frequenza campionamento : 48,0 KHz Frame rate : 31,250 fps (1536 spf) Profondità bit : 16 bit Modo compressione : Con perdita Ritardo video : -5ms Dimensione della traccia : 334MiB (19%) Lingua : Inglese Default : No Forced : No Statistics Tags Issue : mkvmerge v8.7.0 ('All of the above') 64bit 2017-02-01 13:59:51 / Lavf54.63.100 2017-02-02 14:37:08 / UTC 2017-02-02 14:37:08 FromStats_BitRate : 640000 FromStats_Duration : 02:01:35.328000000 FromStats_FrameCount : 227979 FromStats_StreamSize : 583626240 Testo #1 ID : 4 Formato : UTF-8 ID codec : S_TEXT/UTF8 ID codec/Informazioni : UTF-8 Plain Text Titolo : FORCED Lingua : Italiano Default : Si Forced : No Statistics Tags Issue : mkvmerge v8.7.0 ('All of the above') 64bit 2017-02-01 13:59:51 / Lavf54.63.100 2017-02-02 14:37:08 / UTC 2017-02-02 14:37:08 FromStats_BitRate : 0 FromStats_Duration : 01:42:58.512000000 FromStats_FrameCount : 24 FromStats_StreamSize : 753 Testo #2 ID : 5 Formato : UTF-8 ID codec : S_TEXT/UTF8 ID codec/Informazioni : UTF-8 Plain Text Titolo : REGULAR Lingua : Italiano Default : No Forced : No Statistics Tags Issue : mkvmerge v8.7.0 ('All of the above') 64bit 2017-02-01 13:59:51 / Lavf54.63.100 2017-02-02 14:37:08 / UTC 2017-02-02 14:37:08 FromStats_BitRate : 51 FromStats_Duration : 02:00:28.228000000 FromStats_FrameCount : 1334 FromStats_StreamSize : 46775 Testo #3 ID : 6 Formato : UTF-8 ID codec : S_TEXT/UTF8 ID codec/Informazioni : UTF-8 Plain Text Titolo : FORCED Lingua : Inglese Default : No Forced : No Statistics Tags Issue : mkvmerge v8.7.0 ('All of the above') 64bit 2017-02-01 13:59:51 / Lavf54.63.100 2017-02-02 14:37:08 / UTC 2017-02-02 14:37:08 FromStats_BitRate : 2 FromStats_Duration : 00:57:24.065000000 FromStats_FrameCount : 29 FromStats_StreamSize : 1039 Testo #4 ID : 7 Formato : UTF-8 ID codec : S_TEXT/UTF8 ID codec/Informazioni : UTF-8 Plain Text Titolo : NON UDENTI Lingua : Inglese Default : No Forced : No Statistics Tags Issue : mkvmerge v8.7.0 ('All of the above') 64bit 2017-02-01 13:59:51 / Lavf54.63.100 2017-02-02 14:37:08 / UTC 2017-02-02 14:37:08 FromStats_BitRate : 62 FromStats_Duration : 01:57:43.972000000 FromStats_FrameCount : 1666 FromStats_StreamSize : 55196 Menu 00:00:00.000 : :00:00:00.000 00:04:13.544 : :00:04:13.544 00:12:32.918 : :00:12:32.918 00:23:43.003 : :00:23:43.003 00:36:03.161 : :00:36:03.161 00:51:11.650 : :00:51:11.650 00:59:16.594 : :00:59:16.594 01:01:42.907 : :01:01:42.907 01:07:42.516 : :01:07:42.516 01:13:25.234 : :01:13:25.234 01:20:02.255 : :01:20:02.255 01:24:37.363 : :01:24:37.363 01:31:25.270 : :01:31:25.270 01:35:42.110 : :01:35:42.110 01:40:51.127 : :01:40:51.127 01:52:27.907 : :01:52:27.907 [/spoiler] [/color][/b][/center]

VA - Sanremo 2017

Language: | Size: 318.6 MB | Seed: 566 | Leech: 226

Description:

CD 1: BIG Elodie – Tutta colpa mia Fiorella Mannoia – Che sia benedetta Nesli e Alice Paba – Do retta a te Giusy Ferreri – Fa talmente male Samuel – Vedrai Michele Bravi – Il diario degli errori Clementino – Ragazzi Fuori Raige e Giulia Luzi – Togliamoci la voglia Francesco Gabbani – Occidentali’s Karma Sergio Sylvestre – Con Te Lodovica Comello – Il cielo non mi basta Ermal Meta – Vietato morire Gigi D’Alessio – La prima stella Paola Turci – Fatti bella per te Ron – L’ottava meraviglia Alessio Bernabei – Nel mezzo di un applauso Michele Zarrillo – Mani nelle mani Fabrizio Moro – Portami Via Al Bano – Di Rose e di Spine Marco Masini – Spostato di un secondo Chiara – Nessun posto è casa mia CD 2: Nuove Proposte & Cover Leonardo Lamacchia – Ciò che resta (Nuove Proposte) [Video] Maldestro – Canzone per Federica (Nuove Proposte) [Video] Marianne Mirage – Le canzoni fanno male (Nuove Proposte) Lele – Ora mai (Nuove Proposte) Francesco Guasti – Universo (Nuove Proposte) [Video] Tommaso Pini – Cose che danno ansia (Nuove Proposte) [Video – Backstage Video] Valeria Farinacci – Insieme (Nuove Proposte) [Video] Braschi – Nel mare ci sono i coccodrilli (Nuove Proposte) [Video] Clementino – Svalutation (Cover) Nesli e Alice Paba – Ma il cielo è sempre più blu (Cover) Michele Zarrillo – Se tu non torni (Cover) Michele Bravi – La stagione dell’amore (Cover) Lodovica Comello – Le mille bolle blu (Cover) Marco Masini – Signor Tenente (Cover) Al Bano – Pregherò (Cover) Raige e Giulia Luzi – C’era un ragazzo che come me amava i Beatles e i Rolling Stones (Cover) Ermal Meta – Amara Terra mia (Cover) Paola Turci – Un’emozione da poco (Cover) La Rua – Tutta la vita questa vita (bonus track – Sigla del Dopo Festival 2017) [Video]

Various Artists - Top 20 Hit List (2017) (by emi)

Language: | Size: 107.59 MB | Seed: 826 | Leech: 220

Description:

mp3 a 192 kbps audio di qualità a 95 db Tracklist 01 - Clean Bandit (ft. Sean Paul & Anne-Marie) - Rockabye.mp3 (6.0 MB) 02 - Fabio Rovazzi - Tutto Molto Interessante.mp3 (4.2 MB) 03 - Rag'n'Bone Man - Human.mp3 (4.7 MB) 04 - LP - Other People.mp3 (5.8 MB) 05 - J-AX & Fedez (feat. Stash & Levante) - Assenzio.mp3 (6.0 MB) 06 - Lady Gaga - Million Reasons.mp3 (4.9 MB) 07 - The Chainsmokers (feat. Halsey) - Closer.mp3 (5.8 MB) 08 - Maroon 5 - Don't Wanna Know.mp3 (8.8 MB) 09 - Robbie Williams - Love My Life.mp3 (5.0 MB) 10 - Giorgia - Oronero.mp3 (5.1 MB) 11 - Robin Schulz & David Guetta (feat. Cheat Codes) - Shed A Light.mp3 (4.6 MB) 12 - Tiziano Ferro - Potremmo Ritornare.mp3 (5.0 MB) 13 - OneRepublic - Let's Hurt Tonight.mp3 (5.0 MB) 14 - Rae Sremmurd (feat. Gucci Mane) - Black Beatles.mp3 (6.9 MB) 15 - Bruno Mars -24K Magic.mp3 (5.4 MB) 16 - The Weeknd (feat. Daft Punk) - Starboy.mp3 (5.5 MB) 17 - Shawn Mendes - Mercy.mp3 (5.0 MB) 18 - Stevie Wonder (feat. Ariana Grande) - Faith.mp3 (3.9 MB) 19 - Steve Aoki & Louis Tomlinson - Just Hold On.mp3 (4.8 MB) 20 - DJ Snake (feat. Justin Bieber) - Let Me Love You.mp3 (4.9 MB)

MasterChef Italia S06e21-22 Versione 720p [SATRip - 720p - H264 - Ita Aac] HDTVRip

Language: | Size: 3.21 GB | Seed: 770 | Leech: 207

Description:

Full Title: MasterChef Italia S06e19-20 Versione 720p [SATRip - 720p - H264 - Ita Aac] HDTVRip Descrizione: .: Scheda della serie :. Anno: 2011-in corso Genere: Talent Show Regia: Umberto Spinazzola Cast: Bruno Barbieri; Carlo Cracco; Joe Bastianich; Antonino Cannavacciuolo .: Descrizione :. Dopo un anno di famelica attesa prende il via la sesta stagione di MasterChef Italia. I fornelli della cucina più famosa della TV stanno per riaccendersi. Inizia la nuova stagione MasterChef con i giudici riconfermati Bruno Barbieri, Joe Bastianich, Antonino Cannavacciuolo e Carlo Cracco.

Now You See Me 2 - I maghi del crimine (2016).H264.Italian.English.Ac3.5.1.sub.ita

Language: | Size: 1.97 GB | Seed: 13 | Leech: 202

Description:

Now You See Me: The Second Act - Now You See Me 2 - I maghi del crimine (2016).H264.Italian.English.Ac3.5.1.sub.ita.iCV-MIRCrew [center] [color=red][b][img]https://s23.postimg.org/b9yhws27f/0sc_Del1.png[/img] [u]NO FOUND ONLY ORIGINAL RELEASE[/u] [img]http://i.imgur.com/GDNQx1Z.png[/img] My release is always in double track audio italian and Original audio for select it use VLC or dvd player home not use wmp Now You See Me 2 - I maghi del crimine (2016) [img]https://extraimage.net/images/2017/01/06/321eb8943e959bbb6c31783414074cf7.png[/img] [URL=http://www.imdb.com/title/tt3110958/][IMG]http://www.userlogos.org/files/logos/Sucka/imdb_new.png[/IMG][/URL] [img]http://i.imgur.com/fGu1rKv.png[/img] DATA USCITA: 08 giugno 2016 GENERE: Azione, Commedia, Thriller ANNO: 2016 REGIA: Jon M. Chu SCENEGGIATURA: Peter Chiarelli, Ed Solomon FOTOGRAFIA: Peter Deming MUSICHE: Brian Tyler PRODUZIONE: Lionsgate, Summit Entertainment DISTRIBUZIONE: Medusa Film PAESE: USA DURATA: 115 Min [img]http://i.imgur.com/W7kBqiE.png[/img] Daniel Radcliffe, Mark Ruffalo, Woody Harrelson, Morgan Freeman, Jesse Eisenberg, Michael Caine, Lizzy Caplan, Dave Franco, Sanaa Lathan, Jay Chou, Justine Wachsberger, David Warshofsky [img]http://i.imgur.com/bFK3ggF.png[/img] I Quattro Cavalieri affrontano una seconda avventura portando in tutto il mondo l'illusione a nuove vette di stupore. Un anno dopo aver ingannato l'FBI e aver conquistato il favore del pubblico con i loro spettacoli di magia alla Robin Hood, gli illusionisti ritornano con una nuova performance, nella speranza di smascherare le pratiche immorali di un magnate della tecnologia [img]http://i.imgur.com/48xHWWH.png[/img] The Four Horsemen resurface and are forcibly recruited by a tech genius to pull off their most impossible heist yet. [img]http://i.imgur.com/K8bfNTy.png[/img] [url=https://extraimage.net/image/2SsG][img]http://extraimage.net/images/2017/01/06/96bbb02cc65766720017fc8ae386e45c.th.png[/img][/url] [url=https://extraimage.net/image/2Ssr][img]http://extraimage.net/images/2017/01/06/5ff1d5698b8b16abda96dc07ed5d91b4.th.png[/img][/url] [url=https://extraimage.net/image/2SsP][img]http://extraimage.net/images/2017/01/06/3c575e6c88aa5be6a6907cfd4c809c80.th.png[/img][/url] [url=https://extraimage.net/image/2SsX][img]http://extraimage.net/images/2017/01/06/e9f75aac9e4d7e0f3cb57924a92512dd.th.png[/img][/url] [img]http://i.imgur.com/cWb6Z.gif[/img] [img]http://i.imgur.com/aVrMohH.png[/img] [spoiler] General Unique ID : 41048950598158502617317902547477899809 (0x1EE1BD853C5BB8D33C72FB588B60AA21) Complete name : Now You See Me 2 (2016).ita.eng.sub.ita.iCV-MIRCrew.mkv Format : Matroska Format version : Version 2 File size : 1.97 GiB Duration : 2h 9mn Overall bit rate : 2 176 Kbps Movie name : VISIT www.icv-crew.org Encoded date : UTC 2017-01-05 18:46:17 Writing application : Lavf54.63.100 Writing library : Lavf54.63.100 COPYRIGHT : robbyrs Video ID : 1 Format : AVC Format/Info : Advanced Video Codec Format profile : [email protected] Format settings, CABAC : Yes Format settings, ReFrames : 2 frames Codec ID : V_MPEG4/ISO/AVC Duration : 2h 9mn Bit rate : 1 275 Kbps Width : 720 pixels Height : 300 pixels Display aspect ratio : 2.40:1 Frame rate mode : Variable Frame rate : 24.000 fps Color space : YUV Chroma subsampling : 4:2:0 Bit depth : 8 bits Scan type : Progressive Bits/(Pixel*Frame) : 0.246 Stream size : 1.12 GiB (57%) Writing library : x264 core 130 r2273 Encoding settings : cabac=1 / ref=2 / deblock=1:0:0 / analyse=0x1:0x131 / me=hex / subme=7 / psy=1 / psy_rd=1.00:0.00 / mixed_ref=0 / me_range=16 / chroma_me=1 / trellis=1 / 8x8dct=0 / cqm=0 / deadzone=21,11 / fast_pskip=1 / chroma_qp_offset=-2 / threads=12 / lookahead_threads=2 / sliced_threads=0 / nr=0 / decimate=1 / interlaced=0 / bluray_compat=0 / constrained_intra=0 / bframes=3 / b_pyramid=0 / b_adapt=1 / b_bias=0 / direct=3 / weightb=1 / open_gop=0 / weightp=2 / keyint=240 / keyint_min=24 / scenecut=40 / intra_refresh=0 / rc_lookahead=40 / rc=2pass / mbtree=1 / bitrate=1275 / ratetol=1.0 / qcomp=0.60 / qpmin=10 / qpmax=69 / qpstep=4 / cplxblur=20.0 / qblur=0.5 / vbv_maxrate=24000 / vbv_bufsize=24000 / nal_hrd=none / ip_ratio=1.40 / aq=1:1.00 Language : English Default : Yes Forced : No DURATION : 02:09:41.875000000 NUMBER_OF_FRAMES : 186765 NUMBER_OF_BYTES : 9712151997 _STATISTICS_WRITING_APP : mkvmerge v8.7.0 ('All of the above') 64bit _STATISTICS_WRITING_DATE_UTC : 2016-11-01 20:14:41 _STATISTICS_TAGS : BPS DURATION NUMBER_OF_FRAMES NUMBER_OF_BYTES Audio #1 ID : 2 Format : AC-3 Format/Info : Audio Coding 3 Mode extension : CM (complete main) Codec ID : A_AC3 Duration : 2h 9mn Bit rate mode : Constant Bit rate : 448 Kbps Channel(s) : 6 channels Channel positions : Front: L C R, Side: L R, LFE Sampling rate : 48.0 KHz Bit depth : 16 bits Compression mode : Lossy Delay relative to video : 1mn 5s Stream size : 416 MiB (21%) Title : AC3 iTA Language : Italian Default : Yes Forced : No DURATION : 02:09:41.920000000 NUMBER_OF_FRAMES : 243185 NUMBER_OF_BYTES : 622553600 _STATISTICS_WRITING_APP : mkvmerge v8.7.0 ('All of the above') 64bit _STATISTICS_WRITING_DATE_UTC : 2016-11-01 20:14:41 _STATISTICS_TAGS : BPS DURATION NUMBER_OF_FRAMES NUMBER_OF_BYTES Audio #2 ID : 3 Format : AC-3 Format/Info : Audio Coding 3 Mode extension : CM (complete main) Codec ID : A_AC3 Duration : 2h 9mn Bit rate mode : Constant Bit rate : 448 Kbps Channel(s) : 6 channels Channel positions : Front: L C R, Side: L R, LFE Sampling rate : 48.0 KHz Bit depth : 16 bits Compression mode : Lossy Delay relative to video : 1mn 5s Stream size : 416 MiB (21%) Title : AC3 ENG Language : English Default : No Forced : No DURATION : 02:09:41.888000000 NUMBER_OF_FRAMES : 243184 NUMBER_OF_BYTES : 622551040 _STATISTICS_WRITING_APP : mkvmerge v8.7.0 ('All of the above') 64bit _STATISTICS_WRITING_DATE_UTC : 2016-11-01 20:14:41 _STATISTICS_TAGS : BPS DURATION NUMBER_OF_FRAMES NUMBER_OF_BYTES Text #1 ID : 4 Format : UTF-8 Codec ID : S_TEXT/UTF8 Codec ID/Info : UTF-8 Plain Text Title : FORCED iTA Language : Italian Default : Yes Forced : No DURATION : 01:53:59.083000000 NUMBER_OF_FRAMES : 18 NUMBER_OF_BYTES : 410 _STATISTICS_WRITING_APP : mkvmerge v8.7.0 ('All of the above') 64bit _STATISTICS_WRITING_DATE_UTC : 2016-11-01 20:14:41 _STATISTICS_TAGS : BPS DURATION NUMBER_OF_FRAMES NUMBER_OF_BYTES Text #2 ID : 5 Format : UTF-8 Codec ID : S_TEXT/UTF8 Codec ID/Info : UTF-8 Plain Text Title : REGULAR iTA Language : Italian Default : No Forced : No DURATION : 02:00:00.375000000 NUMBER_OF_FRAMES : 1759 NUMBER_OF_BYTES : 75285 _STATISTICS_WRITING_APP : mkvmerge v8.7.0 ('All of the above') 64bit _STATISTICS_WRITING_DATE_UTC : 2016-11-01 20:14:41 _STATISTICS_TAGS : BPS DURATION NUMBER_OF_FRAMES NUMBER_OF_BYTES Menu 00:00:00.000 : :00:00:00.000 00:05:30.580 : :00:05:30.580 00:20:47.872 : :00:20:47.872 00:36:52.794 : :00:36:52.794 01:00:16.571 : :01:00:16.571 01:05:52.866 : :01:05:52.866 01:15:16.625 : :01:15:16.625 01:27:09.625 : :01:27:09.625 01:36:48.833 : :01:36:48.833 01:48:28.000 : :01:48:28.000 02:01:11.625 : :02:01:11.625 [/spoiler] [/color][/b][/center]

Blindspot S01E08 FRENCH HDTV

Language: | Size: 341.21 MB | Seed: 1898 | Leech: 199

Description:

Blindspot S01E08 FRENCH HDTV

The Meddler (2015).H264.Italian.English.Ac3.5.1.sub.Ita.Eng.iCV-MIRCrew

Language: | Size: 1.57 GB | Seed: 35 | Leech: 198

Description:

Titolo originale: The Meddler Conosciuto anche come: Nazione: U.S.A. Anno: 2015 Genere: Commedia, Drammatico Durata: 100' Regia: Lorene Scafaria Sito ufficiale: www.sonyclassics.com/themeddler Cast: Rose Byrne, Lucy Punch, Susan Sarandon, Billy Magnussen, Jason Ritter, Michael McKean, J. K. Simmons, Laura San Giacomo Produzione: Sony Pictures Classics Distribuzione: Data di uscita: 14 Dicembre 2016 (dvd vendita) Trama: Una vedova newyorkese segue la figlia a Los Angeles nella speranza di iniziare una nuova vita dopo la morte del marito

Tarzan FRENCH DVDRIP 2016

Language: | Size: 1.38 GB | Seed: 9460 | Leech: 193

Description:

The.Legend.of.Tarzan.2016.FRENCH.BDRip.XViD-FUNKKY Une relecture du mythe Tarzan.Après avoir grandi dans la jungle africaine, Tarzan a renoué avec ses origines aristocratiques, répondant désormais au nom de John Clayton, Lord Greystoke. Il mène une vie paisible auprès de son épouse Jane jusqu'au jour où il est convié au Congo en tant qu'émissaire du Commerce. Mais il est loin de se douter du piège qui l'attend. Car le redoutable belge Leon Rom est bien décidé à l'utiliser pour assouvir sa soif de vengeance et sa cupidité…

Trolls.2016.iTALiAN.AC3.BRRip.XviD-T4P3

Language: | Size: 1.23 GB | Seed: 428 | Leech: 192

Description:

Trolls Titolo originale: Trolls Nazione: U.S.A. Anno: 2016 Genere: Animazione, Avventura, Famiglia Durata: 92' Regia: Mike Mitchell, Walt Dohrn Cast (voci originali): Anna Kendrick, James Corden, Justin Timberlake, Kunal Nayyar, Gwen Stefani, Russell Brand, Ron Funches Cast (voci italiane): Alessio Bernabei Produzione: DreamWorks Animation Distribuzione: 20th Century Fox Data di uscita: 27 Ottobre 2016 (cinema) Trama: Il film ci catapulta in un mondo fantastico e variopinto, popolato dagli ottimisti Trolls, sempre pronti a ballare e a cantare, e dai pessimisti Bergen, che sono felici solo quando divorano i Troll. Quando i Bergen invadono il villaggio dei Trolls, Poppy, la piccola Troll più allegra che sia mai esistita, si lancia in una missione per soccorrere i suoi amici al fianco di Branch, un Troll che a differenza degli altri, è terribilmente burbero e timoroso. Il loro viaggio è irto di avventure e di imprevisti e questo improbabile duo dovrà tollerarsi a lungo a vicenda, prima di riuscire a portare a termine la sua importante missione.

Don't Breathe - Man In The Dark (2016).H264.Italian.English.Ac3.5.1.sub.ita.eng.iCV-MIRCrew

Language: | Size: 1.27 GB | Seed: 41 | Leech: 191

Description:

[img]http://i.imgur.com/GDNQx1Z.png[/img] My release is always in double track audio italian and Original audio for select it use VLC or dvd player home not use wmp Man In The Dark - Don't Breathe (2016) [img]http://extraimage.net/images/2016/12/29/1944fd3ddb5cf3a8736d54d2a9ce63a6.png[/img] [URL=http://www.imdb.com/title/tt4160708/][IMG]http://www.userlogos.org/files/logos/Sucka/imdb_new.png[/IMG][/URL] [img]http://s19.postimage.org/bgh0za7kj/banner_scheda.gif[/img] DATA USCITA: 08 settembre 2016 GENERE: Horror, Thriller ANNO: 2016 REGIA: Fede Alvarez SCENEGGIATURA: Fede Alvarez, Rodo Sayagues MUSICHE: Roque Baños PRODUZIONE: Ghost House Pictures, Good Universe, Sony Pictures Entertainment DISTRIBUZIONE: Warner Bros. Italia PAESE: USA DURATA: 88 Min [img]http://s19.postimage.org/i9hdvjydv/banner_trama.gif[/img] Jane Levy, Dylan Minnette, Daniel Zovatto, Stephen Lang [img]http://s19.postimage.org/i9hdvjydv/banner_trama.gif[/img] Alcuni ragazzi si introducono nella casa di un uomo cieco per commettere un crimine. Considerando le condizioni del padrone di casa i giovani sono convinti che si tratterà di una passeggiata, ma le cose non andranno come previsto. [img]http://s19.postimage.org/nwdqt10wj/banner_storyline.gif[/img] Hoping to walk away with a massive fortune, a trio of thieves break into the house of a blind man who isn't as helpless as he seems. [img]http://i.imgur.com/GgEl7ea.png[/img] [url=https://extraimage.net/image/2cAN][img]http://extraimage.net/images/2016/12/29/9af35bad443ff0eaaf9dec9ece1a3bcb.th.png[/img][/url] [url=https://extraimage.net/image/2cAT][img]http://extraimage.net/images/2016/12/29/dd9e42eb7a0ab601b4ddd88c62bba92d.th.png[/img][/url] [url=https://extraimage.net/image/2cAj][img]http://extraimage.net/images/2016/12/29/04446ea1397996e484c2639d3bf99f67.th.png[/img][/url] [url=https://extraimage.net/image/2cAn][img]http://extraimage.net/images/2016/12/29/a3e9a94eca2bfa476637b8251dddee83.th.png[/img][/url] [img]http://i.imgur.com/cWb6Z.gif[/img] [img]http://s19.postimage.org/f07k2tzo3/banner_dati_file.gif[/img] [spoiler] General Unique ID : 259948078423925999277219218465827266731 (0xC3902DC74B9D95BD821B886DF66B20AB) Complete name : Man In The Dark (2016).H264.ita.eng.sub.ita.eng.iCV-MIRCrew.mkv Format : Matroska Format version : Version 2 File size : 1.27 GiB Duration : 1h 28mn Overall bit rate : 2 048 Kbps Movie name : VISIT www.icv-crew.org Encoded date : UTC 2016-12-28 09:55:29 Writing application : Lavf54.63.100 Writing library : Lavf54.63.100 COPYRIGHT : robbyrs Video ID : 1 Format : AVC Format/Info : Advanced Video Codec Format profile : [email protected] Format settings, CABAC : Yes Format settings, ReFrames : 2 frames Codec ID : V_MPEG4/ISO/AVC Duration : 1h 28mn Bit rate : 1 275 Kbps Width : 720 pixels Height : 300 pixels Display aspect ratio : 2.40:1 Frame rate mode : Variable Frame rate : 23.976 fps Color space : YUV Chroma subsampling : 4:2:0 Bit depth : 8 bits Scan type : Progressive Bits/(Pixel*Frame) : 0.246 Stream size : 785 MiB (61%) Writing library : x264 core 130 r2273 Encoding settings : cabac=1 / ref=2 / deblock=1:0:0 / analyse=0x1:0x131 / me=hex / subme=7 / psy=1 / psy_rd=1.00:0.00 / mixed_ref=0 / me_range=16 / chroma_me=1 / trellis=1 / 8x8dct=0 / cqm=0 / deadzone=21,11 / fast_pskip=1 / chroma_qp_offset=-2 / threads=12 / lookahead_threads=2 / sliced_threads=0 / nr=0 / decimate=1 / interlaced=0 / bluray_compat=0 / constrained_intra=0 / bframes=3 / b_pyramid=0 / b_adapt=1 / b_bias=0 / direct=3 / weightb=1 / open_gop=0 / weightp=2 / keyint=230 / keyint_min=23 / scenecut=40 / intra_refresh=0 / rc_lookahead=40 / rc=2pass / mbtree=1 / bitrate=1275 / ratetol=1.0 / qcomp=0.60 / qpmin=10 / qpmax=69 / qpstep=4 / cplxblur=20.0 / qblur=0.5 / vbv_maxrate=24000 / vbv_bufsize=24000 / nal_hrd=none / ip_ratio=1.40 / aq=1:1.00 Language : English Default : Yes Forced : No DURATION : 01:28:32.266000000 NUMBER_OF_FRAMES : 127367 NUMBER_OF_BYTES : 6720486044 _STATISTICS_WRITING_APP : mkvmerge v8.7.0 ('All of the above') 64bit _STATISTICS_WRITING_DATE_UTC : 2016-12-24 13:59:29 _STATISTICS_TAGS : BPS DURATION NUMBER_OF_FRAMES NUMBER_OF_BYTES Audio #1 ID : 2 Format : AC-3 Format/Info : Audio Coding 3 Mode extension : CM (complete main) Codec ID : A_AC3 Duration : 1h 28mn Bit rate mode : Constant Bit rate : 384 Kbps Channel(s) : 6 channels Channel positions : Front: L C R, Side: L R, LFE Sampling rate : 48.0 KHz Bit depth : 16 bits Compression mode : Lossy Delay relative to video : 1mn 5s Stream size : 243 MiB (19%) Language : Italian Default : Yes Forced : No DURATION : 01:28:31.936000000 NUMBER_OF_FRAMES : 165998 NUMBER_OF_BYTES : 254972928 _STATISTICS_WRITING_APP : mkvmerge v8.7.0 ('All of the above') 64bit _STATISTICS_WRITING_DATE_UTC : 2016-12-24 13:59:29 _STATISTICS_TAGS : BPS DURATION NUMBER_OF_FRAMES NUMBER_OF_BYTES Audio #2 ID : 3 Format : AC-3 Format/Info : Audio Coding 3 Mode extension : CM (complete main) Codec ID : A_AC3 Duration : 1h 28mn Bit rate mode : Constant Bit rate : 384 Kbps Channel(s) : 6 channels Channel positions : Front: L C R, Side: L R, LFE Sampling rate : 48.0 KHz Bit depth : 16 bits Compression mode : Lossy Delay relative to video : 1mn 5s Stream size : 243 MiB (19%) Language : English Default : No Forced : No DURATION : 01:28:32.288000000 NUMBER_OF_FRAMES : 166009 NUMBER_OF_BYTES : 424983040 _STATISTICS_WRITING_APP : mkvmerge v8.7.0 ('All of the above') 64bit _STATISTICS_WRITING_DATE_UTC : 2016-12-24 13:59:29 _STATISTICS_TAGS : BPS DURATION NUMBER_OF_FRAMES NUMBER_OF_BYTES Text #1 ID : 4 Format : UTF-8 Codec ID : S_TEXT/UTF8 Codec ID/Info : UTF-8 Plain Text Title : Forced Language : Italian Default : Yes Forced : No DURATION : 01:20:20.612000000 NUMBER_OF_FRAMES : 9 NUMBER_OF_BYTES : 282 _STATISTICS_WRITING_APP : mkvmerge v8.7.0 ('All of the above') 64bit _STATISTICS_WRITING_DATE_UTC : 2016-12-24 13:59:29 _STATISTICS_TAGS : BPS DURATION NUMBER_OF_FRAMES NUMBER_OF_BYTES Text #2 ID : 5 Format : UTF-8 Codec ID : S_TEXT/UTF8 Codec ID/Info : UTF-8 Plain Text Title : Regular Language : Italian Default : No Forced : No DURATION : 01:26:15.259000000 NUMBER_OF_FRAMES : 508 NUMBER_OF_BYTES : 15478 _STATISTICS_WRITING_APP : mkvmerge v8.7.0 ('All of the above') 64bit _STATISTICS_WRITING_DATE_UTC : 2016-12-24 13:59:29 _STATISTICS_TAGS : BPS DURATION NUMBER_OF_FRAMES NUMBER_OF_BYTES Text #3 ID : 6 Format : UTF-8 Codec ID : S_TEXT/UTF8 Codec ID/Info : UTF-8 Plain Text Title : Regular Language : English Default : No Forced : No DURATION : 01:20:35.038000000 NUMBER_OF_FRAMES : 493 NUMBER_OF_BYTES : 13931 _STATISTICS_WRITING_APP : mkvmerge v8.7.0 ('All of the above') 64bit _STATISTICS_WRITING_DATE_UTC : 2016-12-24 13:59:29 _STATISTICS_TAGS : BPS DURATION NUMBER_OF_FRAMES NUMBER_OF_BYTES Menu 00:00:00.000 : :00:00:00.000 00:07:05.342 : :00:07:05.342 00:14:28.201 : :00:14:28.201 00:20:13.838 : :00:20:13.838 00:29:27.099 : :00:29:27.099 00:39:02.590 : :00:39:02.590 00:50:56.804 : :00:50:56.804 00:59:52.756 : :00:59:52.756 01:08:53.129 : :01:08:53.129 01:16:19.950 : :01:16:19.950 01:23:27.706 : :01:23:27.706 [/spoiler] [/color][/b][/center]

Elvis.E.Nixon.2016.iTALiAN.AC3.BRRip.XviD-T4P3

Language: | Size: 1.15 GB | Seed: 10 | Leech: 191

Description:

Elvis & Nixon Titolo originale: Elvis & Nixon Conosciuto anche come: Elvis e Nixon Nazione: U.S.A. Anno: 2016 Genere: Commedia Durata: 86' Regia: Liza Johnson Cast: Michael Shannon, Kevin Spacey, Alex Pettyfer, Johnny Knoxville, Colin Hanks, Evan Peters, Sky Ferreira, Tracy Letts, Tate Donovan, Ashley Benson, Justin Lebrun, Joey Sagal, Hanala Sagal Produzione: Amazon Studios Distribuzione: Videa - CDE Data di uscita: 22 Settembre 2016 (cinema) Trama: Nel 1970 Elvis Presley si reca a Washington D.C. con l'obiettivo di convincere il presidente Richard Nixon a nominarlo agente federale sotto copertura. Presley si presenta senza preavviso alla porta della Casa Bianca con il suo amico Jerry Schilling e persuade le guardie sbalordite a consegnare di persona una lettera a Nixon, con la quale richiede un incontro privato. I membri dello staff della Casa Bianca Egil "Bud" Krogh e Dwight Chapin suggeriscono al presidente che un incontro con Elvis durante l'anno elettorale potrebbe far bene alle pubbliche relazioni, ma Nixon non sembra essere in vena di assecondare la richiesta del leggendario cantante rock. Senza scoraggiarsi, Jerry e Sonny, il partner di Elvis, cercano di trovare un accordo con Krogh e Chapin: Elvis firmerà un autografo per Julie, la figlia di Nixon, in cambio dell'incontro con il Presidente. Prima di fare il suo ingresso trionfale, Presley viene istruito ampiamente sul protocollo della Casa Bianca, ma della cosa si disinteressa in fretta. Con sorpresa e stupore di tutti, i due simpatizzano, superando il reciproco disprezzo derivante dall'appartenenza a due culture differenti.

Don Camillo e l'onorevole Peppone (1955) [DVD9-Ita Ac3-Sub Ita Eng] Vers. restaurata

Language: | Size: 6.11 GB | Seed: 136 | Leech: 191

Description:

Don Camillo e l'onorevole Peppone (1955) [DVD9-Ita Ac3-Sub Ita Eng] Vers. restaurata .: Trama :. 1948, nel paese prosegue la rivalità tra don Camillo e Peppone, che continuano a farsi i soliti dispetti. Oltretutto ci sono le elezioni, la campagna elettorale, molto infuocata, e Peppone, inoltre, si candida come deputato, cosa che fa uscire dai gangheri don Camillo, che si ritrova sempre più spesso davanti all'altar maggiore per protestare con il Cristo... .: Scheda :. Titolo originale: Don Camillo e l'onorevole Peppone Paese di produzione: Italia, Francia Anno: 25 Ottobre 1955 Durata: 106 min Colore: B/N Audio: sonoro Rapporto: 4:3 Genere: Commedia Produzione: Cinema Rizzoli Regia: Carmine Gallone Soggetto: Giovannino Guareschi Sceneggiatura: René Barjavel, Giovannino Guareschi .: Dati tecnici del file :. Dati DVD Lingua: italiano mono 1.0 Sottotitoli: italiano, inglese Schermo panoramico: 1:33:1 Risoluzione: 720x576 Colore: B/N Durata: 97 min. Visione: adatta a tutti

The.Accountant.2016.iTALiAN.AC3.BRRip.XviD-T4P3

Language: | Size: 1.42 GB | Seed: 22 | Leech: 190

Description:

The Accountant Titolo originale: The Accountant Nazione: U.S.A. Anno: 2016 Genere: Drammatico Durata: 128' Regia: Gavin O'Connor Cast: Anna Kendrick, Ben Affleck, Jon Bernthal, J.K. Simmons, Jeffrey Tambor, John Lithgow, Cynthia Addai-Robinson Produzione: Electric City Entertainment, Zero Gravity Management Distribuzione: Warner Bros. Pictures Italia Data di uscita: Roma 2016 - Selezione Ufficiale 27 Ottobre 2016 (cinema) Trama: Christian Wolff è un matematico autistico che ha più affinità con i numeri che con le persone. Lavora sotto copertura in uno studio di una piccola città di provincia, come contabile freelance per alcune delle organizzazioni criminali più pericolose del mondo. Messo sotto pressione da Ray King, capo della divisione anti-crimine del Dipartimento del Tesoro, Christian assume l’incarico di un nuovo cliente: una società di robotica d’avanguardia in cui un’ addetta alla contabilità ha scoperto un ammanco nei conti di milioni di dollari. Non appena Christian individua le falsificazioni dei documenti avvicinandosi alla verità, il numero delle vittime inizia ad aumentare.

I.Babysitter.2016.iTALiAN.AC3.DVDRip.XviD-T4P3

Language: | Size: 1.37 GB | Seed: 481 | Leech: 183

Description:

I babysitter Titolo originale: I babysitter Conosciuto anche come: Nazione: Italia Anno: 2016 Genere: Commedia Durata: 84' Regia: Giovanni Bognetti Cast: Francesco Mandelli, Paolo Ruffini, Andrea Pisani, Simona Tabasco, Davide Pinter, Luca Peracino, Alberto Farina, Bruno Gambarotta, Francesca Cavallin, Antonio Catania, Francesco Facchinetti, Diego Abatantuono Produzione: Colorado Film, Medusa Film Distribuzione: Medusa Data di uscita: 19 Ottobre 2016 (cinema) Trama: Andrea, un trentenne introverso e insicuro, sogna di diventare un importante procuratore sportivo. Intanto lavora come impiegato di ultimo livello nello studio del celebre agente dei campioni, Gianni Porini. L'occasione della sua vita si presenta il giorno in cui Porini deve ricevere un prestigioso premio al Gran Galà dello Sport e con sua moglie si ritrova all'improvviso ad aver bisogno di una babysitter che possa badare al figlio. Porini, nella fretta, chiede ad Andrea di occuparsi del capricciosissimo Remo. Andrea accetta, pensando si tratti di un'ottima occasione per farsi benvolere e ottenere l'avanzamento di carriera tanto desiderato. Proprio quel giorno, però, è anche il suo compleanno e da anni i suoi amici Aldo e Mario, uno più incosciente dell'altro, lo festeggiano con un party scatenato e, soprattutto, filmando con una telecamera amatoriale ogni momento della serata. E così accade anche la sera in cui Andrea dovrebbe badare al piccolo Remo. La villa dei Porini diventa così l'assurda location di una festa fuori controllo. Il mattino dopo la polizia contatta il celebre agente: la villa è devastata, e del piccolo Remo e di Andrea non c'è traccia. I coniugi Porini tornano a casa dove gli inquirenti hanno trovato, tra le macerie del party, la telecamera... Cosa vedranno in quelle immagini?

Passengers.2016.iTALiAN.AC3.BRRip.XviD-T4P3

Language: | Size: 1.5 GB | Seed: 514 | Leech: 183

Description:

Passengers Titolo originale: Passengers Conosciuto anche come: Nazione: U.S.A. Anno: 2016 Genere: Avventura, Drammatico, Romantico Durata: 116' Regia: Morten Tyldum Cast: Jennifer Lawrence, Chris Pratt, Michael Sheen, Laurence Fishburne, Jamie Soricelli, Aurora Perrineau, Kimberly Battista, Shelby Taylor Mullins, Marie Burke Produzione: Sony Pictures Entertainment, Start Motion Pictures, Company Films Distribuzione: Warner Bros Italia Data di uscita: 30 Dicembre 2016 (cinema) Trama: Due sconosciuti durante un viaggio lungo 120 anni verso un altro pianeta, si svegliano 90 anni prima del previsto, a causa di un malfunzionamento al sistema delle loro capsule di ibernazione. Jim e Aurora sono costretti a ricercare il mistero del guasto, mentre la navicella è sull’orlo della distruzione, mettendo in pericolo la vita dei passeggeri nel corso della più grande migrazione di massa della storia umana.

Hunger Games - La Révolte : Partie 2 TRUEFRENCH DVDRIP 2015

Language: | Size: 1.38 GB | Seed: 1473 | Leech: 178

Description:

Alors que Panem est ravagé par une guerre désormais totale, Katniss et le Président Snow vont s’affronter pour la dernière fois. Katniss et ses plus proches amis – Gale, Finnick, et Peeta – sont envoyés en mission pour le District 13 : ils vont risquer leur vie pour tenter d’assassiner le Président Snow, qui s’est juré de détruire Katniss. Les pièges mortels, les ennemis et les choix déchirants qui attendent Katniss seront des épreuves bien pires que tout ce qu’elle a déjà pu affronter dans l’arène…

Doctor Strange (2016).720p.H264.Italian.English.Ac3.5.1.sub.ita.eng.iCV-MIRCrew

Language: | Size: 3.43 GB | Seed: 6 | Leech: 172

Description:

Doctor Strange (2016).720p.H264.Italian.English.Ac3.5.1.sub.ita.eng.iCV-MIRCrew [center] [color=red][b][img]http://s23.postimg.org/b9yhws27f/0sc_Del1.png[/img] [u]NO FOUND ONLY ORIGINAL RELEASE[/u] [img]http://i.imgur.com/GDNQx1Z.png[/img] My release is always in double track audio italian and Original audio for select it use VLC or dvd player home not use wmp Doctor Strange (2016) [img]https://extraimage.net/images/2017/02/18/6ab50999a51f8453d651b80f3154d704.png[/img] [URL=http://www.imdb.com/title/tt1211837/][IMG]http://www.userlogos.org/files/logos/Sucka/imdb_new.png[/IMG][/URL] [img]http://i.imgur.com/fGu1rKv.png[/img] DATA USCITA: 26 ottobre 2016 GENERE: Avventura, Fantasy, Azione ANNO: 2016 REGIA: Scott Derrickson SCENEGGIATURA: Thomas Dean Donnelly, Joshua Oppenheimer, Jon Spaihts FOTOGRAFIA: Ben Davis MONTAGGIO: Wyatt Smith MUSICHE: Christopher Young PRODUZIONE: Marvel Studios DISTRIBUZIONE: Walt Disney Studios Motion Pictures PAESE: USA DURATA: 115 Min [img]http://i.imgur.com/W7kBqiE.png[/img] Benedict Cumberbatch, Rachel McAdams, Tilda Swinton, Mads Mikkelsen, Chiwetel Ejiofor, Michael Stuhlbarg, Benedict Wong, Benjamin Bratt, Scott Adkins [img]http://i.imgur.com/bFK3ggF.png[/img] Doctor Strange racconta la storia del neurochirurgo di fama mondiale Stephen Strange, la cui vita cambia per sempre dopo che un terribile incidente automobilistico lo priva dell’uso delle mani. Quando la medicina tradizionale si dimostra incapace di guarirlo, Strange è costretto cercare una cura in un luogo inaspettato: una misteriosa enclave nota come Kamar-Taj. Scoprirà presto che non si tratta soltanto di un luogo di guarigione ma della prima linea di una battaglia contro invisibili forze oscure decise a..................... [img]http://i.imgur.com/48xHWWH.png[/img] Marvel's "Doctor Strange" follows the story of the talented neurosurgeon Doctor Stephen Strange who, after a tragic car accident, must put ego aside and learn the secrets of a hidden world of mysticism and alternate dimensions. Based in New York City's Greenwich Village, Doctor Strange must act as an intermediary between the real world and what lies beyond, utilising a vast array of metaphysical abilities and artifacts to protect the Marvel Cinematic Universe. [img]http://i.imgur.com/K8bfNTy.png[/img] [url=https://extraimage.net/image/2Kdu][img]https://extraimage.net/images/2017/02/19/c7f882415f6bf688a431eb6c23ebfe52.th.png[/img][/url] [url=https://extraimage.net/image/2KdV][img]https://extraimage.net/images/2017/02/19/e5651dc93703fd38f72c72180190d721.th.png[/img][/url] [url=https://extraimage.net/image/2Kdv][img]https://extraimage.net/images/2017/02/19/dd102944dc3036bcabfe58361a7cad97.th.png[/img][/url] [url=https://extraimage.net/image/2KdA][img]https://extraimage.net/images/2017/02/19/f0a45b06dd9039cb6b57cbb97e0895b1.th.png[/img][/url] [img]http://i.imgur.com/aVrMohH.png[/img] [spoiler] Generale ID univoco : 211373727805697524236788858647509402455 (0x9F0519641B9DD0FFBEB74BE3477B0357) Nome completo : Doctor Strange (2016).720p.H264.ita.eng.sub.ita.eng.iCV-MIRCrew.mkv Formato : Matroska Versione formato : Version 2 Dimensione : 3,43 GiB Durata : 1o 54min Bitrate totale : 4.273 Kbps Film : VISIT www.icv-crew.org Data codifica : UTC 2017-02-19 01:59:26 / UTC 2017-02-19 01:59:26 Creato con : Lavf54.63.100 Compressore : Lavf54.63.100 / Lavf54.63.100 Video ID : 1 Formato : AVC Formato/Informazioni : Advanced Video Codec Profilo formato : [email protected] Impostazioni formato, CABAC : Si Impostazioni formato, ReFrames : 2 frame ID codec : V_MPEG4/ISO/AVC Durata : 1o 54min Bitrate : 3.500 Kbps Larghezza : 1.712 pixel Altezza : 720 pixel Rapporto aspetto visualizzazione : 2,40:1 Modalità frame rate : Costante Frame rate : 23,976 (24000/1001) fps Spazio colore : YUV Croma subsampling : 4:2:0 Profondità bit : 8 bit Tipo scansione : Progressivo Bit/(pixel*frame) : 0.118 Dimensione della traccia : 2,75 GiB (80%) Compressore : x264 core 130 r2273 Impostazioni compressione : cabac=1 / ref=2 / deblock=1:0:0 / analyse=0x1:0x131 / me=hex / subme=7 / psy=1 / psy_rd=1.00:0.00 / mixed_ref=0 / me_range=16 / chroma_me=1 / trellis=1 / 8x8dct=0 / cqm=0 / deadzone=21,11 / fast_pskip=1 / chroma_qp_offset=-2 / threads=12 / lookahead_threads=2 / sliced_threads=0 / nr=0 / decimate=1 / interlaced=0 / bluray_compat=0 / constrained_intra=0 / bframes=3 / b_pyramid=0 / b_adapt=1 / b_bias=0 / direct=3 / weightb=1 / open_gop=0 / weightp=2 / keyint=230 / keyint_min=23 / scenecut=40 / intra_refresh=0 / rc_lookahead=40 / rc=2pass / mbtree=1 / bitrate=3500 / ratetol=1.0 / qcomp=0.60 / qpmin=10 / qpmax=69 / qpstep=4 / cplxblur=20.0 / qblur=0.5 / vbv_maxrate=24000 / vbv_bufsize=24000 / nal_hrd=none / ip_ratio=1.40 / aq=1:1.00 Lingua : Italiano Default : Si Forced : No Statistics Tags Issue : mkvmerge v7.2.0 ('On Every Street') 32bit built on Sep 13 2014 15:42:11 2017-02-15 11:29:50 / Lavf54.63.100 2017-02-19 01:59:26 / UTC 2017-02-19 01:59:26 FromStats_BitRate : 8010636 FromStats_Duration : 01:54:58.559000000 FromStats_FrameCount : 165400 FromStats_StreamSize : 6907730801 Audio #1 ID : 2 Formato : AC-3 Formato/Informazioni : Audio Coding 3 Estensione modo : CM (complete main) Impostazioni formato, Endianness : Big ID codec : A_AC3 Durata : 1o 54min Modalità bitrate : Costante Bitrate : 384 Kbps Canali : 6 canali Posizione canali : Front: L C R, Side: L R, LFE Frequenza campionamento : 48,0 KHz Frame rate : 31,250 fps (1536 spf) Profondità bit : 16 bit Modo compressione : Con perdita Ritardo video : -5ms Dimensione della traccia : 316MiB (9%) Lingua : Italiano Default : Si Forced : Si Statistics Tags Issue : mkvmerge v7.2.0 ('On Every Street') 32bit built on Sep 13 2014 15:42:11 2017-02-15 11:29:50 / Lavf54.63.100 2017-02-19 01:59:26 / UTC 2017-02-19 01:59:26 FromStats_BitRate : 384000 FromStats_Duration : 01:54:58.464000000 FromStats_FrameCount : 215577 FromStats_StreamSize : 331126272 Audio #2 ID : 3 Formato : AC-3 Formato/Informazioni : Audio Coding 3 Estensione modo : CM (complete main) Impostazioni formato, Endianness : Big ID codec : A_AC3 Durata : 1o 54min Modalità bitrate : Costante Bitrate : 384 Kbps Canali : 6 canali Posizione canali : Front: L C R, Side: L R, LFE Frequenza campionamento : 48,0 KHz Frame rate : 31,250 fps (1536 spf) Profondità bit : 16 bit Modo compressione : Con perdita Ritardo video : -5ms Dimensione della traccia : 316MiB (9%) Lingua : Inglese Default : No Forced : No Statistics Tags Issue : mkvmerge v7.2.0 ('On Every Street') 32bit built on Sep 13 2014 15:42:11 2017-02-15 11:29:50 / Lavf54.63.100 2017-02-19 01:59:26 / UTC 2017-02-19 01:59:26 FromStats_BitRate : 640000 FromStats_Duration : 01:54:58.592000000 FromStats_FrameCount : 215581 FromStats_StreamSize : 551887360 Testo #1 ID : 4 Formato : UTF-8 ID codec : S_TEXT/UTF8 ID codec/Informazioni : UTF-8 Plain Text Titolo : FORCED iTA Lingua : Italiano Default : Si Forced : Si Statistics Tags Issue : mkvmerge v7.2.0 ('On Every Street') 32bit built on Sep 13 2014 15:42:11 2017-02-15 11:29:50 / Lavf54.63.100 2017-02-19 01:59:26 / UTC 2017-02-19 01:59:26 FromStats_BitRate : 55 FromStats_Duration : 00:00:03.336000000 FromStats_FrameCount : 1 FromStats_StreamSize : 23 Testo #2 ID : 5 Formato : UTF-8 ID codec : S_TEXT/UTF8 ID codec/Informazioni : UTF-8 Plain Text Titolo : REGULAR iTA Lingua : Italiano Default : No Forced : No Statistics Tags Issue : mkvmerge v7.2.0 ('On Every Street') 32bit built on Sep 13 2014 15:42:11 2017-02-15 11:29:50 / Lavf54.63.100 2017-02-19 01:59:26 / UTC 2017-02-19 01:59:26 FromStats_BitRate : 45 FromStats_Duration : 01:52:19.739000000 FromStats_FrameCount : 1278 FromStats_StreamSize : 38071 Testo #3 ID : 6 Formato : UTF-8 ID codec : S_TEXT/UTF8 ID codec/Informazioni : UTF-8 Plain Text Titolo : REGULAR ENG Lingua : Inglese Default : No Forced : No Statistics Tags Issue : mkvmerge v7.2.0 ('On Every Street') 32bit built on Sep 13 2014 15:42:11 2017-02-15 11:29:50 / Lavf54.63.100 2017-02-19 01:59:26 / UTC 2017-02-19 01:59:26 FromStats_BitRate : 43 FromStats_Duration : 01:52:14.186000000 FromStats_FrameCount : 1319 FromStats_StreamSize : 36953 Testo #4 ID : 7 Formato : UTF-8 ID codec : S_TEXT/UTF8 ID codec/Informazioni : UTF-8 Plain Text Titolo : NON UDENTI ENG Lingua : Inglese Default : No Forced : No Statistics Tags Issue : mkvmerge v7.2.0 ('On Every Street') 32bit built on Sep 13 2014 15:42:11 2017-02-15 11:29:50 / Lavf54.63.100 2017-02-19 01:59:26 / UTC 2017-02-19 01:59:26 FromStats_BitRate : 49 FromStats_Duration : 01:54:01.626000000 FromStats_FrameCount : 1584 FromStats_StreamSize : 42310 Menu 00:00:00.000 : :00:00:00.000 00:04:34.566 : :00:04:34.566 00:10:16.825 : :00:10:16.825 00:18:32.153 : :00:18:32.153 00:24:37.017 : :00:24:37.017 00:31:40.482 : :00:31:40.482 00:38:33.811 : :00:38:33.811 00:43:16.135 : :00:43:16.135 00:48:24.527 : :00:48:24.527 00:55:34.498 : :00:55:34.498 01:05:04.359 : :01:05:04.359 01:12:38.437 : :01:12:38.437 01:22:14.346 : :01:22:14.346 01:28:28.637 : :01:28:28.637 01:35:00.904 : :01:35:00.904 01:45:06.509 : :01:45:06.509 [/spoiler] [/color][/b][/center]

The Accountant (2016).H264.Italian.English.Ac3.5.1.sub.ita.eng.iCV-MIRCrew

Language: | Size: 1.83 GB | Seed: 5 | Leech: 172

Description:

The Accountant (2016).H264.Italian.English.Ac3.5.1.sub.ita.eng.iCV-MIRCrew [center] [color=red][b][img]http://s23.postimg.org/b9yhws27f/0sc_Del1.png[/img] [u]NO FOUND ONLY ORIGINAL RELEASE[/u] [img]http://i.imgur.com/GDNQx1Z.png[/img] My release is always in double track audio italian and Original audio for select it use VLC or dvd player home not use wmp The Accountant (2016) [img]https://extraimage.net/images/2017/02/13/7db1f851073b64850d76319fc083eaed.png[/img] [URL=http://www.imdb.com/title/tt2140479/][IMG]http://www.userlogos.org/files/logos/Sucka/imdb_new.png[/IMG][/URL] [img]http://i.imgur.com/fGu1rKv.png[/img] DATA USCITA: 27 ottobre 2016 GENERE: Drammatico ANNO: 2016 REGIA: Gavin O'Connor SCENEGGIATURA: Bill Dubuque FOTOGRAFIA: Seamus McGarvey MONTAGGIO: Richard Pearson MUSICHE: Mark Isham PRODUZIONE: Electric City Entertainment, Zero Gravity Management DISTRIBUZIONE: Warner Bros. PAESE: USA DURATA: 128 Min [img]http://i.imgur.com/W7kBqiE.png[/img] Ben Affleck, Anna Kendrick, Jon Bernthal, J.K. Simmons, John Lithgow, Jeffrey Tambor, Alison Wright, Cynthia Addai-Robinson, Ron Yuan [img]http://i.imgur.com/bFK3ggF.png[/img] Christian Wolff, un genio matematico che ha più affinità con i numeri che con le persone, lavora sotto copertura in un piccolo studio come contabile freelance per alcune delle più pericolose organizzazioni criminali del pianeta [img]http://i.imgur.com/48xHWWH.png[/img] As a math savant uncooks the books for a new client, the Treasury Department closes in on his activities and the body count starts to rise. [img]http://i.imgur.com/K8bfNTy.png[/img] [url=https://extraimage.net/image/2zZM][img]https://extraimage.net/images/2017/02/13/88448b9a45fca53dd07467147eaa5f1b.th.png[/img][/url] [url=https://extraimage.net/image/2zZU][img]https://extraimage.net/images/2017/02/13/33de62460afb3955ef346704b700adc6.th.png[/img][/url] [url=https://extraimage.net/image/2zZz][img]https://extraimage.net/images/2017/02/13/cf13f17f8de369b1cf55f3f8024b7563.th.png[/img][/url] [img]http://i.imgur.com/aVrMohH.png[/img] [spoiler] General Unique ID : 245323344504455298737863210057651670622 (0xB88F8EB9E1D0C5008C2C7D7949034E5E) Complete name : The Accountant (2016).H264.ita.eng.sub.ita.eng.iCV-MIRCrew.mkv Format : Matroska Format version : Version 2 File size : 1.83 GiB Duration : 2h 7mn Overall bit rate : 2 053 Kbps Movie name : VISIT www.icv-crew.org Encoded date : UTC 2017-02-12 15:46:48 Writing application : Lavf54.63.100 Writing library : Lavf54.63.100 COPYRIGHT : robbyrs Video ID : 1 Format : AVC Format/Info : Advanced Video Codec Format profile : [email protected] Format settings, CABAC : Yes Format settings, ReFrames : 2 frames Codec ID : V_MPEG4/ISO/AVC Duration : 2h 7mn Bit rate : 1 280 Kbps Width : 720 pixels Height : 300 pixels Display aspect ratio : 2.40:1 Frame rate mode : Variable Frame rate : 23.976 fps Color space : YUV Chroma subsampling : 4:2:0 Bit depth : 8 bits Scan type : Progressive Bits/(Pixel*Frame) : 0.247 Stream size : 1.11 GiB (61%) Writing library : x264 core 130 r2273 Encoding settings : cabac=1 / ref=2 / deblock=1:0:0 / analyse=0x1:0x131 / me=hex / subme=7 / psy=1 / psy_rd=1.00:0.00 / mixed_ref=0 / me_range=16 / chroma_me=1 / trellis=1 / 8x8dct=0 / cqm=0 / deadzone=21,11 / fast_pskip=1 / chroma_qp_offset=-2 / threads=12 / lookahead_threads=2 / sliced_threads=0 / nr=0 / decimate=1 / interlaced=0 / bluray_compat=0 / constrained_intra=0 / bframes=3 / b_pyramid=0 / b_adapt=1 / b_bias=0 / direct=3 / weightb=1 / open_gop=0 / weightp=2 / keyint=230 / keyint_min=23 / scenecut=40 / intra_refresh=0 / rc_lookahead=40 / rc=2pass / mbtree=1 / bitrate=1280 / ratetol=1.0 / qcomp=0.60 / qpmin=10 / qpmax=69 / qpstep=4 / cplxblur=20.0 / qblur=0.5 / vbv_maxrate=24000 / vbv_bufsize=24000 / nal_hrd=none / ip_ratio=1.40 / aq=1:1.00 Language : Italian Default : Yes Forced : No DURATION : 02:07:54.250000000 NUMBER_OF_FRAMES : 183998 NUMBER_OF_BYTES : 9565578531 _STATISTICS_WRITING_APP : mkvmerge v8.3.0 ('Over the Horizon') 64bit _STATISTICS_WRITING_DATE_UTC : 2017-02-09 06:56:07 _STATISTICS_TAGS : BPS DURATION NUMBER_OF_FRAMES NUMBER_OF_BYTES Audio #1 ID : 2 Format : AC-3 Format/Info : Audio Coding 3 Mode extension : CM (complete main) Codec ID : A_AC3 Duration : 2h 7mn Bit rate mode : Constant Bit rate : 384 Kbps Channel(s) : 6 channels Channel positions : Front: L C R, Side: L R, LFE Sampling rate : 48.0 KHz Bit depth : 16 bits Compression mode : Lossy Delay relative to video : 1mn 5s Stream size : 351 MiB (19%) Language : Italian Default : Yes Forced : No DURATION : 02:07:53.344000000 NUMBER_OF_FRAMES : 239792 NUMBER_OF_BYTES : 368320512 _STATISTICS_WRITING_APP : mkvmerge v8.3.0 ('Over the Horizon') 64bit _STATISTICS_WRITING_DATE_UTC : 2017-02-09 06:56:07 _STATISTICS_TAGS : BPS DURATION NUMBER_OF_FRAMES NUMBER_OF_BYTES Audio #2 ID : 3 Format : AC-3 Format/Info : Audio Coding 3 Mode extension : CM (complete main) Codec ID : A_AC3 Duration : 2h 7mn Bit rate mode : Constant Bit rate : 384 Kbps Channel(s) : 6 channels Channel positions : Front: L C R, Side: L R, LFE Sampling rate : 48.0 KHz Bit depth : 16 bits Compression mode : Lossy Delay relative to video : 1mn 5s Stream size : 351 MiB (19%) Language : English Default : No Forced : No DURATION : 02:07:54.240000000 NUMBER_OF_FRAMES : 239820 NUMBER_OF_BYTES : 613939200 _STATISTICS_WRITING_APP : mkvmerge v8.3.0 ('Over the Horizon') 64bit _STATISTICS_WRITING_DATE_UTC : 2017-02-09 06:56:07 _STATISTICS_TAGS : BPS DURATION NUMBER_OF_FRAMES NUMBER_OF_BYTES Text #1 ID : 4 Format : UTF-8 Codec ID : S_TEXT/UTF8 Codec ID/Info : UTF-8 Plain Text Title : FORCED iTA Language : Italian Default : Yes Forced : No DURATION : 01:53:26.682000000 NUMBER_OF_FRAMES : 27 NUMBER_OF_BYTES : 815 _STATISTICS_WRITING_APP : mkvmerge v8.3.0 ('Over the Horizon') 64bit _STATISTICS_WRITING_DATE_UTC : 2017-02-09 06:56:07 _STATISTICS_TAGS : BPS DURATION NUMBER_OF_FRAMES NUMBER_OF_BYTES Text #2 ID : 5 Format : UTF-8 Codec ID : S_TEXT/UTF8 Codec ID/Info : UTF-8 Plain Text Title : REGULAR iTA Language : Italian Default : No Forced : No DURATION : 01:58:57.471000000 NUMBER_OF_FRAMES : 1536 NUMBER_OF_BYTES : 49681 _STATISTICS_WRITING_APP : mkvmerge v8.3.0 ('Over the Horizon') 64bit _STATISTICS_WRITING_DATE_UTC : 2017-02-09 06:56:07 _STATISTICS_TAGS : BPS DURATION NUMBER_OF_FRAMES NUMBER_OF_BYTES Text #3 ID : 6 Format : UTF-8 Codec ID : S_TEXT/UTF8 Codec ID/Info : UTF-8 Plain Text Title : NON UDENTI ENG Language : English Default : No Forced : No DURATION : 02:07:13.041000000 NUMBER_OF_FRAMES : 1702 NUMBER_OF_BYTES : 57484 _STATISTICS_WRITING_APP : mkvmerge v8.3.0 ('Over the Horizon') 64bit _STATISTICS_WRITING_DATE_UTC : 2017-02-09 06:56:07 _STATISTICS_TAGS : BPS DURATION NUMBER_OF_FRAMES NUMBER_OF_BYTES Menu 00:00:00.000 : :00:00:00.000 00:13:01.447 : :00:13:01.447 00:20:36.277 : :00:20:36.277 00:29:30.394 : :00:29:30.394 00:38:44.656 : :00:38:44.656 00:49:33.679 : :00:49:33.679 01:00:05.435 : :01:00:05.435 01:13:39.707 : :01:13:39.707 01:25:57.069 : :01:25:57.069 01:39:15.658 : :01:39:15.658 01:54:31.156 : :01:54:31.156 02:01:40.251 : :02:01:40.251 [/spoiler] [/color][/b][/center]

Suicide Squad - Extended (2016 Ita)[BRRip-XviD-Ac3 5.1]

Language: | Size: 2.29 GB | Seed: 1153 | Leech: 171

Description:

: SCHEDA :. DATA USCITA: 13 agosto 2016 GENERE: Azione , Fantasy ANNO: 2016 REGIA: David Ayer ATTORI: Will Smith, Margot Robbie, Jared Leto, Joel Kinnaman, Jai Courtney, Cara Delevingne, Viola Davis, Scott Eastwood, Raymond Olubawale, Jay Hernandez, Ike Barinholtz, Ted Whittall, Robin Atkin Downes, David Harbour SCENEGGIATURA: David Ayer FOTOGRAFIA: Roman Vasyanov MONTAGGIO: John Gilroy MUSICHE: Steven Price PRODUZIONE: Atlas Entertainment, DC Entertainment, Dune Entertainment DISTRIBUZIONE: Warner Bros. PAESE: USA DURATA: 130 Min .: TRAMA :. Mettete insieme un team dei più pericolosi Super Cattivi che possiate trovare nelle carceri del mondo, dategli il più fornito arsenale a disposizione del governo e mandateli in missione per sconfiggere un'entità insuperabile ed enigmatica. L'ufficiale dell'intelligence degli U.S.A., Amanda Waller ha convocato in gran segreto un gruppo di individui disperati e deprecabili che non ha niente da perdere. Ad ogni modo, dopo aver fallito inevitabilmente la missione ed essersi resi conto di non essere stati scelti per avere successo quanto per la loro colpevolezza riconosciuta, pensate che la SUICIDE SQUAD risolverà la questione tentando ma rischiando la morte oppure deciderà di dividersi e andare ognuno per la sua strada?

Anthropoid - Missione Anthropoid (2016).H264.Italian.English.Ac3.5.1.sub.ita.eng.iCV-MIRCrew

Language: | Size: 1.83 GB | Seed: 152 | Leech: 167

Description:

Anthropoid - Missione Anthropoid (2016).H264.Italian.English.Ac3.5.1.sub.ita.eng.iCV-MIRCrew [center] [color=red][b][img]http://s23.postimg.org/b9yhws27f/0sc_Del1.png[/img] [u]NO FOUND ONLY ORIGINAL RELEASE[/u] [img]http://i.imgur.com/GDNQx1Z.png[/img] My release is always in double track audio italian and Original audio for select it use VLC or dvd player home not use wmp Missione Anthropoid - Anthropoid (2016) [img]http://extraimage.net/images/2017/01/11/361c73ed3b185934ac01e1f6b95eb2df.png[/img] [URL=http://www.imdb.com/title/tt4190530/][IMG]http://www.userlogos.org/files/logos/Sucka/imdb_new.png[/IMG][/URL] [img]http://i.imgur.com/fGu1rKv.png[/img] GENERE: Biografico, Storico, Thriller, Guerra ANNO: 2016 REGIA: Sean Ellis SCENEGGIATURA: Sean Ellis, Anthony Frewin FOTOGRAFIA: Sean Ellis PRODUZIONE: LD Entertainment, 22h22, Lucky Man Films PAESE: Gran Bretagna, Repubblica Ceca, Francia [img]http://i.imgur.com/W7kBqiE.png[/img] Cillian Murphy, Jamie Dornan, Harry Lloyd, Charlotte Le Bon, Toby Jones, Bill Milner, Sam Keeley, Brian Caspe, Marcin Dorocinski [img]http://i.imgur.com/bFK3ggF.png[/img] Nel 1941 il generale delle SS Reinhard Heydrich viene nominato da Hitler a capo delle forze di occupazione naziste in Cecoslovacchia. Soprannominato “il macellaio di Praga”, Heydrich è considerato il numero tre del Reich e il suo regno di terrore e brutale repressione della resistenza ceca spingono gli Alleati a escogitare un piano top secret destinato a cambiare la storia [img]http://i.imgur.com/48xHWWH.png[/img] Based on the extraordinary true story of Operation Anthropoid, the WWII mission to assassinate SS General Reinhard Heydrich, the main architect behind the Final Solution and the Reich's third in command after Hitler and Himmler. [img]http://i.imgur.com/K8bfNTy.png[/img] [url=https://extraimage.net/image/2yLf][img]http://extraimage.net/images/2017/01/11/58a2bc0cc87f3230d3ea645071269b75.th.png[/img][/url] [url=https://extraimage.net/image/2yLW][img]http://extraimage.net/images/2017/01/11/70c0b8c89f26d81d5616236d8c45becf.th.png[/img][/url] [img]http://i.imgur.com/aVrMohH.png[/img] [spoiler] Generale ID univoco : 84451816147271938884812096612561486636 (0x3F88D40222CC1378A70142016596832C) Nome completo : Missione Anthropoid - Anthropoid (2016).H264.Ita.eng.sub.ita.eng.iCV-MIRCrew.mkv Formato : Matroska Versione formato : Version 2 Dimensione : 1,83 GiB Durata : 2o 0min Bitrate totale : 2.164 Kbps Film : VISIT www.icv-crew.org Data codifica : UTC 2017-01-11 11:19:38 / UTC 2017-01-11 11:19:38 Creato con : Lavf54.63.100 Compressore : Lavf54.63.100 / Lavf54.63.100 Copyright : robbyrs Video ID : 1 Formato : AVC Formato/Informazioni : Advanced Video Codec Profilo formato : [email protected] Impostazioni formato, CABAC : Si Impostazioni formato, ReFrames : 2 frame ID codec : V_MPEG4/ISO/AVC Durata : 2o 0min Bitrate : 1.280 Kbps Larghezza : 720 pixel Altezza : 304 pixel Rapporto aspetto visualizzazione : 2,40:1 Modalità frame rate : Costante Frame rate : 23,976 (24000/1001) fps Spazio colore : YUV Croma subsampling : 4:2:0 Profondità bit : 8 bit Tipo scansione : Progressivo Bit/(pixel*frame) : 0.244 Dimensione della traccia : 1,03 GiB (57%) Compressore : x264 core 130 r2273 Impostazioni compressione : cabac=1 / ref=2 / deblock=1:0:0 / analyse=0x1:0x131 / me=hex / subme=7 / psy=1 / psy_rd=1.00:0.00 / mixed_ref=0 / me_range=16 / chroma_me=1 / trellis=1 / 8x8dct=0 / cqm=0 / deadzone=21,11 / fast_pskip=1 / chroma_qp_offset=-2 / threads=12 / lookahead_threads=2 / sliced_threads=0 / nr=0 / decimate=1 / interlaced=0 / bluray_compat=0 / constrained_intra=0 / bframes=3 / b_pyramid=0 / b_adapt=1 / b_bias=0 / direct=3 / weightb=1 / open_gop=0 / weightp=2 / keyint=230 / keyint_min=23 / scenecut=40 / intra_refresh=0 / rc_lookahead=40 / rc=abr / mbtree=1 / bitrate=1280 / ratetol=1.0 / qcomp=0.60 / qpmin=10 / qpmax=69 / qpstep=4 / vbv_maxrate=24000 / vbv_bufsize=24000 / nal_hrd=none / ip_ratio=1.40 / aq=1:1.00 Lingua : Inglese Default : Si Forced : No Statistics Tags Issue : mkvmerge v8.3.0 ('Over the Horizon') 64bit 2017-01-10 21:41:00 / Lavf54.63.100 2017-01-11 11:19:38 / UTC 2017-01-11 11:19:38 FromStats_BitRate : 10009671 FromStats_Duration : 02:00:51.995000000 FromStats_FrameCount : 173874 FromStats_StreamSize : 9073761121 Audio #1 ID : 2 Formato : AC-3 Formato/Informazioni : Audio Coding 3 Estensione modo : CM (complete main) Impostazioni formato, Endianness : Big ID codec : A_AC3 Durata : 2o 0min Modalità bitrate : Costante Bitrate : 448 Kbps Canali : 6 canali Posizione canali : Front: L C R, Side: L R, LFE Frequenza campionamento : 48,0 KHz Frame rate : 31,250 fps (1536 spf) Profondità bit : 16 bit Modo compressione : Con perdita Ritardo video : -5ms Dimensione della traccia : 387MiB (21%) Titolo : AC3 iTA 5.1 Lingua : Italiano Default : Si Forced : No Statistics Tags Issue : mkvmerge v8.3.0 ('Over the Horizon') 64bit 2017-01-10 21:41:00 / Lavf54.63.100 2017-01-11 11:19:38 / UTC 2017-01-11 11:19:38 FromStats_BitRate : 448000 FromStats_Duration : 02:00:52.064000000 FromStats_FrameCount : 226627 FromStats_StreamSize : 406115584 Audio #2 ID : 3 Formato : AC-3 Formato/Informazioni : Audio Coding 3 Estensione modo : CM (complete main) Impostazioni formato, Endianness : Big ID codec : A_AC3 Durata : 2o 0min Modalità bitrate : Costante Bitrate : 448 Kbps Canali : 6 canali Posizione canali : Front: L C R, Side: L R, LFE Frequenza campionamento : 48,0 KHz Frame rate : 31,250 fps (1536 spf) Profondità bit : 16 bit Modo compressione : Con perdita Ritardo video : -5ms Dimensione della traccia : 387MiB (21%) Titolo : AC3 ENG Lingua : Inglese Default : No Forced : No Statistics Tags Issue : mkvmerge v8.3.0 ('Over the Horizon') 64bit 2017-01-10 21:41:00 / Lavf54.63.100 2017-01-11 11:19:38 / UTC 2017-01-11 11:19:38 FromStats_BitRate : 640000 FromStats_Duration : 02:00:52.064000000 FromStats_FrameCount : 226627 FromStats_StreamSize : 580165120 Testo #1 ID : 4 Formato : UTF-8 ID codec : S_TEXT/UTF8 ID codec/Informazioni : UTF-8 Plain Text Titolo : FORCED iTA Lingua : Italiano Default : Si Forced : No Statistics Tags Issue : mkvmerge v8.3.0 ('Over the Horizon') 64bit 2017-01-10 21:41:00 / Lavf54.63.100 2017-01-11 11:19:38 / UTC 2017-01-11 11:19:38 FromStats_BitRate : 1 FromStats_Duration : 01:53:33.271000000 FromStats_FrameCount : 35 FromStats_StreamSize : 1596 Testo #2 ID : 5 Formato : UTF-8 ID codec : S_TEXT/UTF8 ID codec/Informazioni : UTF-8 Plain Text Titolo : REGULAR iTA Lingua : Italiano Default : No Forced : No Statistics Tags Issue : mkvmerge v8.3.0 ('Over the Horizon') 64bit 2017-01-10 21:41:00 / Lavf54.63.100 2017-01-11 11:19:38 / UTC 2017-01-11 11:19:38 FromStats_BitRate : 34 FromStats_Duration : 01:53:33.271000000 FromStats_FrameCount : 816 FromStats_StreamSize : 29520 Testo #3 ID : 6 Formato : UTF-8 ID codec : S_TEXT/UTF8 ID codec/Informazioni : UTF-8 Plain Text Titolo : NON UDENTI ENG Lingua : Inglese Default : No Forced : No Statistics Tags Issue : mkvmerge v8.3.0 ('Over the Horizon') 64bit 2017-01-10 21:41:00 / Lavf54.63.100 2017-01-11 11:19:38 / UTC 2017-01-11 11:19:38 FromStats_BitRate : 39 FromStats_Duration : 01:48:15.964000000 FromStats_FrameCount : 1092 FromStats_StreamSize : 32344 Menu 00:00:00.000 : :00:00:00.000 00:08:32.053 : :00:08:32.053 00:12:57.860 : :00:12:57.860 00:18:48.294 : :00:18:48.294 00:24:35.599 : :00:24:35.599 00:28:54.107 : :00:28:54.107 00:34:02.916 : :00:34:02.916 00:39:41.754 : :00:39:41.754 00:48:59.103 : :00:48:59.103 00:56:04.987 : :00:56:04.987 00:59:55.842 : :00:59:55.842 01:06:37.535 : :01:06:37.535 01:12:14.997 : :01:12:14.997 01:17:09.041 : :01:17:09.041 01:23:09.693 : :01:23:09.693 01:28:13.121 : :01:28:13.121 01:32:06.396 : :01:32:06.396 01:39:01.769 : :01:39:01.769 01:44:39.482 : :01:44:39.482 01:54:37.829 : :01:54:37.829 [/spoiler] [/color][/b][/center]

Assassin's Creed: Syndicate

Language: | Size: 35.79 GB | Seed: 218 | Leech: 166

Description:

Game: Assassin's Creed Syndicate Aliases: Assassin's Creed Victory , ACS Detected platform: Not detected Summary: WELCOME TO THE FAMILY - London, 1868. The Industrial Revolution fattens the purses of the privileged while the working class struggles to survive – until an Assassin emerges from the underworld to rally to their defense. Rise to lead the world’s first organized crime family. Conquer the streets of London. Bring the ruling class to their knees. Make history in a visceral adventure unlike any game you’ve played before. MINIMUM: OS: Windows 7 SP1 or Windows 8.1 or Windows 10 (64bit versions) Processor: Intel Core i5 2400s @ 2.5 GHz / AMD FX 6350 @ 3.9 GHz Memory: 6 GB RAM Graphics: NVIDIA GeForce GTX 660 / AMD Radeon R9 270 (2GB VRAM with Shader Model 5.0) Sound Card: DirectX Compatible Sound Card with lakickasstorrent drivers Installation: - Burn or mount the .iso - Run setup.exe and install - Copy crack from CODEX dir to installdir - Play General Notes: - Block the game's exe in your firewall to prevent the game from trying to go online .. - If you install games to your systemdrive, it may be necessary to run this game with admin privileges instead