Search Top Tags














Windows 7 All-In-One

Language: | Size: 3.69 GB | Seed: 75 | Leech: 12

Description:

Windows 7 All-In-One - ITA - 32-Bit (x86) & 64-Bit ( x64) SP1 - 2011. DVD Completo di tutte le edizioni di Windows 7 fornito al solo scopo di Backup, ogni utilizzo illegale e violazione del Copyright, sono soggetti a sanzioni penali. LA COPIA è ORIGINALE E FUNZIONANTE da Masterizzare in un normale DVD. Priva di Virus al 100%. https://sites.google.com/site/isowinso001/home BY IsoWinSO

The Fault in Our Stars - Colpa delle Stelle (2014) [DVD9 - MultiLang 5.1 - Multisubs]

Language: | Size: 7.28 GB | Seed: 7 | Leech: 12

Description:

Titolo originale: The Fault in Our Stars Nazione: Usa Anno: 2014 Genere: Drammatico, Sentimentale Durata: Versione cinematografica 1201., Versione estesa 1271. Regia: Josh Boone Produzione: 20th Century Fox Sito ufficiale: http://thefaultinourstarsmovie.com/ Cast: Shailene Woodley, Ansel Elgort, Laura Dern, Sam Trammell, Nat Wolff Data di uscita: Giovedì 4 Settembre 2014 (Cinema) Trama: Hazel Grace Lancaster, una sedicenne affetta da cancro, è obbligata dai genitori a frequentare un gruppo di supporto. Qui incontra e si innamora del diciottenne Augustus Waters, un ex giocatore di basket con una gamba amputata. Hazel fa conoscere ad Augustus il suo romanzo preferito, Un'imperiale afflizione. La passione comune per il romanzo li porta ad Amsterdam, dove hanno un burrascoso incontro con l'autore, Peter Van Houten, ormai alcolizzato. Là Augustus rivela a Hazel di essere nel corso di una grave ricaduta diagnosticata da una recente PET. Il film si chiude con la descrizione delle ultime settimane di vita e infine della morte del ragazzo, del dolore di Hazel e delle rispettive famiglie, ma anche con nuovi sviluppi del difficile rapporto dei ragazzi con Van Houten.

Little Big Soldier (2010).H264.Italian.English.Ac3.5.1.sub.ita.iCV-MIRCrew

Language: | Size: 1.45 GB | Seed: 27 | Leech: 12

Description:

Little Big Soldier (2010).H264.Italian.English.Ac3.5.1.sub.ita.iCV-MIRCrew [center] [color=red][b][img]http://s23.postimg.org/b9yhws27f/0sc_Del1.png[/img] [u]NO FOUND ONLY ORIGINAL RELEASE[/u] [img]http://i.imgur.com/GDNQx1Z.png[/img] My release is always in double track audio italian and Original audio for select it use VLC or dvd player home not use wmp Little Big Soldier (2010) [img]http://extraimage.net/images/2017/01/25/670e1fc64e9d5db608066ba1142dffbf.png[/img] [URL=http://www.imdb.com/title/tt1319718/][IMG]http://www.userlogos.org/files/logos/Sucka/imdb_new.png[/IMG][/URL] [img]http://i.imgur.com/fGu1rKv.png[/img] Titolo originale 大兵小將 Lingua originale cinese Paese di produzione Cina, Hong Kong Anno 2011 Durata 96 min Rapporto 2,35 : 1 Genere azione, avventura, commedia Regia Sheng Ding Produttore Jackie Chan Distribuzione (Italia) One Movie [img]http://i.imgur.com/W7kBqiE.png[/img] Jackie Chan: Piccolo Soldato Leehom Wang: Grande Generale Yu Rongguang: Deputy General Yu Ken Lo: Guard Yong Sung-jun Yoo: Principe Wen Peng Lin: Cantante Baoqiang Wang: Esploratore Yue Wu: Amazzone indigena Xiao Dong Mei: Lou Fan Yan Jun He: Qin General B Song Jin: Lou Fan Wei Yuming Du: Guard Wu [img]http://i.imgur.com/bFK3ggF.png[/img] Cina. Durante il periodo dei regni combattenti (III secolo a.C.) un vecchio e codardo soldato semplice dell'esercito del regno di Liang riesce ad evitare ogni battaglia con una sua semplice invenzione: una freccia finta che, tirando una cordicella, si alza dalla corazza e dà l'impressione che sia stato trafitto. [img]http://i.imgur.com/48xHWWH.png[/img] An old soldier kidnaps a young general of an enemy state and takes him on a long journey to collect the reward. [img]http://i.imgur.com/K8bfNTy.png[/img] [img]http://extraimage.net/images/2017/01/25/7f986e4c873591e4627b3855a6b1f774.png[/img] [img]http://extraimage.net/images/2017/01/25/e655e9365339f6d8434b35d9322aedcd.png[/img] [img]http://extraimage.net/images/2017/01/25/f59dcdf10c1d3b28dd16158076078038.png[/img] [img]http://i.imgur.com/aVrMohH.png[/img] [spoiler] General Unique ID : 34426657896434352271716204688833061524 (0x19E6554830CE183E425C459831392294) Complete name : Little Big Soldier (2010).H264.ita.eng.sub.ita.iCV-MIRCrew.mkv Format : Matroska Format version : Version 2 File size : 1.45 GiB Duration : 1h 35mn Overall bit rate : 2 177 Kbps Movie name : VISIT www.icv-crew.org Encoded date : UTC 2017-01-03 22:58:13 Writing application : Lavf54.63.100 Writing library : Lavf54.63.100 COPYRIGHT : robbyrs Video ID : 1 Format : AVC Format/Info : Advanced Video Codec Format profile : [email protected] Format settings, CABAC : Yes Format settings, ReFrames : 2 frames Codec ID : V_MPEG4/ISO/AVC Duration : 1h 35mn Bit rate : 1 270 Kbps Width : 688 pixels Height : 296 pixels Display aspect ratio : 2.35:1 Original display aspect ratio : 2.35:1 Frame rate mode : Variable Frame rate : 24.000 fps Color space : YUV Chroma subsampling : 4:2:0 Bit depth : 8 bits Scan type : Progressive Bits/(Pixel*Frame) : 0.260 Stream size : 845 MiB (57%) Writing library : x264 core 130 r2273 Encoding settings : cabac=1 / ref=2 / deblock=1:0:0 / analyse=0x1:0x131 / me=hex / subme=7 / psy=1 / psy_rd=1.00:0.00 / mixed_ref=0 / me_range=16 / chroma_me=1 / trellis=1 / 8x8dct=0 / cqm=0 / deadzone=21,11 / fast_pskip=1 / chroma_qp_offset=-2 / threads=12 / lookahead_threads=2 / sliced_threads=0 / nr=0 / decimate=1 / interlaced=0 / bluray_compat=0 / constrained_intra=0 / bframes=3 / b_pyramid=0 / b_adapt=1 / b_bias=0 / direct=3 / weightb=1 / open_gop=0 / weightp=2 / keyint=240 / keyint_min=24 / scenecut=40 / intra_refresh=0 / rc_lookahead=40 / rc=2pass / mbtree=1 / bitrate=1270 / ratetol=1.0 / qcomp=0.60 / qpmin=10 / qpmax=69 / qpstep=4 / cplxblur=20.0 / qblur=0.5 / vbv_maxrate=24000 / vbv_bufsize=24000 / nal_hrd=none / ip_ratio=1.40 / aq=1:1.00 Language : Italian Default : Yes Forced : No DURATION : 01:35:23.459000000 NUMBER_OF_FRAMES : 137363 NUMBER_OF_BYTES : 4005503647 _STATISTICS_WRITING_APP : mkvmerge v9.7.1 ('Pandemonium') 64bit _STATISTICS_WRITING_DATE_UTC : 2017-01-03 22:58:13 _STATISTICS_TAGS : BPS DURATION NUMBER_OF_FRAMES NUMBER_OF_BYTES Audio #1 ID : 2 Format : AC-3 Format/Info : Audio Coding 3 Mode extension : CM (complete main) Codec ID : A_AC3 Duration : 1h 35mn Bit rate mode : Constant Bit rate : 448 Kbps Channel(s) : 6 channels Channel positions : Front: L C R, Side: L R, LFE Sampling rate : 48.0 KHz Bit depth : 16 bits Compression mode : Lossy Delay relative to video : 1mn 5s Stream size : 306 MiB (21%) Language : Italian Default : Yes Forced : No DURATION : 01:35:24.224000000 NUMBER_OF_FRAMES : 178882 NUMBER_OF_BYTES : 320556544 _STATISTICS_WRITING_APP : mkvmerge v9.7.1 ('Pandemonium') 64bit _STATISTICS_WRITING_DATE_UTC : 2017-01-03 22:58:13 _STATISTICS_TAGS : BPS DURATION NUMBER_OF_FRAMES NUMBER_OF_BYTES Audio #2 ID : 3 Format : AC-3 Format/Info : Audio Coding 3 Mode extension : CM (complete main) Codec ID : A_AC3 Duration : 1h 35mn Bit rate mode : Constant Bit rate : 448 Kbps Channel(s) : 6 channels Channel positions : Front: L C R, Side: L R, LFE Sampling rate : 48.0 KHz Bit depth : 16 bits Compression mode : Lossy Delay relative to video : 1mn 5s Stream size : 306 MiB (21%) Language : English Default : No Forced : No DURATION : 01:35:24.224000000 NUMBER_OF_FRAMES : 178882 NUMBER_OF_BYTES : 320556544 _STATISTICS_WRITING_APP : mkvmerge v9.7.1 ('Pandemonium') 64bit _STATISTICS_WRITING_DATE_UTC : 2017-01-03 22:58:13 _STATISTICS_TAGS : BPS DURATION NUMBER_OF_FRAMES NUMBER_OF_BYTES Text #2 ID : 5 Format : VobSub Codec ID : S_VOBSUB Codec ID/Info : The same subtitle format used on DVDs Title : Italiano Language : Italian Default : No Forced : No DURATION : 01:31:38.326000000 NUMBER_OF_FRAMES : 788 NUMBER_OF_BYTES : 4672625 _STATISTICS_WRITING_APP : mkvmerge v9.7.1 ('Pandemonium') 64bit _STATISTICS_WRITING_DATE_UTC : 2017-01-03 22:58:13 _STATISTICS_TAGS : BPS DURATION NUMBER_OF_FRAMES NUMBER_OF_BYTES Menu 00:00:00.000 : :Capitolo 01 00:11:07.500 : :Capitolo 02 00:16:30.208 : :Capitolo 03 00:23:06.375 : :Capitolo 04 00:31:52.833 : :Capitolo 05 00:40:48.125 : :Capitolo 06 00:51:53.750 : :Capitolo 07 01:05:12.500 : :Capitolo 08 01:11:55.667 : :Capitolo 09 01:15:08.667 : :Capitolo 10 01:22:07.875 : :Capitolo 11 01:25:00.708 : :Capitolo 12 [/spoiler] [/color][/b][/center]

The Bourne Legacy (2012) BDRip 1080p - H264 - Ita Eng Ac3 - Ita Eng Dts - Sub Ita Eng

Language: | Size: 11.21 GB | Seed: 338 | Leech: 11

Description:

ilm | Dimensione: 11.21 GB | Seeders: 8 | Leechers: 51 | Completato: 41 | Agiorna Titolo originale: The Bourne Legacy Nazione: U.S.A. Anno: 2012 Genere: Azione Durata: 135' Regia: Tony Gilroy Sito ufficiale: www.thebournelegacy.net/ Sito Italiano: www.cinema.universalpictures.it/website/... Cast: Rachel Weisz, Jeremy Renner, Edward Norton, Scott Glenn, Albert Finney, Oscar Isaac, Stacy Keach Produzione: Captivate Entertainment, Universal Pictures Data di uscita: 07 Settembre 2012 (cinema) Trama: Aaron Cross, é un super agente che fa parte di un programma estremamente sofisticato e che rischia la vita sulla scia degli avvenimenti degli altri tre film. Marta Shearing, é una brillante scienziata del dipartimento della difesa, l'unica a conoscere il modo per proteggere Cross; il Colonnello Ric Byer, il direttore del National Research Assay Group (NRAG), un'agenzia segreta situata a Reston, in Virginia, che controlla Outcome, un occulto programma di spionaggio. Nel corso del film ci rendiamo conto che Byer è sempre stato nell'ombra, ad osservare gli eventi di The Bourne Identity, The Bourne Supremacy e The Bourne Ultimatum... Parole chiave: azione

Wimbledon (2004) BDRip 720p H264 - Ita Eng Ac3 5.1 - Sub Ita Eng

Language: | Size: 2.19 GB | Seed: 545 | Leech: 11

Description:

Titolo originale: Wimbledon Nazione: U.S.A., Regno Unito Anno: 2004 Genere: Commedia Durata: 98 min. Regia: Richard Loncraine Sito ufficiale: www.wimbledonmovie.com Cast: Kirsten Dunst, Paul Bettany, Eleanor Bron, Sam Neill, Jon Favreau, James McAvoy Produzione: Liza Chasin, Eric Fellner Data di uscita: 10 Giugno 2005 (cinema) Trama: Un tennista al termine della sua cariera gioca il suo ultimo torneo di Wimbledon. Inaspettatamente, grazie all'amore, l'ultima partita diventera' l'inizio di una nuova vita. Parole chiave: commedia

Una notte in giallo (2014) 720p - H264 - Ita Eng Ac3 - Sub Ita

Language: | Size: 2.84 GB | Seed: 103 | Leech: 11

Description:

Titolo originale: Walk of Shame Nazione: U.S.A. Anno: 2014 Genere: Commedia Durata: 95' Regia: Steve Brill Sito ufficiale: walkofshamefilm.com Cast: Elizabeth Banks, James Marsden, Gillian Jacobs, Sarah Wright, Ethan Suplee, Bill Burr, Kevin Nealon, Lawrence Gilliard Jr., Alphonso McAuley Produzione: Sidney Kimmel Entertainment, FilmDistrict, Lakeshore Entertainment Distribuzione: Kock Media Data di uscita: 24 Luglio 2014 (cinema) Trama: Meghan è un’ambiziosa giornalista televisiva sui 30 anni, che sta per essere promossa ad un ruolo di primo piano da un’importante rete nazionale. Dopo una giornata disastrosa, scopre di essere stata lasciata dal suo fidanzato e di non avere neanche ottenuto la promozione. Per tirarla su di morale, le sue migliori amiche la convincono ad uscire per passare una serata tra donne in città all’insegna del divertimento più sfrenato e, così, Meghan trascorre una scatenata notte brava. Tra un bicchiere e l’altro, per allontanare la tristezza, la ragazza flirta con un affascinante barista, Gordon. Il mattino seguente, Meghan si sveglia nell’appartamento di Gordon - effetto collaterale della sua folle avventura notturna. Non sa più dove siano finiti il suo cellulare e la sua borsa, ma utilizza il telefono fisso per controllare la sua segreteria telefonica, dove ha ricevuto un messaggio dal suo produttore che le annuncia di essere nuovamente in corsa per la grande promozione, a condizione di arrivare presso l’emittente televisiva entro l’inizio della trasmissione. Senza svegliare Gordon, Meghan infila il suo abito osè della sera prima e si avventura in un territorio a lei sconosciuto nel centro di Los Angeles. Senza soldi e senza documenti, Meghan incappa in una serie di divertenti disavventure nel tentativo di arrivare in tempo al network televisivo per non lasciarsi sfuggire il lavoro dei suoi sogni. Parole chiave: commedia

Una Folle Passione (2014) iTALiAN AC3 HDRip XviD

Language: | Size: 1.52 GB | Seed: 445 | Leech: 11

Description:

Titolo originale: Serena Nazione: U.S.A., Republica Ceca Anno: 2014 Genere: Drammatico Durata: 110' Regia: Susanne Bier Sito ufficiale: Cast: Jennifer Lawrence, Bradley Cooper, Rhys Ifans, Toby Jones, Kim Bodnia, Sean Harris, Blake Ritson, Sam Reid Produzione: 2929 Productions, Chockstone Pictures, Nick Wechsler Productions Data di uscita: 30 Ottobre 2014 (cinema) Trama: Montagne del North Carolina, fine anni '20: George e Serena Pemberton, bellissimi e innamoratissimi sposini, cominciano a costruire il loro impero di legname. Serena è assolutamente alla pari di qualsiasi uomo: supervisiona altri taglialegna, dà la caccia ai serpenti a sonagli, riesce persino a salvare la vita a un uomo. Con il potere e l'influenza che gli derivano da tali capacità, i Pemberton non permettono a nessuno di ostacolare le proprie ambizioni e il proprio folle amore. Fino al giorno in cui Serena scopre il passato nascosto di George e si trova a fare i conti con un inevitabile destino: è allora che il felice matrimonio tra i due comincia a disfarsi andando incontro a un drammatico epilogo. Parole chiave: dramma

Penny Dreadful S03e04 DLMux - XviD - Ita Eng Mp3 - Sub Ita Eng

Language: | Size: 709 MB | Seed: 405 | Leech: 11

Description:

Stagione 3/3 Episodi: 4 Italia: 02/05/2016 al (In Corso) Usa: 01/05/2016 al (In Corso) GENERE: Horror IDEATORE: John Logan ATTORI: Josh Hartnett, Timothy Dalton, Eva Green, Reeve Carney, Harry Treadaway, Billie Piper, Rory Kinnear, Patti LuPone, Wes Studi, Simon Russell Beale, Danny Sapani, Helen McCrory ANNO: 2014 PAESE: USA PRODUZIONE: Desert Wolf Productions, Neal Street Productions DURATA: 50 Min STATO: In Lavorazione Alcuni dei personaggi più terrificanti della letteratura – tra cui lo schivo e scettico Dott. Frankenstein e l’ambiguo e narciso Dorian Gray – sono in agguato negli angoli più bui della Londra vittoriana. La storia delle loro origini si intreccia con quella dell’aristocratico Malcolm Murray, uno dei maggiori esponenti dell’organizzazione impegnata nella caccia alle creature soprannaturali che infestano la città. Gli dà manforte l’amica e collega Vanessa Ives, il cui compito è reclutare persone disposte a unirsi alla loro causa. Come Ethan Chandler, un rampollo e tiratore scelto caduto in disgrazia per la sua vita piena di eccessi. 4. Un filo d'erba - A Blade of Grass Lo stato di Torrent: Verificato

Un Natale stupefacente (2014) ITA 1080p BluRay x264

Language: | Size: 8.22 GB | Seed: 859 | Leech: 11

Description:

Titolo originale: Un Natale stupefacente Nazione: Italia Anno: 2014 Genere: Commedia Durata: 100' Regia: Volfango De Biasi Sito ufficiale: Social network: facebook Cast: Lillo, Greg, Ambra Angiolini, Paola Minaccioni, Paolo Calabresi, Francesco Montanari, Riccardo De Filippis, Niccolò Calvagna Produzione: Filmauro Distribuzione: Filmauro Data di uscita: 18 Dicembre 2014 (cinema) Trama: Alla vigilia delle feste natalizie, zio Lillo e zio Greg sono improvvisamente costretti a prendersi cura del nipotino di 8 anni. I suoi genitori sono stati erroneamente arrestati per coltivazione di sostanze stupefacenti. I due zii sono molto diversi tra loro, e inadeguati a tale compito. Greg, single rockettaro, cercherà l'aiuto di Genny (Ambra Angiolini). Lillo, appena lasciato dalla moglie (Paola Minaccioni) e geloso del nuovo compagno di lei, un coatto tatuatore (Paolo Calabresi), approfitterà della situazione per riconquistarla. A complicare le cose, le visite a sorpresa di due zelanti ma bizzarri assistenti sociali (Francesco Montanari e Riccardo De Filippis) alla "strana famiglia", per verificarne l'idoneità. Gag a catena, equivoci improbabili, situazioni esilaranti, vi faranno trascorrere un Natale indimenticabile.

The Salvation (2014) iTALiAN BRRip XviD

Language: | Size: 1.37 GB | Seed: 53 | Leech: 11

Description:

Titolo originale: The Salvation Nazione: Danimarca, Regno Unito, Sudafrica, Belgio, Svezia Anno: 2014 Genere: Drammatico, Western Durata: 90' Regia: Kristian Levring Sito ufficiale: Cast: Mads Mikkelsen, Eva Green, Jeffrey Dean Morgan, Mikael Persbrandt, Eric Cantona, Douglas Henshall, Michael Raymond-James, Jonathan Pryce, Alexander Arnold Produzione: Zentropa Entertainments, Forward Films, Spier Films Distribuzione: Academy2 Data di uscita: 11 Giugno 2015 (cinema) Trama: Nel 1871, tra colonizzatori e fuorilegge, l’immigrato Danese Jon (Mads Mikkelsen) sta attendendo da anni di portare in America sua moglie e il figlio di dieci anni. Ma quando finalmente loro riescono a raggiungerlo cadono vittime di un crimine orribile. Distrutto dal dolore e dalla disperazione Jon uccide il responsabile. Ma l’assassino che Jon ha ucciso è il fratello dello spietato colonnello Delarue (Jeffrey Dean Morgan), un bandito che terrorizza il villaggio di Black Creek e che è disposto a tutto per vendicare l’assassinio di suo fratello. Tradito e isolato dalla comunità, Jon, è costretto a trasformarsi da uomo per bene, onesto e pacifico, in un guerriero, fuori legge solitario, per salvare il villaggio e trovare pace. Parole chiave: drammatico western

Perez (2014) iTALiAN AC3 DVDRip XviD

Language: | Size: 1.37 GB | Seed: 337 | Leech: 11

Description:

Titolo originale: Perez. Nazione: Italia Anno: 2014 Genere: Drammatico Durata: 94' Regia: Edoardo De Angelis Sito ufficiale: Social network: facebook Cast: Luca Zingaretti, Marco D'Amore, Massimiliano Gallo, Simona Tabasco, Gianpaolo Fabrizio Produzione: O' Groove, Tramp Limited, Medusa Film, MiBACT, Zocotoco Distribuzione: Medusa Film Data di uscita: Venezia 2014 - Fuori Concorso 02 Ottobre 2014 (cinema) Trama: Perez è un personaggio bergsoniano che prende vita grazie al grande Luca Zingaretti e che ha come rivale l'ambiguo Corvino (Marco D’Amore), sua figlia Tea è invece interpretata dall’esordiente al cinema Simona Tabasco, il suo unico amico, con cui litiga sempre, è Merolla (Gianpaolo Fabrizio), mentre il machiavellico Buglione è interpretato da Massimiliano Gallo. Sullo sfondo la Napoli inedita, metallica del Centro Direzionale: un quartiere di grattacieli progettati da grandi architetti che oggi si rivela una promessa mancata di progresso e prosperità, proprio come Perez. Parole chiave: dramma

Paddington (2014) iTALiAN AC3 HDRip XviD

Language: | Size: 1.37 GB | Seed: 834 | Leech: 11

Description:

Titolo originale: Paddington Nazione: Regno Unito, Francia, Cananda Anno: 2014 Genere: Commedia, Animazione Durata: 97' Regia: Paul King Sito ufficiale: www.paddington.com Sito italiano: www.paddingtonilfilm.it Social network: facebook Cast: Nicole Kidman, Ben Whishaw, Peter Capaldi, Sally Hawkins, Julie Walters, Jim Broadbent, Hugh Bonneville, Matt Lucas, Samuel Joslin, Ancuta Breaban, George Newton, Barrie Martin, Dominic Coleman Produzione: StudioCanal, DHX Media, Heyday Films Distribuzione: Eagle Pictures Data di uscita: 25 Dicembre 2014 (cinema) Trama: Paddington è cresciuto nel profondo della giungla peruviana con la zia Lucy che, ispirata dall'amicizia con un esploratore inglese, lo ha allevato insegnandogli a preparare marmellate, ad ascoltare la BBC e a sognare una vita eccitante a Londra. Quando un terremoto distrugge la loro casa, la zia Lucy decide che è giunto il momento di "spedire" il suo giovane nipote in Inghilterra in cerca di una famiglia per una vita migliore. Confidando nella gentilezza di qualche anima buona lega un'etichetta al collo del nipote con scritto semplicemente: "Per favore prendetevi cura di questo orso. Grazie"... Perso e solo alla stazione di Paddington, l'orsetto scopre ben presto che Londra non è la terra accogliente e ben educata dei suoi sogni, ma piuttosto un'affollata, vivace metropoli dove nessuno nemmeno si accorge di lui. Per fortuna incontra la famiglia Brown che non si sente di abbandonare questo giovane orso senzatetto al suo destino. Dopo avergli dato il nome della stazione dove lo hanno trovato gli offrono un posto dove stare mentre lui cerca l'unica persona che conosce a Londra: l'esploratore che tanti anni prima ha così tanto colpito sua zia Lucy. I Brown non si rendono conto di quanto scompiglio un giovane orso porterà alla loro vita familiare e quando questo orso di una razza molto rara finisce nel mirino di un tassidermista non passerà molto tempo prima che la sua casa e la sua stessa esistenza siano in pericolo.. Risoluzione - 720x304 Parole chiave: commedia animazione

Beautiful Creatures - La Sedicesima luna (2013), [XviD - Ita Eng Ac3 5.1 - Sub Ita]

Language: | Size: 1.51 GB | Seed: 74 | Leech: 11

Description:

Titolo originale: Beautiful Creatures Nazione: U.S.A. Anno: 2013 Genere: Drammatico Durata: 132' Regia: Richard LaGravenese Sito ufficiale: http://beautifulcreatures.warnerbros.com Social network: facebook, twitter Cast: Jeremy Irons, Thomas Mann, Emmy Rossum, Emma Thompson, Viola Davis, Jack O'Connell, Alice Englert, J.D. Evermore, Lance E. Nichols Produzione: Alcon Entertainment, 3 Arts Entertainment Distribuzione: Eagle Pictures Data di uscita: Roma 2012 21 Febbraio 2013 (cinema) Trama: Ethan Wate (Alden Ehrenreich) vive nella piccola cittadina di Gatlin, in South Carolina, e sogna di fuggire dalla sua vita ordinaria, finché un giorno incontra Lena Duchannes (Alice Englert). L’impatto è forte: è lei la ragazza che da tutta la vita sogna di incontrare. Hanno lo stesso senso dell’umorismo. Hanno entrambi perso la mamma. E a loro insaputa, sono inestricabilmente connessi da eventi sovrannaturali che risalgono a prima ancora della loro nascita. Anche quando Lena confessa di essere una "Caster", una strega, e lo mette in guardia da se stessa, l’amore di Ethan rimane immutato. Ma allo scoccare del suo sedicesimo compleanno, tutto precipita vertiginosamente perché Lena, vittima di un’ antica maledizione, vedrà la Magia Bianca e quella Nera affrontarsi per decidere il suo destino. Temendo per la vita di Ethan, Lena deciderà di fare un incredibile sacrificio per entrambi: cancellare il loro amore dalla memoria di Ethan. Ma la loro unione è forte e indissolubile, e quando la Magia Nera si impossessa di Lena, lei si troverà a scegliere tra salvare Ethan e tenere stretto tutto ciò che ha sempre desiderato. 6,2/10 IMDB Risoluzione: 720 x 304 Parole chiave: fantascienza dramma

Iobit Driver Booster Pro 2.1.0.160 [Zip - MultiLang] Update Driver

Language: | Size: 28.89 MB | Seed: 612 | Leech: 11

Description:

<< Scheda Software >> Sito Ufficiale: http://www.iobit.com/it/ OS Compatibilità: XP SP3 / Vista SP2 / 7 SP1 / 8 Lingua Interfaccia Utente: Italiano - Multilingue Anno Rilascio: 16/12/2014 Anno Rilascio Non Ufficiale: 16/12/2014 Versione: 2.1.0.160 Licenza: Commerciale (Freeware Per Tutti Gli Amici Della Rete) Categoria Software: Utily, Prestazioni, Update Drivers, Sicurezza PC Architettura Software: Nativa a 32-64 bit Architettura Portable: Nativa a 32 bit (dovrebbe funzionare anche su macchina 64 bit) Tipo Archiviazione File: .zip Genere Software: Portable .exe - Setup .exe Cura N° 1: Serial Aiuto Attivazione: Come mia consuetudine, all'interno delle mie release trovi guide, tutorial o informazioni scritte. In questo caso: Testo scritto "Leggi". Non Aggiornare l'applicazione!! Per l'utente utilizzatore Windows 8 è consigliato: -» Avvia il programma Portable per la prima volta in modalità compatibilità Windows 7 (per eventuali errori in seguito e avvia come amministratore) per non ritrovarti con un software che non parte. << Informazioni:>> Che Cosa Fa Driver Booster? L'aggiornamento dei driver è di solito il primo passo per evitare il guasto dell'hardware, l'instabilità del sistema e le vulnerabilità nascoste della sicurezza. I driver sono quei software che permettono il funzionamento delle periferiche su di un computer. Tenerli aggiornati è fondamentale perché non solo si andrà a migliorare il funzionamento della periferica ma si andrà anche a rendere l’intero sistema operativo più stabile e meno soggetto a blocchi improvvisi. Ma se questo programma processa manualmente, diventerà molto rischioso e frustrante. Il Driver Booster è stato introdotto per scaricare ed aggiornare automaticamente i driver con un solo click. Basato sulla "cloud library", Driver Booster può essere sempre il primo ad identificare i driver obsoleti, scaricare ed aggiornare i driver. È una soluzione semplice, efficace e senza rischio a mantenere i tuoi driver aggiornati. ( Informazioni Prelevate Dal Sito Ufficiale )

Spongebob - Fuori dall'acqua (2015) .mkv AC3 iTA-ENG Bluray 1080p x264

Language: | Size: 6.5 GB | Seed: 745 | Leech: 11

Description:

Titolo originale: The SpongeBob Movie: Sponge Out of Water Nazione: U.S.A. Anno: 2015 Genere: Animazione Durata: 93' Regia: Paul Tibbitt Sito ufficiale: www.spongebobmovie.com Sito italiano: www.spongebob-fuoridallacqua.it Social network: facebook Cast: Antonio Banderas Cast (voci): Clancy Brown, Tom Kenny, Thomas F. Wilson, Bill Fagerbakke, Rodger Bumpass, Mr. Lawrence, Kaitlyn Ervin, Carolyn Lawrence, Noah Lomax, Jesica Ahlberg Produzione: Disruption Entertainment, Nickelodeon Animation Studio, Nickelodeon Movies, Paramount Animation, Paramount Pictures, Reel FX Creative Studios, United Plankton Pictures Distribuzione: Universal Pictures Italia Data di uscita: 26 Febbraio 2015 (cinema) Trama: Da Paramount Animation e Nickelodeon Movies arriva "Spongebob - Fuori dall'Acqua", una nuova avventura in 3D che è pazza e divertente come il suo protagonista. Per la prima volta, Spongebob Squarepants, l'invertebrato marino più amato del mondo, approda a terra nel nostro mondo per la sua più supereroica avventura. La vita a Bikini Bottom non poteva andare meglio per SpongeBob (Tom Kenny), l'eterno ottimista, e i suoi amici: Patrick Stella (Bill Fagerbakke) la stella marina, il sardonico Squiddy Tentacolo (Rodger Bumpass), Sandy (Carolyn Lawrence) la scienziata scoiattolo e il crostaceo capitalista Mr. Krabs (Clancy Brown). Quando però la ricetta segretissima dell'hamburger Krabby Patty viene rubata, i due eterni avversari SpongeBob e Plankton (Mr. Lawrence) dovranno unire le loro forze in un viaggio attraverso il tempo e lo spazio e sfruttare i superpoteri che albergano in loro, per dare battaglia al diabolico pirata Barba Burger (Antonio Banderas) e frustrare i suoi piani per quelle deliziose prelibatezze. Name : SpongeBob.Fuori.Dall.Acqua.2015.iTA-ENG.Bluray.1080p.x264-TRL.mkv Format : Matroska Format version : Version 2 File size : 6.50 GiB Duration : 1h 32mn Overall bit rate : 10.0 Mbps Encoded date : UTC 2015-05-29 12:57:46 Writing application : mkvmerge v7.1.0 ('Good Love') 32bit built on Jul 27 2014 12:59:18 Writing library : libebml v1.3.0 + libmatroska v1.4.1 Attachment : Yes Video ID : 1 Format : AVC Format/Info : Advanced Video Codec Format profile : [email protected] Format settings, CABAC : Yes Format settings, ReFrames : 4 frames Codec ID : V_MPEG4/ISO/AVC Duration : 1h 32mn Bit rate : 7 951 Kbps Width : 1 920 pixels Height : 1 080 pixels Display aspect ratio : 16:9 Frame rate : 23.976 fps Color space : YUV Chroma subsampling : 4:2:0 Bit depth : 8 bits Scan type : Progressive Bits/(Pixel*Frame) : 0.160 Stream size : 5.14 GiB (79%) Writing library : x264 core 146 r2538 121396c Language : English Default : Yes Forced : No Audio #1 ID : 2 Format : AC-3 Format/Info : Audio Coding 3 Mode extension : CM (complete main) Format settings, Endianness : Big Codec ID : A_AC3 Duration : 1h 32mn Bit rate mode : Constant Bit rate : 384 Kbps Channel(s) : 6 channels Channel positions : Front: L C R, Side: L R, LFE Sampling rate : 48.0 KHz Bit depth : 16 bits Compression mode : Lossy Stream size : 254 MiB (4%) Title : itunes RESYNC Language : Italian Default : Yes Forced : No Audio #2 ID : 3 Format : DTS Format/Info : Digital Theater Systems Codec ID : A_DTS Duration : 1h 32mn Bit rate mode : Constant Bit rate : 1 510 Kbps Channel(s) : 6 channels Channel positions : Front: L C R, Side: L R, LFE Sampling rate : 48.0 KHz Bit depth : 24 bits Compression mode : Lossy Stream size : 1 000 MiB (15%) Language : English Default : No Forced : No Text #1 ID : 4 Format : UTF-8 Codec ID : S_TEXT/UTF8 Codec ID/Info : UTF-8 Plain Text Title : FORCED Language : Italian Default : Yes Forced : No Text #2 ID : 5 Format : UTF-8 Codec ID : S_TEXT/UTF8 Codec ID/Info : UTF-8 Plain Text Language : Italian Default : No Forced : No Text #3 ID : 6 Format : UTF-8 Codec ID : S_TEXT/UTF8 Codec ID/Info : UTF-8 Plain Text Language : English Default : No Forced : No

Rookie Blue S05E01 WEB-DLMux 720p AVC ITA AAC ENG AC3 5.1 by SB

Language: | Size: 1.37 GB | Seed: 257 | Leech: 11

Description:

Titolo originale Rookie Blue Paese Canada Anno 2010 – in produzione Formato serie TV Genere azione, poliziesco Stagioni 6 Episodi 74 Durata 45 min (episodio) Lingua originale inglese Andy McNally (stagioni 1- in corso), interpretata da Missy Peregrym, doppiata da Francesca Manicone. Sam Swarek (stagioni 1- in corso), interpretato da Ben Bass, doppiato da Osmar M. Santucho. Dov Epstein (stagioni 1- in corso), interpretato da Gregory Smith, doppiato da Nanni Baldini. Gail Peck (stagioni 1- in corso), interpretata da Charlotte Sullivan, doppiata da Valentina Pollani. Traci Nash (stagioni 1- in corso), interpretata da Enuka Okuma, doppiata da Vanessa Giuliani. Chris Diaz (stagioni 1- in corso), interpretato da Travis Milne, doppiato da Davide Albano. Nick Collins (stagioni 3- in corso), interpretato da Peter Mooney, doppiato da Maurizio Di Girolamo. Oliver Shaw (stagioni 1- in corso), interpretato da Matt Gordon, doppiato da Donato Sbodio. Noelle Williams (stagioni 1-3, guest 4), interpretata da Melanie Nicholls-King, doppiata da Lucia Valenti. Jerry Barber (stagioni 1-3), interpretato da Noam Jenkins, doppiato da Roberto Accornero. Luke Callaghan (stagioni 1-2, guest 3-4), interpretato da Eric Johnson, doppiato da Andrea Beltramo. Frank Best (stagioni 1-4), interpretato da Lyriq Bent, doppiato da Luca Ghignone. Chloe Price (stagione 4- in corso), interpretata da Priscilla Faia. Marlo Cruz (stagione 4- in corso), interpretata da Rachael Ancheril. La serie segue le vite di cinque freschi poliziotti che si sono appena laureati presso l'accademia. L'addestramento è finito, ora comincia la vita. Devono imparare non solo ad avere a che fare con i loro doveri di agenti di polizia, ma anche ad affrontare i problemi e le aspettative delle loro famiglie e amici. Sono i primi soccorritori e stanno per imparare che non è la quantità di formazione che prepara alla vita. «Per servire, proteggere e...», questa è la frase usata nella sala riunioni prima che il turno inizi con il poliziotto che conduce l'incontro. C'è sempre un significato importante nella trama dell'episodio o nel contesto. La frase usata più spesso, tuttavia, è «servire, proteggere e non fare casini». Mostra/Nascondi Spoiler Testo nascosto [IMG]htt

Anarchia - La notte del giudizio (2014) iTALiAN AC3 BDRip 1080p x264

Language: | Size: 1.92 GB | Seed: 77 | Leech: 11

Description:

Titolo originale: The Purge: Anarchy Nazione: U.S.A., France Anno: 2014 Genere: Horror, Fantascienza, Thriller Durata: 104' Regia: James DeMonaco Sito ufficiale: blumhouse.com/film/thepurgeanarchy Sito italiano: anarchia-lanottedelgiudizio.it Social network: facebook, twitter Cast: Frank Grillo, Kiele Sanchez, Zach Gilford, Michael K. Williams, Amy Paffrath, Cortney Palm, Carmen Ejogo, Edwin Hodge, Nicholas Gonzalez, Zoe Borde Produzione: Blumhouse Productions, Platinum Dunes, Universal Pictures, Why Not Productions Distribuzione: Universal Pictures Italia Data di uscita: 23 Luglio 2014 (cinema) Trama: Il film segue le vicende di un improbabile gruppo di cinque persone che, nel corso della notte si spingono ai limiti per proteggere le loro vite, e si battono per sopravvivere ad una notte piena di decisioni impensabili. La storia inizia con un uomo solitario e misterioso, Leo (Frank Grillo), un sergente che ha subìto la perdita di un figlio avvenuta prima della fatidica notte. Armato fino ai denti per poter combattere fino all'alba, appare come un uomo ossessionato... come colui che cerca chiaramente vendetta contro i responsabili del suo grave lutto. Eva (Carmen Ejogo) è una madre single che cerca di sbarcare il lunario, e che vive ai margini della città. Abita con la figlia adolescente, Cali (Zoë Soul), ma non può garantirle la sicurezza offerta dalla ricchezza. Quando vengono assalite da alcuni uomini mascherati per lo Sfogo nella propria casa dove cercano di nascondersi, Eva e Cali devono contare sull'aiuto dello sconosciuto Leo, che le salva da una morte certa. Quando Leo, al di là del proprio giudizio ed a scapito dei suoi piani di vendetta verso colui che ha offeso la sua famiglia, assiste al loro rapimento, non esita ad aprire il fuoco per proteggere Eva e Cali. Nel frattempo, una coppia sull'orlo della separazione, Shane (Zach Gilford) e Liz (Kiele Sanchez), sono vittime di una manomissione della propria auto, giusto all'inizio del film. Cercano quindi rifugio nell'auto blindata di Leo, e faranno squadra con questi altri tre estranei per sfuggire a coloro che cercano di esercitare il loro diritto alla purificazione, proprio dello Sfogo. I nuovi alleati, mettendo in discussione tutto ciò che è stato loro impartito, vengono inseguiti per tutta la città in uno scenario di sopravvivenza dove vige la regola dell'uccidi o sarai ucciso, che sta al confine tra vendetta e giustizia morale. 6,6/10 IMDB Risoluzione: 1920 x 800 Audio: Italiano Dolby 5.1, Inglese AAC 2.0 Sottotitoli: Italiano (Forced)

Left 4 Dead 2 V2.0.2.7 Full ENG

Language: | Size: 1.98 GB | Seed: 35 | Leech: 11

Description:

Game: Left 4 Dead 2 Alias: L4D2 Detected platform: PC Summary: Set in the zombie apocalypse, Left 4 Dead 2 (L4D2) is the highly anticipated sequel to the award-winning Left 4 Dead, the #1 co-op game of 2008. This co-operative action horror FPS takes you and your friends through the cities, swamps and cemeteries of the Deep South, from Savannah to New Orleans 1) Disable UAC on Windows 7 And Windows Vista 2) Extract To Short Paths Like C:/Games Or D:/Games 3) Go To The Extracted Folder And Run the SETUP.bat File 4) Wait Till Finished Rebuilding. Then Start The Game From Your Desktop. Compressed Game Is 1.97GB After Decompression Is 8.03GB # Change Your Ingame Name And Language With "L4D2 Control Panel" # If you have any sound trouble, like Crackling sounds in between the game or the audio doesn't syncs or similar to that. All you have to do is : -> Open Console and type the following Command snd_rebuildaudiocache And then wait for few mins(10-15mins), Exit and Restart the game. Multiplayer Gameplay Available Through Garena. And Cracked Servers Via The Internet.

Everest (2015) .mkv FullHD 1080p iTA ENG AC3 5.1 x264

Language: | Size: 5.18 GB | Seed: 691 | Leech: 11

Description:

Titolo originale: Everest Nazione: U.S.A., Regno Unito Anno: 2015 Genere: Avventura, Drammatico, Thriller Durata: 150' Regia: Baltasar Kormákur Sito italiano: www.everest-ilfilm.it Cast: Jake Gyllenhaal, Robin Wright, Keira Knightley, Josh Brolin, Sam Worthington, Clive Standen, Jason Clarke, Emily Watson, Michael Kelly, Elizabeth Debicki, Vanessa Kirby, John Hawkes, Martin Henderson, Tom Goodman-Hill, Mia Goth Produzione: Cross Creek Pictures, Free State Pictures, Universal Pictures Data di uscita: Venezia 2015 - Fuori Concorso 24 Settembre 2015 (cinema) Trama: 10 Maggio 1996: nove scalatori affrontano la montagna più alta del mondo. La natura li punisce, scatenando contro di loro la tempesta più feroce mai vista dall’essere umano. Dovranno superare ostacoli impossibili, contrastare la potenza di una natura maligna, in una corsa contro il tempo per la sopravvivenza che vi terrà col fiato sospeso. Basato sul racconto di Jon Krakauer, uno dei pochi sopravvissuti alla strage, e integrato da testimonianze e racconti, “Everest” vi condurrà sull’orlo della fine, in un’agghiacciante lotta per lasopravvivenza. Parole chiave: avventura drammatico thriller

Ribelle - The brave (2012) BDRip 1080p - H264 - Ita Eng Ac3 5.1

Language: | Size: 7.12 GB | Seed: 974 | Leech: 11

Description:

Titolo originale: Brave Nazione: U.S.A. Anno: 2012 Genere: Animazione Durata: 100' Regia: Mark Andrews, Brenda Chapman Sito ufficiale: http://www.disney.it/ribelle Cast (voci): Kelly Macdonald, Emma Thompson, Billy Connolly, Julie Walters, Kevin McKidd, Craig Ferguson, Robbie Coltrane Produzione: Pixar Animation Studios, Walt Disney Pictures Data di uscita: 05 Settembre 2012 (cinema) Trama: Determinata a costruirsi la propria strada nella vita, Merida si oppone a una secolare tradizione sacra ai signori della terra: il massiccio Lord MacGuffin, il burbero Lord Macintosh e l'irascibile Lord Dingwall. Le azioni di Merida involontariamente scatenano il caos e la furia del regno, e quando si rivolge a una eccentrica donna anziana, Wise Woman, per chiederle aiuto, il suo sfortunato desiderio viene esaudito. Il conseguente pericolo costringe Merida a scoprire il significato del vero coraggio al fine di distruggere una tremenda maledizione prima che sia troppo tardi.

Monsters University (2013) BDRip 1080p - H264 - Ita Eng Ac3 5.1 - SoftSub Ita Eng

Language: | Size: 4.38 GB | Seed: 154 | Leech: 11

Description:

Titolo originale: Monsters University Nazione: U.S.A. Anno: 2013 Genere: Animazione Durata: 104' Regia: Dan Scanlon Sito italiano: www.disney.it/film/monsters-university Cast (voci): Steve Buscemi, John Goodman, Jennifer Tilly, Billy Crystal, Frank Oz, John Ratzenberger Produzione: Walt Disney Pictures, Pixar Animation Studios Data di uscita: 13 Agosto 2013 (anteprima) 21 Agosto 2013 (cinema) Trama: La matricola Mike Wazowski ha sognato di diventare uno spaventatore sin da quando era un piccolo mostro e sa meglio di chiunque altro che i migliori spaventatori vengono dalla Monsters University (MU). Ma durante il primo semestre proprio alla MU, i suoi piani vengono sconvolti dall'incontro con lo spocchioso James P. Sullivan, detto "Sulley", uno spaventatore dal talento naturale. Il loro spirito competitivo fuori controllo li farà cacciare dall'esclusivo programma per spaventatori dell'Università e, come se ciò non bastasse, si renderanno conto che l'unico modo per rimettere le cose a posto sarà quello di lavorare insieme, facendo squadra con un gruppo di mostri scapestrati.

Il bambino nella valigia (2015) .mkv FullHD m1080p iTA AC3 5.1 x264

Language: | Size: 2.9 GB | Seed: 282 | Leech: 11

Description:

Nackt unter Wölfen Germania 2015 Genere: Drammatico durata 105' film per la tv Regia di Philipp Kadelbach Con Florian Stetter, Peter Schneider, Sylvester Groth, Sabin Tambrea, Robert Gallinowski, Rainer Bock, Rafael Stachowiak, Thorsten Merten... Trama Nel marzo 1945 nel campo di concentramento di Buchenwald un bambino ebreo di tre anni viene nascosto in una valigia. Gli sforzi per mantenerlo in vita si tradurranno in una metafora degli sforzi messi in atto per preservare l'umanità tra i detenuti. Parole chiave: drammatico

Carol 2015 DVDSCR XviD AC3-EVO

Language: | Size: 1.45 GB | Seed: 730 | Leech: 11

Description:

SOURCE: Carl.2015.dvd.ISO - Thanks, HZN! ViDEO: 1500 kbps XviD -2Passes RESOLUTiON: 720x384 RUNTiME: 1h58m33sec SUBTiTLES: No AUDiO: 192 CBR AC-3 2.0 LANGUAGE: ENGLiSH GREETS: Srkfan & AQOS NOTES: The source itself is very grainy and blocky. Cleaned the best we could. Enjoy folks. We are looking for Pre-Retail Supplier Unreleased DVDBluRayWeb-DlsR5CAMTS If you have something to offer, please contact us [email protected]

Ant Man 2015 720p ENG HDRip x264 AAC-ETRG

Language: | Size: 919.81 MB | Seed: 334 | Leech: 11

Description:

Paul Rudd :... Scott Lang / Ant-Man Michael Douglas :... Dr. Hank Pym Evangeline Lilly :... Hope van Dyne Corey Stoll :... Darren Cross / Yellowjacket Video:- Format : MP4 / x264 / [email protected] Duration : 01:57:03 Bitrate : 1000 Kbps Resolution = (Width/Height) : 1280x688 pixels Frame Rate : 23,976 fps Audio:- Format : AAC Bitrate : 96 Kbps Channels : 2 Channels Sample Rate : 48 KHz Language : English Release info:- Encoded/Released By : Ozlem / ETRG Title/Year : Ant Man / 2015 File Size : 919 MiB Genre : Action, Adventure, Sci-Fi Source : 1080p Ours (NEW SOURCE) (Thank You) Subtitles : English IMDB : http://www.imdb.com/title/tt0478970/

Dexter S04e10 [DTTrip - XviD - Ita Mp3] Bambini sperduti

Language: | Size: 399.99 MB | Seed: 874 | Leech: 11

Description:

Trama Dexter è una serie televisiva basata sul romanzo La mano sinistra di Dio (Darkly Dreaming Dexter) di Jeff Lindsay. La storia ruota intorno al personaggio di Dexter Morgan, interpretato da Michael C. Hall (Six Feet Under). Rimasto orfano all’età di tre anni, Dexter viene adottato da un agente della Polizia di Miami, Harry Morgan, che vede presto in lui delle tendenze omicide. Gli insegna quindi quello che, da adulto, Dexter chiamerà il “Codice di Harry”, cioè incanalare questa sua macabra propensione alla morte in una strada più “costruttiva” e uccidere solo brutali criminali (pedofili, mafiosi o killer di persone innocenti) che sono riusciti a sfuggire alla macchina della giustizia. Per soddisfare il suo lugubre interesse per il sangue e coprire i suoi stessi crimini, Dexter lavora come perito ematologo per il Dipartimento di Polizia di Miami. Assassino preciso e risoluto, nasconde la sua verità dietro una maschera di uomo (quasi) normale e socialmente responsabile. È molto amato da molti suoi colleghi e dai figli della sua fidanzata.

Ted 2 - Ita HD 720p

Language: | Size: 1.43 GB | Seed: 16 | Leech: 11

Description:

E’ ora di legalizzare Ted. Da quando abbiamo lasciato John e Ted, i due continuano a spassarsela alla grande in quel di Boston. Mentre John ora è scapolo, Ted convola a nozze con Tami-Lynn, la donna volgarotta dei suoi sogni. Poiché i problemi coniugali cominciano ad assalire gli sposi, Ted e Tami-Lynn decidono di avere un bambino per salvare il loro matrimonio. Le loro speranze vengono schiacciate però quando il Commonwealth del Massachusetts dichiara che Ted non è un essere umano, ma una proprietà, e quindi la sua domanda di adozione viene respinta. Inoltre, viene licenziato dal suo lavoro presso il negozio di alimentari, e sommariamente informato che il suo matrimonio è stato annullato. Arrabbiato e sconsolato, Ted incassa la sua frustrazione e chiede al suo migliore amico di aiutarlo a citare in giudizio lo Stato per far valere i suoi diritti.

Lost S01e13 Versione 720p, [BDRip - H264 - 720p - Ita Eng Mp3 - Sub Ita Eng]

Language: | Size: 498.92 MB | Seed: 198 | Leech: 11

Description:

Lost è una serie televisiva statunitense creata da J.J. Abrams, Damon Lindelof e Jeffrey Lieber. Prodotta da ABC, Bad Robot Productions e Grass Skirt Productions, la serie è stata trasmessa negli Stati Uniti dal 2004 al 2010. La sceneggiatura è stata scritta da Abrams, Lindelof e Lieber, mentre la colonna sonora è stata composta da Michael Giacchino. Le riprese di Lost si sono svolte principalmente sull'isola di Oahu (Hawaii), e la serie è considerata una delle produzioni più costose della storia della televisione[3]. I produttori esecutivi della serie sono stati Abrams, Lindelof, Edward Kitsis, Adam Horowitz, Jack Bender e Carlton Cuse. Acclamato dal pubblico e dalla critica, Lost ha ricevuto diversi riconoscimenti, tra cui un Golden Globe e tre Emmy Award,[4] registrando un'audience di più di 16 milioni di telespettatori alle prime messe in onda di ciascun episodio della prima stagione della serie.[5]. Per questi motivi, insieme a Desperate Housewives e Grey's Anatomy, è considerata una delle serie TV che hanno riportato al successo il network televisivo statunitense ABC[6][7]. La serie è divenuta parte della cultura popolare americana ed al suo interno si possono trovare diversi riferimenti alla storia, ad opere letterarie e cinematografiche e a brani musicali. Vi sono poi riferimenti a Lost anche all'interno di film, fumetti e videogiochi.[8][9][10] L'universo immaginario della serie ha dato vita a videogiochi, libri sull'argomento e alternate reality game tra cui The Lost Experience, Find 815 e Lost University.

Il Segreto S01e401-440 + Speciale, [XviD - Ita Ac3] WebRip

Language: | Size: 16.96 GB | Seed: 493 | Leech: 11

Description:

E’ iniziata questa settimana una nuova soap opera che ha già appassionato moltissimi telespettatori. “Il Segreto” è una telenovela spagnola che in patria ha riscosso un successo enore, registrando ogni giorno curve di audience altissime fin da quando è iniziata. La fiction è composta da 381 episodi e in Spagna sta per andare in onda la terza stagione, che si svolge sedici anni dopo gli eventi che stanno entusiasmando i telespettatori italiani. Ambientata nella Spagna rurale di inizio Novecento, racconta la storia di Pepa (Megan Garcia Montaner) una bella ragazza che viene cacciata via da casa dal padre perché ha commesso un peccato d’amore. Dopo aver vagato per qualche tempo, la fanciulla giunge nel villaggio di Puente Viejo dove viene assunta come levatrice nella tenuta di Francisca (Maria Bouzas). Il lavoro e il cambio di città rappresentano un nuovo inizio per Pepa tanto che la ragazza riesce anche ad innamorarsi. Si scopre, però, che l’uomo che le ha fatto battere il cuore è Tristan (Alex Gadea), il primogenito di Francisca e marito di Angustias (Sara Ballesteros). In onda tutti i giorni alle ore 14.45 su Canale 5 dopo “CentoVetrine”, “Il Segreto” dopo solo qualche giorno dal suo inizio si annuncia già come una grande storia d’amore. I personaggi che faranno battere il cuore alle telespettatrici più sensibili e romantiche e gli intrighi che appassioneranno i telespettatori, tenendoli incollati al televisore, sono la chiave del successo di questa soap che terrà compagnia agli italiani per tutta l’estate. (r.d.) AUTORE flint CATEGORIA Serie TV INFOHASH 586F47DB83F61DD70FD5B85696571E212117C4BD FILE(35) Files

Arrow S02e09 Versione 720p, [Mux - 720p - H264 - Ita Eng Ac3 - Sub Ita Eng]

Language: | Size: 1.3 GB | Seed: 215 | Leech: 11

Description:

La serie segue le avventure del playboy miliardario Oliver Queen. Naufrago per cinque anni su un'isola deserta, viene tratto in salvo e torna finalmente a casa, a Starling City; qui giunto assumerà l'identità segreta nota come "Hood" (o il giustiziere) per combattere il crimine e la corruzione di Starling City, seguendo una lista di nomi trovata in una tasca della giacca del padre prima di seppellirlo. Facendo uso delle abilit‡ fisiche, delle tecniche di lotta e dell'incredibile maestria con l'arco ottenuta sull'isola con anni di pratica e scontri mortali e aiutato dal suo braccio destro e confidente Diggle, perseguirà uno ad uno i criminali e i malviventi della Lista per eliminarli. AUTORE flint CATEGORIA Serie TV INFOHASH 2BECF1A26538D5D54018739F1FB3CAB19C4B0D73 FILE(1) Files TRAKER Traker Non ci sono commenti

Arrow S03e14 V 1080, [Mux - 1080p - H264 - Ita MP3 Eng Ac3 - Sub Ita Eng]

Language: | Size: 1.67 GB | Seed: 289 | Leech: 11

Description:

All'età di 11 anni dopo aver assistito all'omicidio della madre Nora (Michelle Harrison) e visto suo padre Henry (John Wesley Shipp) ingiustamente accusato, Barry Allen (Grant Gustin) viene accolto in casa dal detective Joe West (Jesse L. Martin) e la sua famiglia. Barry adesso è diventato un brillante studente di chimica, noto a tutti sia per la sua bravura in questo campo che per il suo essere perennemente in ritardo. Diventato uno scienziato forense per il dipartimento di polizia di Central City, Allen cerca di scoprire la verità sull'omicidio di sua madre, che lo porta all'acceleratore di particelle di Harrison Wells (Tom Cavanagh). Quando l'acceleratore provoca un'esplosione, Allen viene colpito da dei prodotti chimici caduti da uno scaffale per colpa di un fulmine ed entra in coma. Quando si risveglia dopo nove mesi, apprende che ha la capacità di muoversi a velocità sovrumana, anche se è convinto che non è l'unico meta-umano creato dall'esplosione. Il giovane Allen decide di utilizzare questo suo eccezionale potere che gli ha conferito il destino per proteggere l'umanità, volendo custodire la propria identità. Da questo momento comincia a utilizzare il suo eccezionale potere per sconfiggere il crimine e quando salva la gente utilizza un particolare costume rosso bordèu con un fulmine nel petto della tuta, ed un elmetto con delle auricolari a forma di fulmini. Così Barry assume l'identità di Flash, ed l'uomo più veloce del mondo. A conoscere il segreto di Barry sono il dott. Wells, ricercatore dei laboratori S.T.A.R., i suoi assistenti Cisco Ramon (Carlos Valdes) e Caitlin Show (Danielle Panabaker) e infine il detective Joe West.