Search Top Tags














Allied - Un ombra nascosta (2016).H264.Italian.English.Ac3.5.1.sub.ita.eng.iCV-MIRCrew

Language: | Size: 1.91 GB | Seed: 141 | Leech: 125

Description:

Allied - Un ombra nascosta (2016).H264.Italian.English.Ac3.5.1.sub.ita.eng.iCV-MIRCrew [center] [color=red][b][img]http://s23.postimg.org/b9yhws27f/0sc_Del1.png[/img] [u]NO FOUND ONLY ORIGINAL RELEASE[/u] [img]http://i.imgur.com/GDNQx1Z.png[/img] My release is always in double track audio italian and Original audio for select it use VLC or dvd player home not use wmp Allied - Un ombra nascosta (2016) [img]https://extraimage.net/images/2017/03/19/fb96ef8177e692b6dc28df0af451fc3b.png[/img] [URL=http://www.imdb.com/title/tt3640424/][IMG]http://www.userlogos.org/files/logos/Sucka/imdb_new.png[/IMG][/URL] [img]http://i.imgur.com/fGu1rKv.png[/img] DATA USCITA: 12 gennaio 2017 GENERE: Sentimentale, Thriller ANNO: 2016 REGIA: Robert Zemeckis SCENEGGIATURA: Steven Knight FOTOGRAFIA: Don Burgess MONTAGGIO: Mick Audsley, Jeremiah O'Driscoll MUSICHE: Alan Silvestri PRODUZIONE: GK Films, Paramount Pictures DISTRIBUZIONE: Universal Pictures Italy. PAESE: USA DURATA: 124 Min [img]http://i.imgur.com/W7kBqiE.png[/img] Brad Pitt, Marion Cotillard, Lizzy Caplan, Matthew Goode, Raffey Cassidy, Charlotte Hope, Jared Harris, Marion Bailey [img]http://i.imgur.com/bFK3ggF.png[/img] Il film racconta la storia dell'ufficiale dei servizi segreti Max Vatan, che nel 1942 incontra nel Nord Africa la combattente della Resistenza Francese Marianne Beausejour in una missione mortale oltre la linee nemiche. Riuniti a Londra, la loro relazione è minacciata dalle estreme pressioni della guerra. [img]http://i.imgur.com/48xHWWH.png[/img] In 1942, a Canadian intelligence officer in North Africa encounters a female French Resistance fighter on a deadly mission behind enemy lines. When they reunite in London, their relationship is tested by the pressures of war. [img]http://i.imgur.com/K8bfNTy.png[/img] [url=https://extraimage.net/image/25Xu][img]https://extraimage.net/images/2017/03/19/4062f7f3818ff19734b8f154c2e77ed1.th.png[/img][/url] [url=https://extraimage.net/image/25XV][img]https://extraimage.net/images/2017/03/19/ac39712f3afff29cf262413509e962b6.th.png[/img][/url] [url=https://extraimage.net/image/25Xv][img]https://extraimage.net/images/2017/03/19/e7bfe2e48d6fb2fbba01ff42b41891aa.th.png[/img][/url] [url=https://extraimage.net/image/25XA][img]https://extraimage.net/images/2017/03/19/71ef0c9ef30662324f6e637af02cdab8.th.png[/img][/url] [img]http://i.imgur.com/aVrMohH.png[/img] [spoiler] General Unique ID : 167495445062285116153483417026230974162 (0x7E027306987EFF3D8893EF84F72376D2) Complete name : Allied - Un ombra nascosta (2016).H264.ita.eng.sub.ita.eng.mkv Format : Matroska Format version : Version 2 File size : 1.91 GiB Duration : 2h 4mn Overall bit rate : 2 191 Kbps Movie name : VISIT www.icv-crew.org Encoded date : UTC 2017-03-18 15:40:37 Writing application : Lavf54.63.100 Writing library : Lavf54.63.100 COPYRIGHT : robbyrs Video ID : 1 Format : AVC Format/Info : Advanced Video Codec Format profile : [email protected] Format settings, CABAC : Yes Format settings, ReFrames : 2 frames Codec ID : V_MPEG4/ISO/AVC Duration : 2h 4mn Bit rate : 1 290 Kbps Width : 720 pixels Height : 304 pixels Display aspect ratio : 2.35:1 Frame rate mode : Variable Frame rate : 23.976 fps Color space : YUV Chroma subsampling : 4:2:0 Bit depth : 8 bits Scan type : Progressive Bits/(Pixel*Frame) : 0.246 Stream size : 1.09 GiB (57%) Writing library : x264 core 130 r2273 Encoding settings : cabac=1 / ref=2 / deblock=1:0:0 / analyse=0x1:0x131 / me=hex / subme=7 / psy=1 / psy_rd=1.00:0.00 / mixed_ref=0 / me_range=16 / chroma_me=1 / trellis=1 / 8x8dct=0 / cqm=0 / deadzone=21,11 / fast_pskip=1 / chroma_qp_offset=-2 / threads=12 / lookahead_threads=2 / sliced_threads=0 / nr=0 / decimate=1 / interlaced=0 / bluray_compat=0 / constrained_intra=0 / bframes=3 / b_pyramid=0 / b_adapt=1 / b_bias=0 / direct=3 / weightb=1 / open_gop=0 / weightp=2 / keyint=230 / keyint_min=23 / scenecut=40 / intra_refresh=0 / rc_lookahead=40 / rc=2pass / mbtree=1 / bitrate=1290 / ratetol=1.0 / qcomp=0.60 / qpmin=10 / qpmax=69 / qpstep=4 / cplxblur=20.0 / qblur=0.5 / vbv_maxrate=24000 / vbv_bufsize=24000 / nal_hrd=none / ip_ratio=1.40 / aq=1:1.00 Language : Italian Default : Yes Forced : No DURATION : 02:04:35.301000000 NUMBER_OF_FRAMES : 179228 NUMBER_OF_BYTES : 9157586664 _STATISTICS_WRITING_APP : mkvmerge v8.7.0 ('All of the above') 64bit _STATISTICS_WRITING_DATE_UTC : 2017-03-15 19:05:45 _STATISTICS_TAGS : BPS DURATION NUMBER_OF_FRAMES NUMBER_OF_BYTES Audio #1 ID : 2 Format : AC-3 Format/Info : Audio Coding 3 Mode extension : CM (complete main) Codec ID : A_AC3 Duration : 2h 4mn Bit rate mode : Constant Bit rate : 448 Kbps Channel(s) : 6 channels Channel positions : Front: L C R, Side: L R, LFE Sampling rate : 48.0 KHz Bit depth : 16 bits Compression mode : Lossy Delay relative to video : 1mn 5s Stream size : 399 MiB (20%) Title : AC3 ITA Language : Italian Default : Yes Forced : No DURATION : 02:04:35.360000000 NUMBER_OF_FRAMES : 233605 NUMBER_OF_BYTES : 598028800 _STATISTICS_WRITING_APP : mkvmerge v8.7.0 ('All of the above') 64bit _STATISTICS_WRITING_DATE_UTC : 2017-03-15 19:05:45 _STATISTICS_TAGS : BPS DURATION NUMBER_OF_FRAMES NUMBER_OF_BYTES Audio #2 ID : 3 Format : AC-3 Format/Info : Audio Coding 3 Mode extension : CM (complete main) Codec ID : A_AC3 Duration : 2h 4mn Bit rate mode : Constant Bit rate : 448 Kbps Channel(s) : 6 channels Channel positions : Front: L C R, Side: L R, LFE Sampling rate : 48.0 KHz Bit depth : 16 bits Compression mode : Lossy Delay relative to video : 1mn 5s Stream size : 399 MiB (20%) Title : AC3 ENG Language : English Default : No Forced : No DURATION : 02:04:35.360000000 NUMBER_OF_FRAMES : 233605 NUMBER_OF_BYTES : 598028800 _STATISTICS_WRITING_APP : mkvmerge v8.7.0 ('All of the above') 64bit _STATISTICS_WRITING_DATE_UTC : 2017-03-15 19:05:45 _STATISTICS_TAGS : BPS DURATION NUMBER_OF_FRAMES NUMBER_OF_BYTES Text #1 ID : 4 Format : ASS Codec ID : S_TEXT/ASS Codec ID/Info : Advanced Sub Station Alpha Compression mode : Lossless Title : FORCED Language : Italian Default : Yes Forced : No DURATION : 01:38:00.750000000 NUMBER_OF_FRAMES : 149 NUMBER_OF_BYTES : 4151 _STATISTICS_WRITING_APP : mkvmerge v8.7.0 ('All of the above') 64bit _STATISTICS_WRITING_DATE_UTC : 2017-03-15 19:05:45 _STATISTICS_TAGS : BPS DURATION NUMBER_OF_FRAMES NUMBER_OF_BYTES Text #2 ID : 5 Format : ASS Codec ID : S_TEXT/ASS Codec ID/Info : Advanced Sub Station Alpha Compression mode : Lossless Title : REGULAR Language : Italian Default : No Forced : No DURATION : 02:03:19.559000000 NUMBER_OF_FRAMES : 1038 NUMBER_OF_BYTES : 31133 _STATISTICS_WRITING_APP : mkvmerge v8.7.0 ('All of the above') 64bit _STATISTICS_WRITING_DATE_UTC : 2017-03-15 19:05:45 _STATISTICS_TAGS : BPS DURATION NUMBER_OF_FRAMES NUMBER_OF_BYTES Text #3 ID : 6 Format : ASS Codec ID : S_TEXT/ASS Codec ID/Info : Advanced Sub Station Alpha Compression mode : Lossless Title : FORCED Language : English Default : No Forced : No DURATION : 01:33:56.547000000 NUMBER_OF_FRAMES : 142 NUMBER_OF_BYTES : 3803 _STATISTICS_WRITING_APP : mkvmerge v8.7.0 ('All of the above') 64bit _STATISTICS_WRITING_DATE_UTC : 2017-03-15 19:05:45 _STATISTICS_TAGS : BPS DURATION NUMBER_OF_FRAMES NUMBER_OF_BYTES Text #4 ID : 7 Format : ASS Codec ID : S_TEXT/ASS Codec ID/Info : Advanced Sub Station Alpha Compression mode : Lossless Title : REGULAR Language : English Default : No Forced : No DURATION : 01:55:16.622000000 NUMBER_OF_FRAMES : 1093 NUMBER_OF_BYTES : 30687 _STATISTICS_WRITING_APP : mkvmerge v8.7.0 ('All of the above') 64bit _STATISTICS_WRITING_DATE_UTC : 2017-03-15 19:05:45 _STATISTICS_TAGS : BPS DURATION NUMBER_OF_FRAMES NUMBER_OF_BYTES Text #5 ID : 8 Format : ASS Codec ID : S_TEXT/ASS Codec ID/Info : Advanced Sub Station Alpha Compression mode : Lossless Title : NON UDENTI Language : English Default : No Forced : No DURATION : 01:55:32.152000000 NUMBER_OF_FRAMES : 1296 NUMBER_OF_BYTES : 43160 _STATISTICS_WRITING_APP : mkvmerge v8.7.0 ('All of the above') 64bit _STATISTICS_WRITING_DATE_UTC : 2017-03-15 19:05:45 _STATISTICS_TAGS : BPS DURATION NUMBER_OF_FRAMES NUMBER_OF_BYTES Menu 00:00:00.000 : :00:00:00.000 00:05:38.088 : :00:05:38.088 00:16:39.749 : :00:16:39.749 00:24:31.428 : :00:24:31.428 00:33:52.280 : :00:33:52.280 00:43:07.543 : :00:43:07.543 00:49:14.118 : :00:49:14.118 01:01:39.321 : :01:01:39.321 01:09:36.339 : :01:09:36.339 01:16:44.016 : :01:16:44.016 01:26:14.961 : :01:26:14.961 01:31:53.466 : :01:31:53.466 01:40:12.173 : :01:40:12.173 01:47:25.105 : :01:47:25.105 01:56:35.614 : :01:56:35.614 [/spoiler] [/color][/b][/center]

Neruda.2016.iTALiAN.AC3.BRRip.XviD-T4P3

Language: | Size: 1.32 GB | Seed: 188 | Leech: 124

Description:

Neruda Titolo originale: Neruda Conosciuto anche come: Nazione: Argentina, Cile, Spagna, Francia Anno: 2016 Genere: Drammatico Durata: 107' Regia: Pablo Larraín Cast: Gael García Bernal, Luis Gnecco, Mercedes Morán, Pablo Derqui Produzione: AZ Films, Casting del Sur, Fabula Distribuzione: Good Films Data di uscita: 13 Ottobre 2016 (cinema) Trama: E’ il 1948 e la Guerra Fredda è arrivata anche in Cile. Al congresso, il Senatore Pablo Neruda accusa il governo di tradire il Partito Comunista e rapidamente viene messo sotto accusa dal Presidente Gonzalez Videla. Il Prefetto della Polizia, Oscar Peluchonneau, viene incaricato di arrestare il poeta. Neruda tenta di scappare dal paese assieme alla moglie, la pittrice Delia del Carril, e i due sono costretti a nascondersi. Traendo ispirazione dai drammatici eventi della sua vita di fuggitivo, Neruda scrive la sua epica raccolta di poesie, “Canto General”. Nel frattempo, in Europa, cresce la leggenda del poeta inseguito dal poliziotto, e alcuni artisti capitanati da Pablo Picasso iniziano a invocare la libertà per Neruda. Ciononostante, Neruda vede questa battaglia contro la sua nemesi Peluchonneau come un’opportunità per reinventare se stesso. Gioca con l’ispettore, lasciandogli indizi architettati per rendere più pericoloso e intimo il loro gioco tra ‘gatto e topo’. In questa vicenda del poeta perseguitato e del suo avversario implacabile, Neruda intravede per se stesso dei risvolti eroici: la possibilità, cioè, di diventare un simbolo di libertà, oltre che una leggenda della letteratura.

Molly Moon and the Incredible Book of Hypnotism (2015).H264.Italian.English.Ac3.5.1.iCV-MIRCrew

Language: | Size: 1.48 GB | Seed: 57 | Leech: 122

Description:

Molly Moon and the Incredible Book of Hypnotism - Molly Moon (2015).H264.Italian.English.Ac3.5.1.iCV-MIRCrew My release is always in double track audio italian and Original audio for select it use VLC or dvd player home not use wmp Molly Moon e l'incredibile libro dell'ipnotismo (2015) [img]http://extraimage.net/images/2016/12/14/5ca8d7471f1385eabd35fc70b944e665.png[/img] [URL=http://www.imdb.com/title/tt2445178/][IMG]http://www.userlogos.org/files/logos/Sucka/imdb_new.png[/IMG][/URL] [img]http://i.imgur.com/fGu1rKv.png[/img] Regia: Dominic Monaghan, Christopher N. Rowley Sceneggiatura: Tom Butterworth, Chris Hurford Musica: Peter Raeburn Scritto da: Georgia Byng Paese: Regno Unito Anno: 2015 Genere: Fantasy Durata: 98 min [img]http://i.imgur.com/W7kBqiE.png[/img] Raffey Cassidy, Lesley Manville, Emily Watson, Celia Imrie, Anne-Marie Duff, Omid Djalili, Dominic Monaghan, Joan Collins [img]http://i.imgur.com/bFK3ggF.png[/img] L'orfana Molly Moon vive una difficile esistenza nel freddo e disastrato istituto gestito da Miss Anderstone, una donna di immane crudeltà. Un giorno, trovando un libro, Molly si convince di poter imparare l'antica arte dell'ipnosi e di poter migliorare la sua esistenza grazie a questa, ritrovando anche l'amico Rocky andato in adozione............ [img]http://i.imgur.com/48xHWWH.png[/img] An orphan who practices hypnosis faces off against a bank robber who wants her book on the art form. .......... [img]http://i.imgur.com/K8bfNTy.png[/img] [url=https://extraimage.net/image/2Nke][img]http://extraimage.net/images/2016/12/14/9c196dc2abdc1027b1b1724189c83434.th.png[/img][/url] [url=https://extraimage.net/image/2NkZ][img]http://extraimage.net/images/2016/12/14/87e3f880b45891c16bd83ea3c38a5f60.th.png[/img][/url] [url=https://extraimage.net/image/2Nk4][img]http://extraimage.net/images/2016/12/14/9fbb640cd7123921632e3523823528be.th.png[/img][/url] [img]http://i.imgur.com/aVrMohH.png[/img] [spoiler] General Unique ID : 266432071771037100043256626925064552553 (0xC870F355134AB3924E37038AF5920069) Complete name : Molly Moon (2015).H264.ita.eng.iCV-MIRCrew.mkv Format : Matroska Format version : Version 2 File size : 1.48 GiB Duration : 1h 37mn Overall bit rate : 2 170 Kbps Movie name : VISIT www.icv-crew.org Encoded date : UTC 2016-12-08 18:13:49 Writing application : Lavf54.63.100 Writing library : Lavf54.63.100 COPYRIGHT : robbyrs Video ID : 1 Format : AVC Format/Info : Advanced Video Codec Format profile : [email protected] Format settings, CABAC : Yes Format settings, ReFrames : 2 frames Codec ID : V_MPEG4/ISO/AVC Duration : 1h 37mn Bit rate : 1 270 Kbps Width : 720 pixels Height : 390 pixels Display aspect ratio : 16:9 Frame rate mode : Variable Frame rate : 24.000 fps Color space : YUV Chroma subsampling : 4:2:0 Bit depth : 8 bits Scan type : Progressive Bits/(Pixel*Frame) : 0.188 Stream size : 860 MiB (57%) Writing library : x264 core 130 r2273 Encoding settings : cabac=1 / ref=2 / deblock=1:0:0 / analyse=0x1:0x131 / me=hex / subme=7 / psy=1 / psy_rd=1.00:0.00 / mixed_ref=0 / me_range=16 / chroma_me=1 / trellis=1 / 8x8dct=0 / cqm=0 / deadzone=21,11 / fast_pskip=1 / chroma_qp_offset=-2 / threads=12 / lookahead_threads=2 / sliced_threads=0 / nr=0 / decimate=1 / interlaced=0 / bluray_compat=0 / constrained_intra=0 / bframes=3 / b_pyramid=0 / b_adapt=1 / b_bias=0 / direct=3 / weightb=1 / open_gop=0 / weightp=2 / keyint=240 / keyint_min=24 / scenecut=40 / intra_refresh=0 / rc_lookahead=40 / rc=2pass / mbtree=1 / bitrate=1270 / ratetol=1.0 / qcomp=0.60 / qpmin=10 / qpmax=69 / qpstep=4 / cplxblur=20.0 / qblur=0.5 / vbv_maxrate=24000 / vbv_bufsize=24000 / nal_hrd=none / ip_ratio=1.40 / aq=1:1.00 Language : Italian Default : Yes Forced : No DURATION : 01:37:43.334000000 NUMBER_OF_FRAMES : 140720 NUMBER_OF_BYTES : 9300291978 _STATISTICS_WRITING_APP : mkvmerge v8.7.0 ('All of the above') 64bit _STATISTICS_WRITING_DATE_UTC : 2016-12-06 14:15:41 _STATISTICS_TAGS : BPS DURATION NUMBER_OF_FRAMES NUMBER_OF_BYTES Audio #1 ID : 2 Format : AC-3 Format/Info : Audio Coding 3 Mode extension : CM (complete main) Codec ID : A_AC3 Duration : 1h 37mn Bit rate mode : Constant Bit rate : 448 Kbps Channel(s) : 6 channels Channel positions : Front: L C R, Side: L R, LFE Sampling rate : 48.0 KHz Bit depth : 16 bits Compression mode : Lossy Delay relative to video : 1mn 5s Stream size : 313 MiB (21%) Title : AC3 ITA Language : Italian Default : No Forced : No DURATION : 01:37:30.240000000 NUMBER_OF_FRAMES : 182820 NUMBER_OF_BYTES : 468019200 _STATISTICS_WRITING_APP : mkvmerge v8.7.0 ('All of the above') 64bit _STATISTICS_WRITING_DATE_UTC : 2016-12-06 14:15:41 _STATISTICS_TAGS : BPS DURATION NUMBER_OF_FRAMES NUMBER_OF_BYTES Audio #2 ID : 3 Format : AC-3 Format/Info : Audio Coding 3 Mode extension : CM (complete main) Codec ID : A_AC3 Duration : 1h 37mn Bit rate mode : Constant Bit rate : 448 Kbps Channel(s) : 6 channels Channel positions : Front: L C R, Side: L R, LFE Sampling rate : 48.0 KHz Bit depth : 16 bits Compression mode : Lossy Delay relative to video : 1mn 5s Stream size : 313 MiB (21%) Title : AC3 ENG Language : English Default : No Forced : No DURATION : 01:37:42.368000000 NUMBER_OF_FRAMES : 183199 NUMBER_OF_BYTES : 468989440 _STATISTICS_WRITING_APP : mkvmerge v8.7.0 ('All of the above') 64bit _STATISTICS_WRITING_DATE_UTC : 2016-12-06 14:15:41 _STATISTICS_TAGS : BPS DURATION NUMBER_OF_FRAMES NUMBER_OF_BYTES Menu 00:00:00.000 : :00:00:00.000 00:07:05.342 : :00:07:05.342 00:14:28.201 : :00:14:28.201 00:20:13.838 : :00:20:13.838 00:29:27.099 : :00:29:27.099 00:39:02.590 : :00:39:02.590 00:50:56.804 : :00:50:56.804 00:59:52.756 : :00:59:52.756 01:08:53.129 : :01:08:53.129 01:16:19.950 : :01:16:19.950 01:25:27.706 : :01:25:27.706 01:35:23.259 : :01:35:23.259 [/spoiler] [/color][/b][/center]

Kubo.E.La.Spada.Magica.2016.iTALiAN.AC3.BRRip.XviD-T4P3

Language: | Size: 1.53 GB | Seed: 282 | Leech: 122

Description:

Kubo e la spada magica Titolo originale: Kubo and the Two Strings Conosciuto anche come: Nazione: U.S.A. Anno: 2016 Genere: Animazione, Avventura Durata: 101' Regia: Travis Knight Cast (voci originali): Art Parkinson, Charlize Theron, Ralph Fiennes, Rooney Mara, Matthew McConaughey, Michael Sun Lee, Cary-Hiroyuki Tagawa, George Takei, Minae Noji Produzione: Laika Entertainment Distribuzione: Universal Pictures Data di uscita: 03 Novembre 2016 (cinema) Trama: L'intelligente e generoso Kubo riesce a sbarcare il lunario raccontando storie agli abitanti della sua città, tra i quali spiccano Hosato, Akihiro e Kameyo. Ma la sua vita relativamente tranquilla viene sconvolta quando Kubo, per errore, evoca uno spirito del suo passato, il quale si precipita giù sulla terra per adempiere alla sua secolare vendetta. In fuga, Kubo si allea con Monkey e Beetle, e parte per un emozionante viaggio per salvare la sua famiglia e risolvere il mistero che avvolge suo padre, il più grande guerriero samurai che il mondo abbia mai conosciuto. Con l'aiuto del suo shamisen — uno strumento musicale magico — Kubo dovrà affrontare dei e mostri, tra cui il vendicativo Moon King e le malvagie Sorelle gemelle, per poter svelare il segreto della sua eredità, riunirsi con la sua famiglia e compiere il suo eroico destino.

Game of Thrones S05E05 FRENCH HDTV

Language: | Size: 550.12 MB | Seed: 2299 | Leech: 118

Description:

Il y a très longtemps, à une époque oubliée, une force a détruit l'équilibre des saisons. Dans un pays où l'été peut durer plusieurs années et l'hiver toute une vie, des forces sinistres et surnaturelles se pressent aux portes du Royaume des Sept Couronnes. La confrérie de la Garde de Nuit, protégeant le Royaume de toute créature pouvant provenir d'au-delà du Mur protecteur, n'a plus les ressources nécessaires pour assurer la sécurité de tous. Après un été de dix années, un hiver rigoureux s'abat sur le Royaume avec la promesse d'un avenir des plus sombres. Pendant ce temps, complots et rivalités se jouent sur le continent pour s'emparer du Trône de Fer, le symbole du pouvoir absolu.

Miss Peregrine's Home for Peculiar Children - (2016) Portable.Mp4. Italian.English.Aac.iCV-MIRCrew

Language: | Size: 678.51 MB | Seed: 15 | Leech: 118

Description:

Miss Peregrine's Home for Peculiar Children - Miss Peregrine la casa dei ragazzi speciali (2016) Portable.Mp4. Italian.English.Aac.iCV-MIRCrew [img]http://i.imgur.com/GDNQx1Z.png[/img] My release is always in double track audio italian and Original audio for select it use VLC or dvd player home not use wmp Miss Peregrine la casa dei ragazzi speciali - Miss Peregrine's Home for Peculiar Children (2016) [img]https://extraimage.net/images/2017/01/02/62ff15ebd030690df03e53b5b2dcbc57.png[/img] [URL=http://www.imdb.com/title/tt1935859/][IMG]http://www.userlogos.org/files/logos/Sucka/imdb_new.png[/IMG][/URL] [img]http://s19.postimage.org/bgh0za7kj/banner_scheda.gif[/img] GENERE: Avventura, Fantasy ANNO: 2016 REGIA: Tim Burton SCENEGGIATURA: Jane Goldman FOTOGRAFIA: Bruno Delbonnel MONTAGGIO: Chris Lebenzon MUSICHE: Michael Higham, Matthew Margeson PRODUZIONE: Chernin Entertainment, Tim Burton Productions. DISTRIBUZIONE: 20th Century Fox. PAESE: USA DURATA: 127 Min [img]http://s19.postimage.org/i9hdvjydv/banner_trama.gif[/img] Eva Green, Asa Butterfield, Samuel L. Jackson, Ella Purnell, Chris O'Dowd, Allison Janney, Terence Stamp, Judi Dench [img]http://s19.postimage.org/i9hdvjydv/banner_trama.gif[/img] Quando l'amato nonno lascia a Jake indizi su un mistero che attraversa mondi e tempi alternativi, il ragazzo si ritroverà in un luogo magico noto come La casa per bambini speciali di Miss Peregrine.................... [img]http://s19.postimage.org/nwdqt10wj/banner_storyline.gif[/img] When Jacob discovers clues to a mystery that stretches across time, he finds Miss Peregrine's Home for Peculiar Children. But the danger deepens after he gets to know the residents and learns about their special powers. [img]http://i.imgur.com/GgEl7ea.png[/img] [img]http://extraimage.net/images/2017/01/02/9a4b2385da5372e3fcfa1505acd97b1b.png[/img] [img]http://extraimage.net/images/2017/01/02/f02daf88111e11eac8ab346397d17e7a.png[/img] [img]http://extraimage.net/images/2017/01/02/a64efb3d98ca05cf5137f09218c047fb.png[/img] [img]http://i.imgur.com/cWb6Z.gif[/img] [img]http://s19.postimage.org/f07k2tzo3/banner_dati_file.gif[/img] [spoiler] Generale ID univoco : 84255942897147884777482360767468500912 (0x3F631AB6253FB56573269D25A08F77B0) Nome completo : Miss Peregrine la casa dei ragazzi speciali (2016).H264.ita.eng.sub.ita.eng.iCV-MIRCrew.mkv Formato : Matroska Versione formato : Version 2 Dimensione : 1,93 GiB Durata : 2o 6min Bitrate totale : 2.176 Kbps Film : VISIT www.icv-crew.org Data codifica : UTC 2016-12-31 15:41:45 / UTC 2016-12-31 15:41:45 Creato con : Lavf54.63.100 Compressore : Lavf54.63.100 / Lavf54.63.100 Copyright : robbyrs Video ID : 1 Formato : AVC Formato/Informazioni : Advanced Video Codec Profilo formato : [email protected] Impostazioni formato, CABAC : Si Impostazioni formato, ReFrames : 2 frame ID codec : V_MPEG4/ISO/AVC Durata : 2o 6min Bitrate : 1.275 Kbps Larghezza : 720 pixel Altezza : 392 pixel Rapporto aspetto visualizzazione : 1,85:1 Rapporto aspetto originale : 1,85:1 Modalità frame rate : Costante Frame rate : 23,976 (24000/1001) fps Spazio colore : YUV Croma subsampling : 4:2:0 Profondità bit : 8 bit Tipo scansione : Progressivo Bit/(pixel*frame) : 0.188 Dimensione della traccia : 1,10 GiB (57%) Compressore : x264 core 130 r2273 Impostazioni compressione : cabac=1 / ref=2 / deblock=1:0:0 / analyse=0x1:0x131 / me=hex / subme=7 / psy=1 / psy_rd=1.00:0.00 / mixed_ref=0 / me_range=16 / chroma_me=1 / trellis=1 / 8x8dct=0 / cqm=0 / deadzone=21,11 / fast_pskip=1 / chroma_qp_offset=-2 / threads=12 / lookahead_threads=2 / sliced_threads=0 / nr=0 / decimate=1 / interlaced=0 / bluray_compat=0 / constrained_intra=0 / bframes=3 / b_pyramid=0 / b_adapt=1 / b_bias=0 / direct=3 / weightb=1 / open_gop=0 / weightp=2 / keyint=230 / keyint_min=23 / scenecut=40 / intra_refresh=0 / rc_lookahead=40 / rc=2pass / mbtree=1 / bitrate=1275 / ratetol=1.0 / qcomp=0.60 / qpmin=10 / qpmax=69 / qpstep=4 / cplxblur=20.0 / qblur=0.5 / vbv_maxrate=24000 / vbv_bufsize=24000 / nal_hrd=none / ip_ratio=1.40 / aq=1:1.00 Lingua : Inglese Default : Si Forced : No Statistics Tags Issue : mkvmerge v8.7.0 ('All of the above') 64bit 2016-12-31 15:41:45 / Lavf54.63.100 2016-12-31 15:41:45 / UTC 2016-12-31 15:41:45 FromStats_BitRate : 9600885 FromStats_Duration : 02:06:55.608000000 FromStats_FrameCount : 182592 FromStats_StreamSize : 9139572672 Audio #1 ID : 2 Formato : AC-3 Formato/Informazioni : Audio Coding 3 Estensione modo : CM (complete main) Impostazioni formato, Endianness : Big ID codec : A_AC3 Durata : 2o 6min Modalità bitrate : Costante Bitrate : 448 Kbps Canali : 6 canali Posizione canali : Front: L C R, Side: L R, LFE Frequenza campionamento : 48,0 KHz Frame rate : 31,250 fps (1536 spf) Profondità bit : 16 bit Modo compressione : Con perdita Ritardo video : -5ms Dimensione della traccia : 407MiB (21%) Titolo : AC3 ITA Lingua : Italiano Default : No Forced : No Statistics Tags Issue : mkvmerge v8.7.0 ('All of the above') 64bit 2016-12-31 15:41:45 / Lavf54.63.100 2016-12-31 15:41:45 / UTC 2016-12-31 15:41:45 FromStats_BitRate : 640000 FromStats_Duration : 02:06:55.680000000 FromStats_FrameCount : 237990 FromStats_StreamSize : 609254400 Audio #2 ID : 3 Formato : AC-3 Formato/Informazioni : Audio Coding 3 Estensione modo : CM (complete main) Impostazioni formato, Endianness : Big ID codec : A_AC3 Durata : 2o 6min Modalità bitrate : Costante Bitrate : 448 Kbps Canali : 6 canali Posizione canali : Front: L C R, Side: L R, LFE Frequenza campionamento : 48,0 KHz Frame rate : 31,250 fps (1536 spf) Profondità bit : 16 bit Modo compressione : Con perdita Ritardo video : -5ms Dimensione della traccia : 407MiB (21%) Titolo : AC3 ENG Lingua : Inglese Default : No Forced : No Statistics Tags Issue : mkvmerge v8.7.0 ('All of the above') 64bit 2016-12-31 15:41:45 / Lavf54.63.100 2016-12-31 15:41:45 / UTC 2016-12-31 15:41:45 FromStats_BitRate : 640000 FromStats_Duration : 02:06:55.680000000 FromStats_FrameCount : 237990 FromStats_StreamSize : 609254400 Testo #1 ID : 4 Formato : UTF-8 ID codec : S_TEXT/UTF8 ID codec/Informazioni : UTF-8 Plain Text Titolo : FORCED Lingua : Italiano Default : Si Forced : No Statistics Tags Issue : mkvmerge v8.7.0 ('All of the above') 64bit 2016-12-31 15:41:45 / Lavf54.63.100 2016-12-31 15:41:45 / UTC 2016-12-31 15:41:45 FromStats_BitRate : 0 FromStats_Duration : 01:56:45.582000000 FromStats_FrameCount : 19 FromStats_StreamSize : 585 Testo #2 ID : 5 Formato : UTF-8 ID codec : S_TEXT/UTF8 ID codec/Informazioni : UTF-8 Plain Text Titolo : REGULAR iTA Lingua : Italiano Default : No Forced : No Statistics Tags Issue : mkvmerge v8.7.0 ('All of the above') 64bit 2016-12-31 15:41:45 / Lavf54.63.100 2016-12-31 15:41:45 / UTC 2016-12-31 15:41:45 FromStats_BitRate : 44 FromStats_Duration : 02:05:47.789000000 FromStats_FrameCount : 1410 FromStats_StreamSize : 42383 Testo #3 ID : 6 Formato : UTF-8 ID codec : S_TEXT/UTF8 ID codec/Informazioni : UTF-8 Plain Text Titolo : NON UDENTI ENG Lingua : Inglese Default : No Forced : No Statistics Tags Issue : mkvmerge v8.7.0 ('All of the above') 64bit 2016-12-31 15:41:45 / Lavf54.63.100 2016-12-31 15:41:45 / UTC 2016-12-31 15:41:45 FromStats_BitRate : 55 FromStats_Duration : 02:01:49.009000000 FromStats_FrameCount : 1805 FromStats_StreamSize : 50471 Menu 00:00:00.000 : :00:00:00.000 00:03:40.804 : :00:03:40.804 00:08:38.017 : :00:08:38.017 00:13:06.828 : :00:13:06.828 00:15:26.551 : :00:15:26.551 00:19:47.478 : :00:19:47.478 00:23:23.652 : :00:23:23.652 00:27:47.040 : :00:27:47.040 00:31:06.448 : :00:31:06.448 00:34:36.783 : :00:34:36.783 00:39:34.998 : :00:39:34.998 00:42:42.810 : :00:42:42.810 00:46:05.638 : :00:46:05.638 00:48:36.497 : :00:48:36.497 00:54:16.462 : :00:54:16.462 00:57:21.480 : :00:57:21.480 01:02:03.261 : :01:02:03.261 01:08:20.847 : :01:08:20.847 01:14:29.006 : :01:14:29.006 01:18:54.063 : :01:18:54.063 01:24:15.300 : :01:24:15.300 01:28:42.442 : :01:28:42.442 01:33:11.753 : :01:33:11.753 01:36:29.033 : :01:36:29.033 01:40:43.788 : :01:40:43.788 01:46:09.238 : :01:46:09.238 01:53:35.308 : :01:53:35.308 02:00:34.394 : :02:00:34.394 [/spoiler] [/color][/b][/center]

NCIS S13E20 FRENCH HDTV

Language: | Size: 333.37 MB | Seed: 1488 | Leech: 116

Description:

NCIS S13E20 FRENCH HDTV

Operation Avalanche - Operazione Avalanche (2016).H264.Italian.English.Ac3.5.1.sub.ita.iCV-MIRCrew

Language: | Size: 1.43 GB | Seed: 332 | Leech: 116

Description:

Operation Avalanche - Operazione Avalanche (2016).H264.Italian.English.Ac3.5.1.sub.ita.iCV-MIRCrew [center] [color=red][b][img]http://s23.postimg.org/b9yhws27f/0sc_Del1.png[/img] [u]NO FOUND ONLY ORIGINAL RELEASE[/u] [img]http://i.imgur.com/GDNQx1Z.png[/img] My release is always in double track audio italian and Original audio for select it use VLC or dvd player home not use wmp Operazione Avalanche - Operation Avalanche (2016) [img]https://extraimage.net/images/2017/02/05/d4ba256bdb5690a233cd415b55ab1ed5.png[/img] [URL=http://www.imdb.com/title/tt3776826/][IMG]http://www.userlogos.org/files/logos/Sucka/imdb_new.png[/IMG][/URL] [img]http://i.imgur.com/fGu1rKv.png[/img] Genere: Thriller Durata: 94 minuti Regista: Matthew Johnson Uscita ORIG: 16 settembre 2016 (USA) [img]http://i.imgur.com/W7kBqiE.png[/img] Matt Johnson, Owen Williams, Josh Boles [img]http://i.imgur.com/bFK3ggF.png[/img] Nel 1967 quattro agenti sotto copertura della Cia vengono inviati alla Nasa per essere assunti dalla troupe di un documentario. Quello che scopriranno porterà a una delle più grandi cospirazioni della storia americana. [img]http://i.imgur.com/48xHWWH.png[/img] In 1967, four undercover CIA agents were sent to NASA posing as a documentary film crew. What they discovered led to one of the biggest conspiracies in American history. [img]http://i.imgur.com/K8bfNTy.png[/img] [url=https://extraimage.net/image/23zS][img]https://extraimage.net/images/2017/02/05/f8fc3d62fa4445929a926ee71fc3dc0f.th.png[/img][/url] [url=https://extraimage.net/image/23zO][img]https://extraimage.net/images/2017/02/05/75d7816e7abd255e9001ef9994cd1cdb.th.png[/img][/url] [url=https://extraimage.net/image/23zq][img]https://extraimage.net/images/2017/02/05/2b60479e75ef64ba4583ead9b72ebcad.th.png[/img][/url] [img]http://i.imgur.com/aVrMohH.png[/img] [spoiler] General Unique ID : 326664139747048100552270217595711027524 (0xF5C1398FBEDF152A488C52EC8A8A7944) Complete name : Operazione Avalanche (2016).H264.ita.eng.sub.ita.iCV-MIRCrew.mkv Format : Matroska Format version : Version 2 File size : 1.43 GiB Duration : 1h 34mn Overall bit rate : 2 181 Kbps Movie name : VISIT www.icv-crew.org Encoded date : UTC 2017-02-02 22:52:31 Writing application : Lavf54.63.100 Writing library : Lavf54.63.100 COPYRIGHT : robbyrs Video ID : 1 Format : AVC Format/Info : Advanced Video Codec Format profile : [email protected] Format settings, CABAC : Yes Format settings, ReFrames : 2 frames Codec ID : V_MPEG4/ISO/AVC Duration : 1h 34mn Bit rate : 1 280 Kbps Width : 720 pixels Height : 384 pixels Display aspect ratio : 1.904 Original display aspect ratio : 1.905 Frame rate mode : Variable Frame rate : 23.976 fps Color space : YUV Chroma subsampling : 4:2:0 Bit depth : 8 bits Scan type : Progressive Bits/(Pixel*Frame) : 0.193 Stream size : 836 MiB (57%) Writing library : x264 core 130 r2273 Encoding settings : cabac=1 / ref=2 / deblock=1:0:0 / analyse=0x1:0x131 / me=hex / subme=7 / psy=1 / psy_rd=1.00:0.00 / mixed_ref=0 / me_range=16 / chroma_me=1 / trellis=1 / 8x8dct=0 / cqm=0 / deadzone=21,11 / fast_pskip=1 / chroma_qp_offset=-2 / threads=12 / lookahead_threads=2 / sliced_threads=0 / nr=0 / decimate=1 / interlaced=0 / bluray_compat=0 / constrained_intra=0 / bframes=3 / b_pyramid=0 / b_adapt=1 / b_bias=0 / direct=3 / weightb=1 / open_gop=0 / weightp=2 / keyint=230 / keyint_min=23 / scenecut=40 / intra_refresh=0 / rc_lookahead=40 / rc=2pass / mbtree=1 / bitrate=1280 / ratetol=1.0 / qcomp=0.60 / qpmin=10 / qpmax=69 / qpstep=4 / cplxblur=20.0 / qblur=0.5 / vbv_maxrate=24000 / vbv_bufsize=24000 / nal_hrd=none / ip_ratio=1.40 / aq=1:1.00 Language : Italian Default : Yes Forced : No DURATION : 01:34:04.931000000 NUMBER_OF_FRAMES : 135343 NUMBER_OF_BYTES : 7081580233 _STATISTICS_WRITING_APP : mkvmerge v8.7.0 ('All of the above') 64bit _STATISTICS_WRITING_DATE_UTC : 2017-02-02 08:38:24 _STATISTICS_TAGS : BPS DURATION NUMBER_OF_FRAMES NUMBER_OF_BYTES Audio #1 ID : 2 Format : AC-3 Format/Info : Audio Coding 3 Mode extension : CM (complete main) Codec ID : A_AC3 Duration : 1h 34mn Bit rate mode : Constant Bit rate : 448 Kbps Channel(s) : 6 channels Channel positions : Front: L C R, Side: L R, LFE Sampling rate : 48.0 KHz Bit depth : 16 bits Compression mode : Lossy Delay relative to video : 1mn 5s Stream size : 301 MiB (21%) Title : AC3 ITA Language : Italian Default : Yes Forced : No DURATION : 01:34:04.960000000 NUMBER_OF_FRAMES : 176405 NUMBER_OF_BYTES : 316117760 _STATISTICS_WRITING_APP : mkvmerge v8.7.0 ('All of the above') 64bit _STATISTICS_WRITING_DATE_UTC : 2017-02-02 08:38:24 _STATISTICS_TAGS : BPS DURATION NUMBER_OF_FRAMES NUMBER_OF_BYTES Audio #2 ID : 3 Format : AC-3 Format/Info : Audio Coding 3 Mode extension : CM (complete main) Codec ID : A_AC3 Duration : 1h 34mn Bit rate mode : Constant Bit rate : 448 Kbps Channel(s) : 6 channels Channel positions : Front: L C R, Side: L R, LFE Sampling rate : 48.0 KHz Bit depth : 16 bits Compression mode : Lossy Delay relative to video : 1mn 5s Stream size : 301 MiB (21%) Title : AC3 ENG Language : English Default : No Forced : No DURATION : 01:34:04.960000000 NUMBER_OF_FRAMES : 176405 NUMBER_OF_BYTES : 451596800 _STATISTICS_WRITING_APP : mkvmerge v8.7.0 ('All of the above') 64bit _STATISTICS_WRITING_DATE_UTC : 2017-02-02 08:38:24 _STATISTICS_TAGS : BPS DURATION NUMBER_OF_FRAMES NUMBER_OF_BYTES Text #1 ID : 4 Format : UTF-8 Codec ID : S_TEXT/UTF8 Codec ID/Info : UTF-8 Plain Text Title : FORCED Language : Italian Default : Yes Forced : No DURATION : 01:32:38.478000000 NUMBER_OF_FRAMES : 69 NUMBER_OF_BYTES : 2947 _STATISTICS_WRITING_APP : mkvmerge v8.7.0 ('All of the above') 64bit _STATISTICS_WRITING_DATE_UTC : 2017-02-02 08:38:24 _STATISTICS_TAGS : BPS DURATION NUMBER_OF_FRAMES NUMBER_OF_BYTES Text #2 ID : 5 Format : UTF-8 Codec ID : S_TEXT/UTF8 Codec ID/Info : UTF-8 Plain Text Title : REGULAR Language : Italian Default : No Forced : No DURATION : 01:32:38.478000000 NUMBER_OF_FRAMES : 1124 NUMBER_OF_BYTES : 42337 _STATISTICS_WRITING_APP : mkvmerge v8.7.0 ('All of the above') 64bit _STATISTICS_WRITING_DATE_UTC : 2017-02-02 08:38:24 _STATISTICS_TAGS : BPS DURATION NUMBER_OF_FRAMES NUMBER_OF_BYTES Menu 00:00:00.000 : :00:00:00.000 00:07:05.342 : :00:07:05.342 00:14:28.201 : :00:14:28.201 00:20:13.838 : :00:20:13.838 00:29:27.099 : :00:29:27.099 00:39:02.590 : :00:39:02.590 00:50:56.804 : :00:50:56.804 00:59:52.756 : :00:59:52.756 01:08:53.129 : :01:08:53.129 01:16:19.950 : :01:16:19.950 01:23:27.706 : :01:23:27.706 [/spoiler] [/color][/b][/center]

Morgan.2016.iTALiAN.AC3.BRRip.XviD-T4P3

Language: | Size: 1.38 GB | Seed: 59 | Leech: 115

Description:

Morgan Titolo originale: Morgan Conosciuto anche come: Nazione: U.S.A. Anno: 2016 Genere: Fantascienza, Horror Durata: 92' Regia: Luke Scott Cast: Kate Mara, Paul Giamatti, Anya Taylor-Joy, Rose Leslie, Jennifer Jason Leigh, Michael Yare, Toby Jones, Chris Sullivan, Boyd Holbrook, Vinette Robinson, Charlotte Asprey, Sam Spruell, Jonathan Aris Produzione: Scott Free Productions Distribuzione: 20th Century Fox Data di uscita: 09 Novembre 2016 (cinema) Trama: Una problem solver viene inviata in una remota località top-secret dove avrà il compito di investigare e valutare gli effetti di un terribile incidente. Scoprirà che tutto è stato causato da un 'umano' in apparenza innocuo ma che in realtà nasconde un mistero carico di infinite potenzialità e incalcolabili rischi.

Alla.Ricerca.Di.Dory.2016.iTALiAN.AC3.BRRip.XviD-T4P3

Language: | Size: 1.34 GB | Seed: 321 | Leech: 113

Description:

Alla ricerca di Dory Titolo originale: Finding Dory Nazione: U.S.A. Anno: 2016 Genere: Animazione Durata: 103' Regia: Andrew Stanton, Angus MacLane Cast (voci originali): Idris Elba, Ellen DeGeneres, Diane Keaton, Dominic West, Willem Dafoe, Albert Brooks, Kaitlin Olson, Ed O'Neill, Ty Burrell, Eugene Levy, Vicki Lewis Cast (voci italiane): Carla Signoris, Luca Zingaretti, Stefano Masciarelli, Massimiliano Rosolino, Licia Colò, Baby K Produzione: Pixar Animation Studios, Walt Disney Pictures Distribuzione: Walt Disney Studios Motion Pictures Italia Data di uscita: 15 Settembre 2016 (cinema) Trama: Dory vive felicemente sulla barriera corallina insieme a Nemo e Marlin: è passato un anno dall’avventura che cambiò le loro vite. Quando si ricorda improvvisamente di avere una famiglia che forse la sta cercando, Dory parte insieme a ai suoi amici per una straordinaria avventura attraverso l’oceano che la condurrà fino al prestigioso Parco Oceanografico, in California: un acquario che è anche un centro di riabilitazione. Per riuscire a trovare sua madre e suo padre, Dory chiederà aiuto ai tre abitanti più stravaganti del PO: Hank, un irascibile polpo che tenta continuamente la fuga, Bailey, un beluga convinto di avere un sonar difettoso, e Destiny, uno squalo balena miope. Esplorando con destrezza le complesse regole del Parco Oceanografico, Dory e i suoi compagni di avventura scopriranno l’amicizia, il senso della famiglia e la magia che si cela nei loro difetti.

Blair Witch (2016).H264Italian.English.Ac3.5.1.sub.ita.iCV-MIRCrew

Language: | Size: 1.27 GB | Seed: 120 | Leech: 113

Description:

Blair Witch (2016).H264Italian.English.Ac3.5.1.sub.ita.iCV-MIRCrew [center] [color=red][b][img]https://s23.postimg.org/b9yhws27f/0sc_Del1.png[/img] [u]NO FOUND ONLY ORIGINAL RELEASE[/u] [img]http://i.imgur.com/GDNQx1Z.png[/img] My release is always in double track audio italian and Original audio for select it use VLC or dvd player home not use wmp Blair Witch (2016) [img]http://extraimage.net/images/2017/01/09/eb82ad20f029766ab53267f5a358b643.png[/img] [URL=http://www.imdb.com/title/tt1540011/][IMG]http://www.userlogos.org/files/logos/Sucka/imdb_new.png[/IMG][/URL] [img]http://i.imgur.com/fGu1rKv.png[/img] Titolo originale: Blair Witch Conosciuto anche come: The Blair Witch Project 3, The Woods Nazione: U.S.A. Anno: 2016 Genere: Horror, Thriller Durata: 90' Regia: Adam Wingard Produzione: Lionsgate Distribuzione: Eagle Pictures [img]http://i.imgur.com/W7kBqiE.png[/img] Corbin Reid, Wes Robinson, Valorie Curry, James Allen McCune, Callie Hernandez, Brandon Scott [img]http://i.imgur.com/bFK3ggF.png[/img] Un gruppo di studenti universitari si avventura nella foresta di Black Hills, nel Maryland, per cercare di svelare il mistero legato alla sparizione della sorella di James Donahue, Heather, avvenuta 17 anni prima e che in molti pensano sia collegata alla leggenda della Strega di Blair. Il gruppo è inizialmente ottimista, soprattutto quando alcuni abitanti del posto si offrono di guidarli nella foresta [img]http://i.imgur.com/48xHWWH.png[/img] After discovering a video showing what he believes to be his vanished sister Heather, James and a group of friends head to the forest believed to be inhabited by the Blair Witch. [img]http://i.imgur.com/K8bfNTy.png[/img] [url=https://extraimage.net/image/2qKo][img]http://extraimage.net/images/2017/01/09/89c09cc83264ad0db1839f6550da6dd7.th.png[/img][/url] [url=https://extraimage.net/image/2qKk][img]http://extraimage.net/images/2017/01/09/b6ae7c396aa774e8e10dbceeb5215640.th.png[/img][/url] [url=https://extraimage.net/image/2qKt][img]http://extraimage.net/images/2017/01/09/4384aa8fe9f9e292ee24cd2e41392669.th.png[/img][/url] [img]http://i.imgur.com/cWb6Z.gif[/img] [img]http://i.imgur.com/aVrMohH.png[/img] [spoiler] General Unique ID : 172858149132620044361696403429803622825 (0x820B44BFFE4F41FC4B788718E95301A9) Complete name : Blair Witch (2016).H264.ita.eng.sub.ita.eng.iCV-MIRCrew.mkv Format : Matroska Format version : Version 2 File size : 1.27 GiB Duration : 1h 29mn Overall bit rate : 2 039 Kbps Encoded date : UTC 2017-01-07T10:09:52Z Writing application : HandBrake 0.10.5 2016021100 Writing library : Lavf55.12.0 Video ID : 1 Format : AVC Format/Info : Advanced Video Codec Format profile : [email protected] Format settings, CABAC : Yes Format settings, ReFrames : 4 frames Codec ID : V_MPEG4/ISO/AVC Duration : 1h 29mn Bit rate : 1 280 Kbps Width : 720 pixels Height : 390 pixels Display aspect ratio : 16:9 Frame rate mode : Variable Frame rate : 24.000 fps Color space : YUV Chroma subsampling : 4:2:0 Bit depth : 8 bits Scan type : Progressive Bits/(Pixel*Frame) : 0.190 Stream size : 784 MiB (60%) Writing library : x264 core 142 r2479 dd79a61 Encoding settings : cabac=1 / ref=1 / deblock=1:0:0 / analyse=0x1:0x111 / me=hex / subme=2 / psy=1 / psy_rd=1.00:0.00 / mixed_ref=0 / me_range=16 / chroma_me=1 / trellis=0 / 8x8dct=0 / cqm=0 / deadzone=21,11 / fast_pskip=1 / chroma_qp_offset=0 / threads=12 / lookahead_threads=3 / sliced_threads=0 / nr=0 / decimate=1 / interlaced=0 / bluray_compat=0 / constrained_intra=0 / bframes=3 / b_pyramid=2 / b_adapt=1 / b_bias=0 / direct=1 / weightb=1 / open_gop=0 / weightp=1 / keyint=240 / keyint_min=24 / scenecut=40 / intra_refresh=0 / rc_lookahead=10 / rc=abr / mbtree=1 / bitrate=1280 / ratetol=1.0 / qcomp=0.60 / qpmin=0 / qpmax=69 / qpstep=4 / vbv_maxrate=20000 / vbv_bufsize=25000 / nal_hrd=none / filler=0 / ip_ratio=1.40 / aq=1:1.00 Default : Yes Forced : No Color primaries : BT.709-5, BT.1361, IEC 61966-2-4, SMPTE RP177 Transfer characteristics : BT.709-5, BT.1361 Matrix coefficients : BT.709-5, BT.1361, IEC 61966-2-4 709, SMPTE RP177 Audio #1 ID : 2 Format : AC-3 Format/Info : Audio Coding 3 Mode extension : CM (complete main) Codec ID : A_AC3 Duration : 1h 29mn Bit rate mode : Constant Bit rate : 384 Kbps Channel(s) : 6 channels Channel positions : Front: L C R, Side: L R, LFE Sampling rate : 48.0 KHz Bit depth : 16 bits Compression mode : Lossy Delay relative to video : 1mn 5s Stream size : 245 MiB (19%) Language : Italian Default : Yes Forced : No Audio #2 ID : 3 Format : AC-3 Format/Info : Audio Coding 3 Mode extension : CM (complete main) Codec ID : A_AC3 Duration : 1h 29mn Bit rate mode : Constant Bit rate : 384 Kbps Channel(s) : 6 channels Channel positions : Front: L C R, Side: L R, LFE Sampling rate : 48.0 KHz Bit depth : 16 bits Compression mode : Lossy Delay relative to video : 1mn 5s Stream size : 245 MiB (19%) Language : English Default : No Forced : No Text #1 ID : 4 Format : ASS Codec ID : S_TEXT/ASS Codec ID/Info : Advanced Sub Station Alpha Compression mode : Lossless Language : Italian Default : No Forced : No Text #2 ID : 5 Format : ASS Codec ID : S_TEXT/ASS Codec ID/Info : Advanced Sub Station Alpha Compression mode : Lossless Language : Italian Default : No Forced : No Menu 00:00:00.000 : :00:00:00.000 00:07:05.458 : :00:07:05.342 00:14:28.290 : :00:14:28.201 00:20:13.957 : :00:20:13.838 00:29:27.206 : :00:29:27.099 00:39:02.706 : :00:39:02.590 00:50:56.913 : :00:50:56.804 00:59:52.871 : :00:59:52.756 01:08:53.246 : :01:08:53.129 01:16:20.037 : :01:16:19.950 01:23:27.828 : :01:23:27.706 [/spoiler] [/color][/b][/center]

Daredevil S02E11 FRENCH HDTV

Language: | Size: 463.51 MB | Seed: 1438 | Leech: 112

Description:

Aveugle depuis l’enfance, mais doté de sens incroyablement développés, Matt combat l’injustice le jour en tant qu’avocat et la nuit en surveillant les rue de Hell’s Kitchen, à New York, dans le costume du super-héros Daredevil.Adaptation du comic book Marvel homonyme.

Narcos S01E05 FRENCH HDTV

Language: | Size: 352.38 MB | Seed: 1542 | Leech: 112

Description:

Loin d’un simple biopic de Pablo Escobar, Narcos retrace la lutte acharnée des États-Unis et de la Colombie contre le cartel de la drogue de Medellín, l’organisation la plus lucrative et impitoyable de l’histoire criminelle moderne. En multipliant les points de vue — policier, politique, judiciaire et personnel — la série dépeint l’essor du trafic de cocaïne et le bras de fer sanglant engagé avec les narcotrafiquants qui contrôlent le marché avec violence et ingéniosité.Biopic de Pablo Escobar.

Game of Thrones S05E08 FRENCH HDTV

Language: | Size: 555.16 MB | Seed: 1279 | Leech: 111

Description:

Il y a très longtemps, à une époque oubliée, une force a détruit l'équilibre des saisons. Dans un pays où l'été peut durer plusieurs années et l'hiver toute une vie, des forces sinistres et surnaturelles se pressent aux portes du Royaume des Sept Couronnes. La confrérie de la Garde de Nuit, protégeant le Royaume de toute créature pouvant provenir d'au-delà du Mur protecteur, n'a plus les ressources nécessaires pour assurer la sécurité de tous. Après un été de dix années, un hiver rigoureux s'abat sur le Royaume avec la promesse d'un avenir des plus sombres. Pendant ce temps, complots et rivalités se jouent sur le continent pour s'emparer du Trône de Fer, le symbole du pouvoir absolu.

7.Minuti.2016.iTALiAN.AC3.DVDRip.XviD-T4P3

Language: | Size: 1.37 GB | Seed: 133 | Leech: 111

Description:

7 minuti Titolo originale: 7 minuti Nazione: Italia Anno: 2016 Genere: Drammatico Durata: 88' Regia: Michele Placido Cast: Ambra Angiolini, Fiorella Mannoia, Maria Nazionale, Ottavia Piccolo, Cristiana Capotondi, Violante Placido, Clemence Poesy, Sabine Timoteo, Ottavia Piccolo, Anne Consigny, Michele Placido Produzione: GoldenArt Production, Rai Cinema Distribuzione: Koch Media Data di uscita: Roma 2016 - Selezione Ufficiale 03 Novembre 2016 (cinema) Trama: I proprietari di un'azienda tessile italiana cedono la maggioranza dell'azienda ad una multinazionale. Sembra che non siano previsti grossi stravolgimenti alle condizioni lavorative delle impiegate, ma una piccola clausola nell'accordo costringerà il Consiglio di fabbrica ad un dibattito che poco a poco porterà ciascuna delle 11 delegate a mettere in discussione la propria vita. 11 personalità e storie di vita differenti per una riflessione sul lavoro, la dignità, la paura e la possibilità di migliorare il futuro.

Ghostbusters.2016.iTALiAN.AC3.EXTENDED.BRRip.XviD-T4P3

Language: | Size: 2.26 GB | Seed: 151 | Leech: 110

Description:

Ghostbusters Titolo originale: Ghostbusters Nazione: U.S.A. Anno: 2016 Genere: Commedia, Azione, Fantascienza Durata: 108' Regia: Paul Feig Cast: Kristen Wiig, Melissa McCarthy, Chris Hemsworth, Andy Garcìa, Kate McKinnon, Neil Casey, Cecily Strong, Leslie Jones Produzione: Columbia Pictures Distribuzione: Warner Bros Italia Data di uscita: 28 Luglio 2016 (cinema) Trama: Abby ed Erin sono una coppia di scrittrici semi sconosciute che decidono di pubblicare un libro sui fantasmi. La loro tesi consiste nell’affermare che questi sono assolutamente reali. Tempo dopo Erin ottiene un prestigioso incarico come docente della Columbia University. Quando il libro sugli spettri, ormai dimenticato, ricompare, diventerà lo zimbello della facoltà e sarà costretta a lasciare il lavoro. La sua credibilità è persa ed Erin decide a quel punto di riunirsi ad Abby aprendo una ditta di acchiappafantasmi. Scelta che si rivela vincente: Manhattan è invasa da una nuova ondata di spettri e non ci sarà altro da fare per il team che dargli la caccia.

Don Camillo (1952) [DVDrip-H264-Ita Ac3-Softsub Ita Eng] Vers. restaurata

Language: | Size: 2.28 GB | Seed: 166 | Leech: 110

Description:

.: Trama :. Un piccolo paese (Brescello) della Bassa emiliana, giugno 1946. Don Camillo, parroco del paese, è un bravo presbitero che non incarna certo lo stereotipo del mite pretino perbenista di provincia: egli è infatti impulsivo ed esuberante, nonché dotato di una grande forza. Don Camillo rimane molto irritato e deluso, come la signora Cristina, la vecchia maestra del paese, e l'avvocato Spiletti, l'unico consigliere dell'opposizione eletto, per la vittoria alle elezioni amministrative locali di Giuseppe Bottazzi, detto Peppone, capo della sezione locale del PCI, nonché vecchio amico di don Camillo, sebbene i litigi tra i due siano all'ordine del giorno... .: Scheda :. Titolo originale: Don Camillo Paese di produzione: Italia, Francia Anno: 18 Marzo 1952 Durata: 107 min Colore: B/N Audio: sonoro Rapporto: 4:3 Genere: Commedia Produzione: Giuseppe Amato, Rizzoli Editore, Francinex (co-produzione) Regia: Julien Duvivier Soggetto: Giovannino Guareschi Sceneggiatura: Julien Duvivier, René Barjavel .: Screenshot :. .: Dati tecnici del file :. Info sul file Nome: Don Camillo.mkv Data: 4/03/2017 19:17:19 Dimensione: 2,440,864,471 bytes (2327.79 MB) Info generiche Durata: 01:41:48 (6108.2 s) Tipo di contenitore: matroska Data creazione: 4/03/2017 16:09:31 UTC Streams totali: 4 Tipo stream n. 1: video (V_MPEG4/ISO/AVC) Tipo stream n. 2: audio (A_AC3) Tipo stream n. 3: subtitle (S_VOBSUB) Tipo stream n. 4: subtitle (S_VOBSUB) Audio streams: 1 Muxing Application: Lavf57.57.100 Writing Application: Lavf57.57.100 Dati rilevanti Risoluzione: 720 x 540 Larghezza: multipla di 16 Altezza: multipla di 4 Traccia video Codec ID: V_MPEG4/ISO/AVC Risoluzione: 720 x 540 Frame aspect ratio: 4:3 = 1.333333 Pixel aspect ratio: 1:1 = 1 Display aspect ratio: 4:3 = 1.333333 Framerate: 25 fps Traccia audio Codec ID: A_AC3 Canali (contenitore): 1 Frequenza: 48000 Hz Mode: mono Info sulla codifica H.264 User data: x264 User data: core 148 r2721 User data: H.264/MPEG-4 AVC codec User data: Copyleft 2003-2016 User data: http://www.videolan.org/x264.html User data: cabac=1 User data: ref=2 User data: deblock=1:0:0 User data: analyse=0x1:0x131 User data: me=hex User data: subme=7 User data: psy=1 User data: psy_rd=1.00:0.00 User data: mixed_ref=0 User data: me_range=16 User data: chroma_me=1 User data: trellis=1 User data: 8x8dct=0 User data: cqm=0 User data: deadzone=21,11 User data: fast_pskip=1 User data: chroma_qp_offset=-2 User data: threads=12 User data: lookahead_threads=2 User data: sliced_threads=0 User data: nr=0 User data: decimate=1 User data: interlaced=0 User data: bluray_compat=0 User data: constrained_intra=0 User data: bframes=3 User data: b_pyramid=0 User data: b_adapt=1 User data: b_bias=0 User data: direct=0 User data: weightb=1 User data: open_gop=0 User data: weightp=2 User data: keyint=250 User data: keyint_min=25 User data: scenecut=40 User data: intra_refresh=0 User data: rc_lookahead=40 User data: rc=2pass User data: mbtree=1 User data: bitrate=3000 User data: ratetol=1.0 User data: qcomp=0.60 User data: qpmin=10 User data: qpmax=69 User data: qpstep=4 User data: cplxblur=20.0 User data: qblur=0.5 User data: vbv_maxrate=3500 User data: vbv_bufsize=24000 User data: nal_hrd=none User data: filler=0 User data: ip_ratio=1.40 User data: aq=3:1.00 SPS id: 0 Profile: [email protected] Num ref frames: 2 Aspect ratio: Square pixels Chroma format idc: YUV 4:2:0 PPS id: 0 (SPS: 0) Codifica entropica: CABAC Weighted prediction: P slices - explicit weighted prediction Weighted bipred idc: B slices - implicit weighted prediction 8x8dct: No Profile compliancy Profilo da testare: MTK PAL 6000 Risoluzione: Ok Framerate: Ok Capitoli Capitolo 01: 00:00:00,000 - 00:01:52,320 Capitolo 02: 00:01:52,320 - 00:05:30,720 Capitolo 03: 00:05:30,720 - 00:10:06,320 Capitolo 04: 00:10:06,320 - 00:15:51,600 Capitolo 05: 00:15:51,600 - 00:20:27,200 Capitolo 06: 00:20:27,200 - 00:23:33,880 Capitolo 07: 00:23:33,880 - 00:29:46,720 Capitolo 08: 00:29:46,720 - 00:34:19,200 Capitolo 09: 00:34:19,200 - 00:35:30,440 Capitolo 10: 00:35:30,440 - 00:37:39,400 Capitolo 11: 00:37:39,400 - 00:40:35,160 Capitolo 12: 00:40:35,160 - 00:44:54,120 Capitolo 13: 00:44:54,120 - 00:49:32,840 Capitolo 14: 00:49:32,840 - 00:50:37,320 Capitolo 15: 00:50:37,320 - 00:53:51,800 Capitolo 16: 00:53:51,800 - 00:59:49,040 Capitolo 17: 00:59:49,040 - 01:02:57,280 Capitolo 18: 01:02:57,280 - 01:10:20,840 Capitolo 19: 01:10:20,840 - 01:11:38,320 Capitolo 20: 01:11:38,320 - 01:15:15,680 Capitolo 21: 01:15:15,680 - 01:17:47,000 Capitolo 22: 01:17:47,000 - 01:22:51,720 Capitolo 23: 01:22:51,720 - 01:30:22,040 Capitolo 24: 01:30:22,040 - 01:33:55,760 Capitolo 25: 01:33:55,760 - 01:36:32,280 Capitolo 26: 01:36:32,280 - 01:38:37,600 Capitolo 27: 01:38:37,600 - 01:41:48,200 Rapporto generato da AVInaptic (18-11-2007) in data 16 mar 2017, h 14:55:06

Pro Evolution Soccer 2016 [MULTi16][PROPHET] - PC ITA ENG FR ESP GER

Language: | Size: 10.31 GB | Seed: 934 | Leech: 109

Description:

PES 2016 (sottotitolato Pro Evolution Soccer) è un videogioco di calcio, sviluppato da Konami e fa parte della serie di PES. Si tratta del 15° videogioco della serie che celebra il 20º anniversario dalla prima edizione del videogioco di Konami. La cover star universale di questa edizione è il calciatore Neymar, affiancato in Europa da Álvaro Morata. REQUISITOS DEL SISTEMA: MINIMUM: OS: Windows 10 / 8.1 / 8 / 7 SP1 / Vista SP2 Processor: Intel Core 2 Duo @ 1.8 GHz (AMD Athlon Ⅱ X2 240 or equivalent processor) Memory: 1 GB RAM Graphics: nVidia GeForce 8800 / ATI Radeon X1600 / Intel HD Graphics 3000 or better DirectX: Version 9.0c Hard Drive: 9 GB available space Sound Card: DirectX 9.0c Compatible sound card RECOMMENDED: OS: Windows 10 / 8.1 / 8 / 7 SP1 / Vista SP2 Processor: Intel Core i3 530 (AMD Phenom Ⅱ X4 925 or equivalent processor) Memory: 2 GB RAM Graphics: nVidia GeForce GTX 260 / ATI Radeon HD 4850 / Intel HD Graphics 4000 or better DirectX: Version 9.0c Hard Drive: 9 GB available space Sound Card: DirectX 9.0c Compatible sound card

Count Basie and His Orchestra - On The Road [Flac][TntVillage]

Language: | Size: 261.36 MB | Seed: 285 | Leech: 109

Description:

[img]http://i.imgur.com/jKeOrvl.jpg[/img] Artist...............: Count Basie and His Orchestra Album................: On The Road Genre................: Jazz Source...............: CD Year.................: 1979 Ripper...............: EAC (Secure mode) / LAME 3.92 & Asus CD-S520 Codec................: Free Lossless Audio Codec (FLAC) Version..............: reference libFLAC 1.2.1 20070917 Quality..............: Lossless, (avg. compression: 57 %) Channels.............: Stereo / 44100 HZ / 16 Bit Tags.................: VorbisComment Information..........: TntVillage Ripped by............: Leonenero on 08/01/2017 Posted by............: Leonenero on 08/01/2017 News Server..........: news.astraweb.com News Group(s)........: TntVillage Included.............: NFO, MD5, M3U, LOG, CUE Covers...............: Front Back CD --------------------------------------------------------------------- Tracklisting --------------------------------------------------------------------- 1. Count Basie and His Orchestra - In a Mellow Tone [05:53] 2. Count Basie and His Orchestra - Wind Machine [03:32] 3. Count Basie and His Orchestra - Blues for Stephanie [07:51] 4. Count Basie and His Orchestra - John the 3rd [05:16] 5. Count Basie and His Orchestra - There Will Never Be Another You [03:14] 6. Count Basie and His Orchestra - Bootie's Blues [04:18] 7. Count Basie and His Orchestra - Splanky [04:10] 8. Count Basie and His Orchestra - Basie's Back In Town [04:54] 9. Count Basie and His Orchestra - Watch What Happens [02:29] 10. Count Basie and His Orchestra - Work Song [04:24] Playing Time.........: 46:05 Total Size...........: 261,11 MB The Count Basie Orchestra has been on the move since the mid-1930's; even the Count's death in 1984 couldn't stop his band from keeping on; thus, ON THE ROAD is an especially appropriate title for this 1979 release. On the Road songs Producer Norman Granz had the band record in a studio before an invited audience; the result was a truly inspired studio session. The repertoire featured here includes compositions by Basie stalwarts, most notably, Ernie Wilkins, Bobby Plater, Sammy Nestico, and Neal Hefti. What raw yet controlled energy this band has! On "There Will Never Be Another You," an extended trumpet solo drives the band with vigor; Mickey Roker's virtuoso drumming on the opening track, "Wind Machine" is especially compelling. Basie even features himself (a rare occurrence) on "Bootie's Blues," a down-home stride piano number. These are but a few of the many superb ingredients of ON THE ROAD. This album is truly a gem.

Tutte lo vogliono (2015) DTS AC3 ITA 1080p BluRay x264 Subs

Language: | Size: 6.74 GB | Seed: 25 | Leech: 107

Description:

Titolo originale: Tutte lo vogliono Nazione: Italia Anno: 2015 Genere: Commedia Durata: 90' Regia: Alessio Maria Federici Cast: Enrico Brignano, Vanessa Incontrada, Giulio Berruti Produzione: MG Italian International Film Data di uscita: 17 Settembre 2015 (cinema) Trama: Giovanna, Carla, Francesca, Chiara. Cosa avranno in comune queste donne così diverse fra di loro? Quale sarà mai quel dettaglio non irrilevante che rende le loro esistenze segretamente imperfette? E quale mistero femminile è così intimo e così privato, che più privato non si può? Qualunque cosa sia, Tutte lo vogliono. Chiara (Incontrada) ha una professione con un nome attraente, anche se inquietante: fa la “food designer”, cioè prepara cibo bello da guardare, in società con una madre terribilmente snob e vagamente ingombrante. Orazio (Brignano) ha un mestiere con un nome decisamente meno attraente, ma più rassicurante: fa lo sciampista per cani, lavora per un maghrebino appassionato di soap opera e ama il cibo buono da mangiare. La sua ultima relazione risale a quattro anni prima e da allora preferisce la compagnia degli animali a quella delle donne... Parole chiave: commedia

Le origini di Moby Dick (2015) BDRip 1080p - H264 - Ita Eng Ac3 5.1 - Sub Ita Eng

Language: | Size: 8.37 GB | Seed: 118 | Leech: 105

Description:

Titolo originale: In the Heart of the Sea Nazione: U.S.A. Anno: 2015 Genere: Avventura, Azione Durata: 121' Regia: Ron Howard Sito ufficiale: www.intheheartoftheseamovie.com Cast: Chris Hemsworth, Cillian Murphy, Charlotte Riley, Michelle Fairley, Paul Anderson, Brendan Gleeson, Ben Whishaw, Benjamin Walker, Tom Holland, Jordi Mollà, Joseph Mawle Produzione: Cott Productions, Enelmar Productions, A.I.E., Imagine Entertainment Data di uscita: 03 Dicembre 2015 (cinema) Trama: Nell'inverno del 1820, la baleniera del New England viene attaccata da una creatura incredibile: una balena dalle dimensioni e la forza elefantiache, ed un senso quasi umano di vendetta. Il disastro marittimo, realmente accaduto, avrebbe ispirato Herman Melville a scrivere Moby Dick. Ma l'autore ha descritto solo una parte della storia. "In the Heart of the Sea" rivela le conseguenze di quella straziante aggressione, di come i superstiti dell'equipaggio della nave vengono spinti oltre i loro limiti e costretti a compiere l'impensabile per poter sopravvivere. Sfidando le intemperie, la fame, il panico e la disperazione, gli uomini mettono in discussione le loro convinzioni più radicate: dal valore della vita alla moralità delle loro spedizioni, mentre il capitano cerca di riprendere la rotta in mare aperto, ed il primo ufficiale tenta di sconfiggere il capodoglio.

Viy - La Maschera Del Demonio (2014).H264.Italian.English.Ac3.5.1.sub.iCV-MIRCrew

Language: | Size: 1.69 GB | Seed: 54 | Leech: 104

Description:

Viy - La Maschera Del Demonio (2014).H264.Italian.English.Ac3.5.1.sub.iCV-MIRCrew [center] [color=red][b][img]http://i.imgur.com/0scDel1.png[/img] [u]NO FOUND ONLY ORIGINAL RELEASE[/u] [img]http://i.imgur.com/GDNQx1Z.png[/img] My release is always in double track audio italian and Original audio for select it use VLC or dvd player home not use wmp Viy - La Maschera Del Demonio (2014) [img]http://extraimage.net/images/2016/12/11/e1d8e99f3268ea864be3c45a927014d7.png[/img] [URL=http://www.imdb.com/title/tt1224378/][IMG]http://www.userlogos.org/files/logos/Sucka/imdb_new.png[/IMG][/URL] [img]http://i.imgur.com/fWCejk0.png[/img] Titolo Originale: Viy Paese: Russia, Ucraina, Repubblica Ceca, Germania, Regno Unito 2014 Genere: Avventura/Horror Durata: 146' Regia: Oleg Stepchenko [img]http://i.imgur.com/V3qrNAd.png[/img] Viktor Bychkov, Emma Cerná, Aleksey Chadov, Anna Churina, Charles Dance, Agnia Ditkovskite, Jason Flemyng, Anatoliy Gushchin [img]http://i.imgur.com/GOBJ1sT.png[/img] All'inizio del XVIII secolo il cartografo Jonathan Green intraprende un viaggio scientifico che dall'Europa lo conduce verso l'Oriente. Dopo aver attraversato la Transilvania e superato i Carpazi, si ritrova in un piccolo villaggio perso tra i boschi e circondato dalla nebbia. Le persone che lì vivono non somigliano a nessun altro popolo conosciuto e hanno scavato un profondo fossato che, secondo le loro convinzioni.................... [img]http://i.imgur.com/R7WrNZe.png[/img] An 18th century English cartographer, Jonathan Green, sets out on a journey to map the uncharted lands of Transylvania, only to discover the dark secrets and dangerous creatures hidden in a cursed, fantastical Ukrainian forest. [img]http://i.imgur.com/GgEl7ea.png[/img] [url=https://extraimage.net/image/22Je][img]http://extraimage.net/images/2016/12/11/8b996edb961f9be8b26351efc72c1f24.th.png[/img][/url] [url=https://extraimage.net/image/22JZ][img]http://extraimage.net/images/2016/12/11/acce218442f6252776b7fe3dbdc4a8c7.th.png[/img][/url] [url=https://extraimage.net/image/22J4][img]http://extraimage.net/images/2016/12/11/a56c9a24ecfbbe0db5a46ee0532c2f1f.th.png[/img][/url] [url=https://extraimage.net/image/22JB][img]http://extraimage.net/images/2016/12/11/c2b65ce505fcd9502fc6aa4998bd905a.th.png[/img][/url] [img]http://i.imgur.com/Hm4fw0l.png[/img] [spoiler] Generale ID univoco : 226283965099437520865262931776029820253 (0xAA3CB4D8B9B8AA190C84BB66414F855D) Nome completo : Viy La Maschera Del Demonio (2014).H264.ita.eng.sub.ita.iCV-MIRCrew.mkv Formato : Matroska Versione formato : Version 2 Dimensione : 1,69 GiB Durata : 1o 51min Bitrate totale : 2.171 Kbps Film : VISIT www.icv-crew.org Data codifica : UTC 2016-12-10 16:56:50 / UTC 2016-12-10 16:56:50 Creato con : Lavf54.63.100 Compressore : Lavf54.63.100 / Lavf54.63.100 Copyright : robbyrs Video ID : 1 Formato : AVC Formato/Informazioni : Advanced Video Codec Profilo formato : [email protected] Impostazioni formato, CABAC : Si Impostazioni formato, ReFrames : 2 frame ID codec : V_MPEG4/ISO/AVC Durata : 1o 51min Bitrate : 1.270 Kbps Larghezza : 720 pixel Altezza : 404 pixel Rapporto aspetto visualizzazione : 16:9 Modalità frame rate : Costante Frame rate : 23,976 (24000/1001) fps Spazio colore : YUV Croma subsampling : 4:2:0 Profondità bit : 8 bit Tipo scansione : Progressivo Bit/(pixel*frame) : 0.182 Dimensione della traccia : 983MiB (57%) Compressore : x264 core 130 r2273 Impostazioni compressione : cabac=1 / ref=2 / deblock=1:0:0 / analyse=0x1:0x131 / me=hex / subme=7 / psy=1 / psy_rd=1.00:0.00 / mixed_ref=0 / me_range=16 / chroma_me=1 / trellis=1 / 8x8dct=0 / cqm=0 / deadzone=21,11 / fast_pskip=1 / chroma_qp_offset=-2 / threads=12 / lookahead_threads=2 / sliced_threads=0 / nr=0 / decimate=1 / interlaced=0 / bluray_compat=0 / constrained_intra=0 / bframes=3 / b_pyramid=0 / b_adapt=1 / b_bias=0 / direct=3 / weightb=1 / open_gop=0 / weightp=2 / keyint=230 / keyint_min=23 / scenecut=40 / intra_refresh=0 / rc_lookahead=40 / rc=2pass / mbtree=1 / bitrate=1270 / ratetol=1.0 / qcomp=0.60 / qpmin=10 / qpmax=69 / qpstep=4 / cplxblur=20.0 / qblur=0.5 / vbv_maxrate=24000 / vbv_bufsize=24000 / nal_hrd=none / ip_ratio=1.40 / aq=1:1.00 Lingua : Inglese Default : Si Forced : No Statistics Tags Issue : mkvmerge v8.7.0 ('All of the above') 64bit 2016-12-08 15:04:29 / Lavf54.63.100 2016-12-10 16:56:50 / UTC 2016-12-10 16:56:50 FromStats_BitRate : 9990772 FromStats_Duration : 01:51:35.147000000 FromStats_FrameCount : 160523 FromStats_StreamSize : 8361210972 Audio #1 ID : 2 Formato : AC-3 Formato/Informazioni : Audio Coding 3 Estensione modo : CM (complete main) Impostazioni formato, Endianness : Big ID codec : A_AC3 Durata : 1o 51min Modalità bitrate : Costante Bitrate : 448 Kbps Canali : 6 canali Posizione canali : Front: L C R, Side: L R, LFE Frequenza campionamento : 48,0 KHz Frame rate : 31,250 fps (1536 spf) Profondità bit : 16 bit Modo compressione : Con perdita Ritardo video : -5ms Dimensione della traccia : 358MiB (21%) Titolo : AC3 ITA Lingua : Italiano Default : No Forced : No Statistics Tags Issue : mkvmerge v8.7.0 ('All of the above') 64bit 2016-12-08 15:04:29 / Lavf54.63.100 2016-12-10 16:56:50 / UTC 2016-12-10 16:56:50 FromStats_BitRate : 640000 FromStats_Duration : 01:51:35.808000000 FromStats_FrameCount : 209244 FromStats_StreamSize : 535664640 Audio #2 ID : 3 Formato : AC-3 Formato/Informazioni : Audio Coding 3 Estensione modo : CM (complete main) Impostazioni formato, Endianness : Big ID codec : A_AC3 Durata : 1o 51min Modalità bitrate : Costante Bitrate : 448 Kbps Canali : 6 canali Posizione canali : Front: L C R, Side: L R, LFE Frequenza campionamento : 48,0 KHz Frame rate : 31,250 fps (1536 spf) Profondità bit : 16 bit Modo compressione : Con perdita Ritardo video : -5ms Dimensione della traccia : 358MiB (21%) Titolo : AC3 ENG Lingua : Inglese Default : No Forced : No Statistics Tags Issue : mkvmerge v8.7.0 ('All of the above') 64bit 2016-12-08 15:04:29 / Lavf54.63.100 2016-12-10 16:56:50 / UTC 2016-12-10 16:56:50 FromStats_BitRate : 640000 FromStats_Duration : 01:51:35.168000000 FromStats_FrameCount : 209224 FromStats_StreamSize : 535613440 Testo #1 ID : 4 Formato : UTF-8 ID codec : S_TEXT/UTF8 ID codec/Informazioni : UTF-8 Plain Text Titolo : FORCED ITA Lingua : Italiano Default : Si Forced : No Statistics Tags Issue : mkvmerge v8.7.0 ('All of the above') 64bit 2016-12-08 15:04:29 / Lavf54.63.100 2016-12-10 16:56:50 / UTC 2016-12-10 16:56:50 FromStats_BitRate : 1 FromStats_Duration : 00:12:25.421000000 FromStats_FrameCount : 3 FromStats_StreamSize : 99 Testo #2 ID : 5 Formato : UTF-8 ID codec : S_TEXT/UTF8 ID codec/Informazioni : UTF-8 Plain Text Titolo : REGULAR ITA Lingua : Italiano Default : No Forced : No Statistics Tags Issue : mkvmerge v8.7.0 ('All of the above') 64bit 2016-12-08 15:04:29 / Lavf54.63.100 2016-12-10 16:56:50 / UTC 2016-12-10 16:56:50 FromStats_BitRate : 50 FromStats_Duration : 01:46:46.456000000 FromStats_FrameCount : 1078 FromStats_StreamSize : 40479 Menu 00:00:00.000 : :00:00:00.000 00:04:21.011 : :00:04:21.011 00:12:51.020 : :00:12:51.020 00:21:26.994 : :00:21:26.994 00:31:38.021 : :00:31:38.021 00:44:34.964 : :00:44:34.964 00:54:16.962 : :00:54:16.962 01:05:53.950 : :01:05:53.950 01:14:13.908 : :01:14:13.908 01:22:09.925 : :01:22:09.925 01:31:09.923 : :01:31:09.923 01:47:16.889 : :01:47:16.889 [/spoiler] [/color][/b][/center]

Suicide Squad 2016 THEATRICAL ITA-ENG 3D SBS Half Bluray 1080p x264-CB01HD[ICV-CREW]

Language: | Size: 10.04 GB | Seed: 3 | Leech: 101

Description:

SUICIDE SQUAD THEATRICAL.ITA-ENG.3D.SBS.Half.Bluray.1080p LANGUAGE - ITA - ENG Sub ITA - ENG Trovi tutte le nostre release su IL CORSARO VERDE - WWW.ICV-CREW.ORG [youtube]https://www.youtube.com/watch?v=zwxw4W9ZGWM[/youtube] DATA USCITA: 13 agosto 2016 GENERE: Azione , Fantasy ANNO: 2016 REGIA: David Ayer ATTORI: Will Smith, Margot Robbie, Jared Leto, Joel Kinnaman, Jai Courtney, Cara Delevingne, Viola Davis, Scott Eastwood, Raymond Olubawale, Jay Hernandez, Ike Barinholtz, Ted Whittall, Robin Atkin Downes, David Harbour SCENEGGIATURA: David Ayer FOTOGRAFIA: Roman Vasyanov MONTAGGIO: John Gilroy MUSICHE: Steven Price PRODUZIONE: Atlas Entertainment, DC Entertainment, Dune Entertainment DISTRIBUZIONE: Warner Bros. PAESE: USA DURATA: 130 Min[/center] Trama:It feels good to be bad...Assemble a team of the world's most dangerous, incarcerated Super Villains, provide them with the most powerful arsenal at the government's disposal, and send them off on a mission to defeat an enigmatic, insuperable entity. U.S. intelligence officer Amanda Waller has determined only a secretly convened group of disparate, despicable individuals with next to nothing to lose will do. However, once they realize they weren't picked to succeed but chosen for their patent culpability when they inevitably fail, will the Suicide Squad resolve to die trying, or decide it's every man for himself? Written by Amitash Balekar Mettete insieme un team dei più pericolosi Super Cattivi che possiate trovare nelle carceri del mondo, dategli il più fornito arsenale a disposizione del governo e mandateli in missione per sconfiggere un'entità insuperabile ed enigmatica. L'ufficiale dell'intelligence degli U.S.A., Amanda Waller ha convocato in gran segreto un gruppo di individui disperati e deprecabili che non ha niente da perdere. Ad ogni modo, dopo aver fallito inevitabilmente la missione ed essersi resi conto di non essere stati scelti per avere successo quanto per la loro colpevolezza riconosciuta, pensate che la SUICIDE SQUAD risolverà la questione tentando ma rischiando la morte oppure deciderà di dividersi e andare ognuno per la sua strada?

Mine (2016) + Bonus 28 m..H264.Italian.Ac3.5.1.sub.ita.iCV-MIRCrew

Language: | Size: 1.5 GB | Seed: 69 | Leech: 101

Description:

Mine (2016) + Bonus 28 m..H264.Italian.Ac3.5.1.sub.ita.iCV-MIRCrew [center] [color=red][b][img]http://s23.postimg.org/b9yhws27f/0sc_Del1.png[/img] [u]NO FOUND ONLY ORIGINAL RELEASE[/u] [img]http://i.imgur.com/GDNQx1Z.png[/img] My release is always in double track audio italian and Original audio for select it use VLC or dvd player home not use wmp Mine (2016) + Bonus 28 m. [img]https://extraimage.net/images/2017/02/11/c98a15d3ee6a9ae914dc855f78094aae.png[/img] [URL=http://www.imdb.com/title/tt3707104/][IMG]http://www.userlogos.org/files/logos/Sucka/imdb_new.png[/IMG][/URL] [img]http://i.imgur.com/fGu1rKv.png[/img] DATA USCITA: 06 ottobre 2016 GENERE: Thriller ANNO: 2016 REGIA: Fabio Guaglione, Fabio Resinaro SCENEGGIATURA: Fabio Guaglione, Fabio Resinaro MONTAGGIO: Filippo Mauro Boni, Fabio Guaglione, Matteo Santi MUSICHE: Luca Balboni PRODUZIONE: The Safran Company DISTRIBUZIONE: Eagle Pictures PAESE: USA DURATA: 106 Min [img]http://i.imgur.com/W7kBqiE.png[/img] Armie Hammer, Annabelle Wallis, Tom Cullen, Juliet Aubrey, Geoff Bell, Clint Dyer [img]http://i.imgur.com/bFK3ggF.png[/img] Afghanistan: un soldato (Armie Hammer) sta tornando al campo base dopo una missione, ma inavvertitamente poggia il piede su una mina antiuomo. Non può più muoversi, altrimenti salterà in aria..................... [img]http://i.imgur.com/48xHWWH.png[/img] After a failed assassination attempt, a soldier finds himself stranded in the desert. Exposed to the elements, he must survive the dangers of the desert and battle the psychological and physical toll of the treacherous conditions............. [img]http://i.imgur.com/K8bfNTy.png[/img] [url=https://extraimage.net/image/2U4z][img]https://extraimage.net/images/2017/02/11/63617519bd051e1e64732f5010e95a9b.th.png[/img][/url] [url=https://extraimage.net/image/2U4U][img]https://extraimage.net/images/2017/02/11/c575079ab0075791a0c93843b89fd656.th.png[/img][/url] [url=https://extraimage.net/image/2U40][img]https://extraimage.net/images/2017/02/11/37d487d1e693b24eb181ed6fb1216119.th.png[/img][/url] [img]http://i.imgur.com/aVrMohH.png[/img] [spoiler] General Unique ID : 71968960954651214635680604752844126879 (0x3624B7BAFBE952B73DE4FE63F7837A9F) Complete name : Mine (2016).H264.ita.sub.ita.+28m.bonus.iCV-MIRCrew\Mine (2016).H264.ita.sub.ita.+28m. bonus.iCV-MIRCrew.mkv Format : Matroska Format version : Version 2 File size : 1.23 GiB Duration : 1h 42mn Overall bit rate : 1 724 Kbps Encoded date : UTC 2017-02-10T17:24:31Z Writing application : HandBrake 0.10.5 2016021100 Writing library : Lavf55.12.0 By : www.icv-crew.org Video ID : 1 Format : AVC Format/Info : Advanced Video Codec Format profile : [email protected] Format settings, CABAC : Yes Format settings, ReFrames : 4 frames Codec ID : V_MPEG4/ISO/AVC Duration : 1h 42mn Bit rate : 1 280 Kbps Width : 720 pixels Height : 304 pixels Display aspect ratio : 2.35:1 Frame rate mode : Variable Frame rate : 25.000 fps Color space : YUV Chroma subsampling : 4:2:0 Bit depth : 8 bits Scan type : Progressive Bits/(Pixel*Frame) : 0.163 Stream size : 908 MiB (72%) Writing library : x264 core 142 r2479 dd79a61 Encoding settings : cabac=1 / ref=1 / deblock=1:0:0 / analyse=0x1:0x111 / me=hex / subme=2 / psy=1 / psy_rd=1.00:0.00 / mixed_ref=0 / me_range=16 / chroma_me=1 / trellis=0 / 8x8dct=0 / cqm=0 / deadzone=21,11 / fast_pskip=1 / chroma_qp_offset=0 / threads=3 / lookahead_threads=1 / sliced_threads=0 / nr=0 / decimate=1 / interlaced=0 / bluray_compat=0 / constrained_intra=0 / bframes=3 / b_pyramid=2 / b_adapt=1 / b_bias=0 / direct=1 / weightb=1 / open_gop=0 / weightp=1 / keyint=250 / keyint_min=25 / scenecut=40 / intra_refresh=0 / rc_lookahead=10 / rc=abr / mbtree=1 / bitrate=1280 / ratetol=1.0 / qcomp=0.60 / qpmin=0 / qpmax=69 / qpstep=4 / vbv_maxrate=20000 / vbv_bufsize=25000 / nal_hrd=none / filler=0 / ip_ratio=1.40 / aq=1:1.00 Default : Yes Forced : No Color primaries : BT.470-6 System B, BT.470-6 System G, BT.601-6 625, BT.1358 625, BT.1700 625 PAL, BT.1700 625 SECAM Transfer characteristics : BT.709-5, BT.1361 Matrix coefficients : BT.601-6 525, BT.1358 525, BT.1700 NTSC, SMPTE 170M Audio ID : 2 Format : AC-3 Format/Info : Audio Coding 3 Mode extension : CM (complete main) Codec ID : A_AC3 Duration : 1h 42mn Bit rate mode : Constant Bit rate : 448 Kbps Channel(s) : 6 channels Channel positions : Front: L C R, Side: L R, LFE Sampling rate : 48.0 KHz Bit depth : 16 bits Compression mode : Lossy Delay relative to video : 1mn 5s Stream size : 328 MiB (26%) Title : Surround Language : Italian Default : Yes Forced : No Text ID : 3 Format : VobSub Codec ID : S_VOBSUB Codec ID/Info : The same subtitle format used on DVDs Language : Italian Default : No Forced : No Menu 00:00:00.000 : :Chapter 1 00:06:18.680 : :Chapter 2 00:13:31.440 : :Chapter 3 00:24:02.920 : :Chapter 4 00:34:14.320 : :Chapter 5 00:41:10.400 : :Chapter 6 00:48:23.640 : :Chapter 7 01:01:00.320 : :Chapter 8 01:08:39.160 : :Chapter 9 01:17:24.200 : :Chapter 10 01:25:42.920 : :Chapter 11 01:39:07.560 : :Chapter 12 [/spoiler] [/color][/b][/center]

Big Eyes (2014) iTALiAN AC3 HDRip XviD

Language: | Size: 1.41 GB | Seed: 125 | Leech: 99

Description:

Titolo originale: Big Eyes Nazione: U.S.A. Anno: 2014 Genere: Drammatico Durata: 104' Regia: Tim Burton Sito ufficiale: www.bigeyesfilm.com Sito italiano: www.bigeyes.it Social network: facebook, twitter Cast: Amy Adams, Krysten Ritter, Christoph Waltz, Jason Schwartzman, Danny Huston, Terence Stamp, Stephanie Bennett, Heather Doerksen, Andrew Airlie, Jon Polito, Elisabetta Fantone, Emily Fonda Produzione: Silverwood Films, Electric City Entertainment, Tim Burton Productions Data di uscita: 01 Gennaio 2015 (cinema) Trama: La vera storia di Margaret Keane (Amy Adams) e di suo marito Walter (Christoph Waltz), i cui dipinti dei bambini dai grandi occhi divennero un vero e proprio fenomeno negli Stati Uniti tra il 1960 e il 1970. La mano d'artista era di Margaret, ma Walter fece credere al mondo di essere il vero autore dei quadri, conquistando una fama internazionale del tutto immeritata. I due finirono con il divorziare, arrivando ad una battaglia legale senza precedenti: un duello a colpi di pennello per ristabilire la giusta paternità delle opere. Parole chiave: dramma

Notte al Museo 3 - Il segreto del Faraone (2014) iTALiAN AC3 BluRay m1080p x264

Language: | Size: 1.97 GB | Seed: 648 | Leech: 99

Description:

Titolo originale: Night at the Museum 3 Nazione: U.S.A., Regno Unito Anno: 2014 Genere: Avventura, Commedia Durata: 98' Regia: Shawn Levy Sito ufficiale: www.nightatthemuseummovie.com Sito italiano: www.nottealmuseo.it Social network: facebook Cast: Ben Stiller, Robin Williams, Rachael Harris, Owen Wilson, Rebel Wilson, Rami Malek, Ricky Gervais, Ben Kingsley, Dan Stevens, Mizuo Peck, Dick Van Dyke, Steve Coogan, Mickey Rooney, Skyler Gisondo, Bill Cobbs Produzione: Twentieth Century Fox Film Corporation Distribuzione: 20th Century Fox Data di uscita: 28 Gennaio 2015 (cinema) Trama: Preparatevi per la Notte al museo più selvaggia e ricca di avventure di sempre, in cui Larry Daley (Ben Stiller) attraversa tutto il globo, riunendo beniamini del pubblico e nuovi personaggi, imbarcandosi in un'epica missione per salvare la magia prima che scompaia per sempre. Immaginate di passeggiare nei più magnifici musei del pianeta, dove le meraviglie e la storia del mondo prendono vita. Quando i personaggi del Museo di Storia Naturale di New York, che di notte prendono vita, cominciano a comportarsi in modo strano, Larry, da poco promosso responsabile delle attività notturne del Museo, deve scoprire il perché. La Tavoletta, che magicamente porta in vita le creature, ha cominciato a deteriorarsi e l’unico modo per ripristinarne i poteri potrebbe trovarsi al British Museum. Larry, che farebbe qualunque cosa per salvare la sua "famiglia" del Museo, insieme al figlio Nick e ai vari personaggi in mostra, vola da New York a Londra per scoprire il segreto della Tavoletta. Fonte Audio WEB-DL Itunes Parole chiave: avventura commedia

Minions (2015) .avi iTA AC3 5.1 BDRip XviD

Language: | Size: 1.21 GB | Seed: 451 | Leech: 99

Description:

Titolo originale: Minions Nazione: U.S.A. Anno: 2015 Genere: Animazione Durata: 91' Regia: Kyle Balda, Pierre Coffin Sito ufficiale: www.minionsmovie.com Sito italiano: universalshowtimes.com/it/minions/ Social network: facebook, twitter Cast (voci): Sandra Bullock, Steve Carell, Jon Hamm, Pierre Coffin, Chris Renaud Produzione: Illumination Entertainment Distribuzione: Universal Pictures Italia Data di uscita: 27 Agosto 2015 (cinema) Trama: La storia di Minions inizia all'alba dei tempi. Partendo da organismi gialli unicellulari, i Minion si evolvono attraverso i secoli, perennemente al servizio del più spregevole dei padroni. Continuamente senza successo nel preservare questi maestri, dal T-Rex a Napoleone, i Minion si sono ritrovati senza qualcuno da servire e sono caduti in una profonda depressione. Ma un Minion di nome Kevin ha un piano, e lui - insieme all'adolescente ribelle Stuart e all'adorabile piccolo Bob - decide di avventurarsi nel mondo per trovare un nuovo capo malvagio da seguire per sé e i suoi fratelli. Il trio si imbarca in un viaggio emozionante che li condurrà alla loro prossima potenziale padrona, Scarlet Overkill (Sandra Bullock), la prima super-cattiva al mondo. Un viaggio che li porterà dalla gelida Antartide alla New York City del 1960, fino ad arrivare a Londra, dove dovranno affrontare la loro sfida più grande: salvare tutti i Minion... dall'annientamento. Parole chiave: animazione

Spongebob - Fuori dall'acqua (2015) iTALiAN AC3 HDRip XviD

Language: | Size: 1.37 GB | Seed: 643 | Leech: 99

Description:

Titolo originale: The SpongeBob Movie: Sponge Out of Water Nazione: U.S.A. Anno: 2015 Genere: Animazione Durata: 93' Regia: Paul Tibbitt Sito ufficiale: www.spongebobmovie.com Sito italiano: www.spongebob-fuoridallacqua.it Social network: facebook Cast: Antonio Banderas Cast (voci): Clancy Brown, Tom Kenny, Thomas F. Wilson, Bill Fagerbakke, Rodger Bumpass, Mr. Lawrence, Kaitlyn Ervin, Carolyn Lawrence, Noah Lomax, Jesica Ahlberg Produzione: Disruption Entertainment, Nickelodeon Animation Studio, Nickelodeon Movies, Paramount Animation, Paramount Pictures, Reel FX Creative Studios, United Plankton Pictures Distribuzione: Universal Pictures Italia Data di uscita: 26 Febbraio 2015 (cinema) Trama: Da Paramount Animation e Nickelodeon Movies arriva "Spongebob - Fuori dall'Acqua", una nuova avventura in 3D che è pazza e divertente come il suo protagonista. Per la prima volta, Spongebob Squarepants, l'invertebrato marino più amato del mondo, approda a terra nel nostro mondo per la sua più supereroica avventura. La vita a Bikini Bottom non poteva andare meglio per SpongeBob (Tom Kenny), l'eterno ottimista, e i suoi amici: Patrick Stella (Bill Fagerbakke) la stella marina, il sardonico Squiddy Tentacolo (Rodger Bumpass), Sandy (Carolyn Lawrence) la scienziata scoiattolo e il crostaceo capitalista Mr. Krabs (Clancy Brown). Quando però la ricetta segretissima dell'hamburger Krabby Patty viene rubata, i due eterni avversari SpongeBob e Plankton (Mr. Lawrence) dovranno unire le loro forze in un viaggio attraverso il tempo e lo spazio e sfruttare i superpoteri che albergano in loro, per dare battaglia al diabolico pirata Barba Burger (Antonio Banderas) e frustrare i suoi piani per quelle deliziose prelibatezze. Risoluzione - 720 X 416 Parole chiave: spongebob

Breaking Bad S02e12-13 ITALIAN XviD WEB-DL

Language: | Size: 689.78 MB | Seed: 846 | Leech: 99

Description:

TITOLO ORIGINALE: Breaking Bad PAESE: USA ANNO: 2008-2013 GENERE: Drammatico DURATA: 47 Min REGIA: Vince Gilligan ATTORI: Bryan Cranston, Anna Gunn, Aaron Paul, RJ Mitte, Dean Norris, Betsy Brandt, Bob Odenkirk, Jonathan Banks, Giancarlo Esposito DATA USCITA: 22 novembre 2008 TRAMA: Walter White, sottopagato insegnante di chimica alla soglia dei cinquanta anni, scopre di avere un cancro terminale ai polmoni. Incapace di accettare questa terribile realtà, e preoccupato sul futuro della sua famiglia - una moglie incinta e un figlio affetto da paralisi celebrale - Walter decide di tirare fuori la rabbia e sfruttare le sue conoscenze di chimica per produrre metamfetamina insieme a Jesse, un suo ex studente nel giro già da diverso tempo. VIDEO: 624 x 352 (16:9), 25 fps, XviD ~938 kbps AUDIO: 48.0 KHz, MP3 2 ch, 112 Kbps, VBR EPISODI: Prima TV Italia 12.Phoenix - Phoenix (22 agosto 2010) 13.ABQ - Albuquerque (29 agosto 2010) VALUTAZIONE:

Homeland S04e03 ITA Ac3 x264 720p - Blocco totale

Language: | Size: 1.6 GB | Seed: 430 | Leech: 99

Description:

GENERE: Drammatico ANNO: 2011 IDEATORE: Howard Gordon, Alex Gansa ATTORI: Claire Danes, Mandy Patinkin, Rupert Friend, F. Murray Abraham, Tracy Letts, Nazanin Boniadi, Laila Robins, Sarita Choudhury, Damian Lewis, Morena Baccarin, Morgan Saylor, Jackson Pace, David Marciano, Diego Klattenhoff, David Harewood, Navid Negahban, Jamey Sheridan PRODUZIONE: Showtime Networks PAESE: USA DURATA: 50 Min STATO: In Lavorazione SITO WEB UFFICIALE : http://www.sho.com/sho/homeland/home TRAMA: Quando il sergente della Marina Nicholas Brody, dato per disperso, torna a casa come un eroe dopo otto anni di prigionia in Iraq, la brillante ma imprevedibile agente della CIA Carrie Mathison non crede alla sua storia. Carrie è convinta che Brody stia lavorando per Al Qaeda, e stia progettando di colpire il suo Paese con un nuovo e devastante attentato. Determinata a scoprire la verità, Carrie porta avanti la sua indagine nonostante il dissenso dei suoi superiori. L’unica persona di cui lei può fidarsi è Saul Berenson, suo ex capo e mentore. VIDEO: 1280 x 720 (16:9), 25 fps, x264 ~4255 kbps avg AUDIO: 48 kHz, AC3, 2 ch, ~192 kbps SOTTOTITOLI: Italiano, Inglese EPISODIO: 3. Shalwar Kameez - Blocco totale (24 ottobre 2014 Prima TV Italia)